<?xml version="1.0" encoding="UTF-8"?>
<svg xmlns="http://www.w3.org/2000/svg" xmlns:xlink="http://www.w3.org/1999/xlink" version="1.2" >
<font id="Catalana Sans Bold Italic">
<font-face  font-family="Catalana Sans" units-per-em="1000" ascent="1000" descent="-300" font-style="normal" font-weight="700" font-stretch="normal" slope="-12" cap-height="700" x-height="530" underline-position="-75" underline-thickness="50" />
<missing-glyph  horiz-adv-x="883" d="M323 518 Q340 526 370.5 537.5 Q401 549 441 549 Q482 549 510 540 Q538 531 555.5 516 Q573 501 580.5 482 Q588 463 588 443 Q588 406 569.5 380.5 Q551 355 509 337 Q480 324 470 317.5 Q460 311 459 298 L454 259 L382 259 L376 298 Q373 317 377.5 329.5 Q382 342 392 351.5 Q402 361 416 368 Q430 375 446 383 Q462 390 470.5 397 Q479 404 483 410 Q487 416 487.5 421.5 Q488 427 488 432 Q488 448 475 459.5 Q462 471 430 471 Q404 471 381 466 Q358 461 323 445 L323 518 Z M363 168 Q363 191 378 206.5 Q393 222 419 222 Q445 222 459.5 206.5 Q474 191 474 168 Q474 148 459.5 132.5 Q445 117 419 117 Q393 117 378 132.5 Q363 148 363 168 Z M80 349 Q80 424 108.5 490 Q137 556 186 604.5 Q235 653 301 681.5 Q367 710 442 710 Q517 710 583 681.5 Q649 653 697.5 604.5 Q746 556 774.5 490 Q803 424 803 349 Q803 274 774.5 209 Q746 144 696.5 95 Q647 46 581.5 18 Q516 -10 441 -10 Q366 -10 300 18 Q234 46 185.5 95 Q137 144 108.5 209 Q80 274 80 349 Z M155 349 Q155 289 177 237 Q199 185 238 146 Q277 107 329 84.5 Q381 62 441 62 Q501 62 553 84.5 Q605 107 643.5 146 Q682 185 704.5 237 Q727 289 727 349 Q727 409 705 461.5 Q683 514 644.5 553 Q606 592 554 614.5 Q502 637 442 637 Q382 637 329.5 614.5 Q277 592 238.5 553 Q200 514 177.5 461.5 Q155 409 155 349 Z " />
<glyph glyph-name="NULL" d="" />
<glyph glyph-name="nonmarkingreturn" unicode="&#xd;" d="" />
<glyph glyph-name="space" unicode="&#x20;" horiz-adv-x="206" d="" />
<glyph glyph-name="exclam" unicode="&#x21;" horiz-adv-x="277" d="M2 61 Q2 80 10 98 Q18 116 32 129.5 Q46 143 65.5 151 Q85 159 109 159 Q140 159 160.5 137.5 Q181 116 181 88 Q181 68 173 50.5 Q165 33 151 19.5 Q137 6 117 -2 Q97 -10 73 -10 Q43 -10 22.5 11 Q2 32 2 61 Z M62 225 L98 529 L135 700 L311 700 L274 529 L183 225 L62 225 Z " />
<glyph glyph-name="quotedbl" unicode="&#x22;" horiz-adv-x="393" d="M265 442 L283 628 L299 700 L433 700 L417 628 L357 442 L265 442 Z M92 442 L110 628 L126 700 L260 700 L244 628 L184 442 L92 442 Z " />
<glyph glyph-name="numbersign" unicode="&#x23;" horiz-adv-x="542" d="M472 146 L362 146 L314 0 L222 0 L270 146 L178 146 L130 0 L38 0 L86 146 L14 146 L14 222 L111 222 L140 309 L54 309 L54 385 L165 385 L213 530 L305 530 L257 385 L349 385 L397 530 L489 530 L441 385 L512 385 L512 309 L416 309 L387 222 L472 222 L472 146 Z M203 222 L295 222 L324 309 L232 309 L203 222 Z " />
<glyph glyph-name="dollar" unicode="&#x24;" horiz-adv-x="570" d="M520 225 Q520 123 449.5 61.5 Q379 0 253 -8 L233 -102 L173 -102 L192 -9 Q123 -7 75 7 Q27 21 8 33 L35 158 Q95 132 142 123.5 Q189 115 219 115 L254 279 Q224 295 193 312 Q162 329 137 352.5 Q112 376 96 407.5 Q80 439 80 484 Q80 537 100 577.5 Q120 618 155.5 646.5 Q191 675 239.5 690.5 Q288 706 345 709 L362 787 L422 787 L405 709 Q463 706 502.5 696.5 Q542 687 561 679 L534 552 Q490 566 452 574 Q414 582 379 584 L343 417 Q371 403 402.5 385.5 Q434 368 460 345 Q486 322 503 292.5 Q520 263 520 225 Z M234 516 Q234 493 244.5 478.5 Q255 464 289 445 L318 583 Q278 577 256 560 Q234 543 234 516 Z M356 192 Q356 210 345 222.5 Q334 235 308 250 L280 120 Q325 129 340.5 149 Q356 169 356 192 Z " />
<glyph glyph-name="percent" unicode="&#x25;" horiz-adv-x="722" d="M168 501 Q168 476 174 464 Q180 452 197 452 Q214 452 227 465.5 Q240 479 249 498.5 Q258 518 262.5 539.5 Q267 561 267 576 Q267 600 261 612 Q255 624 238 624 Q221 624 208 611 Q195 598 186 579.5 Q177 561 172.5 539.5 Q168 518 168 501 Z M361 582 Q361 538 348.5 499.5 Q336 461 313.5 432.5 Q291 404 260.5 387.5 Q230 371 193 371 Q136 371 105.5 402.5 Q75 434 75 494 Q75 537 86.5 575.5 Q98 614 120 643 Q142 672 174 689.5 Q206 707 246 707 Q300 707 330.5 676 Q361 645 361 582 Z M475 125 Q475 100 481 88 Q487 76 504 76 Q521 76 534 89.5 Q547 103 556 122.5 Q565 142 569.5 163.5 Q574 185 574 200 Q574 224 568 236 Q562 248 545 248 Q528 248 515 235 Q502 222 493 203.5 Q484 185 479.5 163.5 Q475 142 475 125 Z M668 206 Q668 162 655.5 123.5 Q643 85 620.5 56.5 Q598 28 567.5 11.5 Q537 -5 500 -5 Q443 -5 412.5 26.5 Q382 58 382 118 Q382 161 393.5 199.5 Q405 238 427 267 Q449 296 481 313.5 Q513 331 553 331 Q607 331 637.5 300 Q668 269 668 206 Z M577 700 L662 700 L166 0 L81 0 L577 700 Z " />
<glyph glyph-name="ampersand" unicode="&#x26;" horiz-adv-x="712" d="M330 551 Q330 540 332 530 Q334 520 339 508 Q344 496 353 480.5 Q362 465 376 442 Q391 452 407 465 Q423 478 436 494 Q449 510 457 530 Q465 550 465 573 Q465 599 449.5 611 Q434 623 405 623 Q371 623 350.5 602.5 Q330 582 330 551 Z M280 103 Q328 103 378 133 L268 312 Q255 307 237 298 Q219 289 202.5 274 Q186 259 174 238 Q162 217 162 189 Q162 155 191 129 Q220 103 280 103 Z M431 48 Q386 21 334 5.5 Q282 -10 219 -10 Q162 -10 121 5 Q80 20 54 44.5 Q28 69 15.5 99.5 Q3 130 3 162 Q3 222 29.5 261 Q56 300 93 323.5 Q130 347 168 358 Q206 369 230 372 Q204 415 197 452.5 Q190 490 190 513 Q190 557 206 593.5 Q222 630 250.5 656 Q279 682 319.5 696 Q360 710 408 710 Q454 710 486.5 699 Q519 688 539.5 670 Q560 652 569.5 628 Q579 604 579 579 Q579 545 566 515 Q553 485 530.5 460 Q508 435 478.5 414.5 Q449 394 417 378 L495 251 Q512 276 528.5 305 Q545 334 560 369 L672 369 Q649 312 620 258 Q591 204 553 157 L576 119 Q581 110 589 107.5 Q597 105 608 105 L663 105 L640 0 L522 0 Q487 0 464 13.5 Q441 27 432 46 L431 48 Z " />
<glyph glyph-name="quotesingle" unicode="&#x27;" horiz-adv-x="220" d="M92 442 L110 628 L126 700 L260 700 L244 628 L184 442 L92 442 Z " />
<glyph glyph-name="parenleft" unicode="&#x28;" horiz-adv-x="338" d="M191 -115 Q114 -61 68.5 19 Q23 99 23 196 Q23 241 33 285 L58 403 Q75 485 105 544 Q135 603 176.5 648 Q218 693 270 728 Q322 763 384 796 L422 730 Q378 696 342.5 661 Q307 626 279 586 Q251 546 231.5 501 Q212 456 201 403 L176 285 Q162 221 162 168 Q162 105 188 53.5 Q214 2 258 -49 L191 -115 L191 -115 Z " />
<glyph glyph-name="parenright" unicode="&#x29;" horiz-adv-x="338" d="M164.012 795.993 Q241.007 741.996 286.504 662.001 Q332.001 582.006 332.001 485.012 Q332.001 440.015 322.002 396.017 L297.004 278.025 Q280.005 196.03 250.006 137.033 Q220.008 78.0368 178.511 33.0396 Q137.013 -11.9577 85.0165 -46.9556 Q33.0197 -81.9534 -28.9766 -114.951 L-66.9742 -48.9554 Q-22.9769 -14.9575 12.5209 20.0403 Q48.0187 55.0382 76.017 95.0358 Q104.015 135.033 123.514 180.031 Q143.013 225.028 154.012 278.025 L179.011 396.017 Q193.01 460.013 193.01 513.01 Q193.01 576.006 167.011 627.503 Q141.013 679 97.0157 729.997 L164.012 795.993 L164.012 795.993 Z " />
<glyph glyph-name="asterisk" unicode="&#x2a;" horiz-adv-x="454" d="M304 563 L365 623 L417 650 L466 553 L415 527 L318 509 L391 456 L425 410 L339 345 L304 391 L274 474 L244 391 L209 345 L123 410 L157 456 L230 509 L133 527 L82 553 L131 650 L183 623 L244 563 L220 643 L220 700 L328 700 L328 643 L304 563 Z " />
<glyph glyph-name="plus" unicode="&#x2b;" horiz-adv-x="500" d="M44 386 L209 386 L209 552 L307 552 L307 386 L472 386 L472 291 L307 291 L307 124 L209 124 L209 291 L44 291 L44 386 Z " />
<glyph glyph-name="comma" unicode="&#x2c;" horiz-adv-x="239" d="M-35 -96 L17 -24 L13 3 Q0 12 -6.5 26 Q-13 40 -13 57 Q-13 75 -6.5 91.5 Q0 108 12.5 121.5 Q25 135 42.5 143 Q60 151 83 151 Q118 151 138.5 131.5 Q159 112 159 83 Q159 62 150.5 46 Q142 30 131 16 L20 -130 L-35 -96 Z " />
<glyph glyph-name="hyphen" unicode="&#x2d;" horiz-adv-x="343" d="M61 335 L297 335 L274 230 L38 230 L61 335 Z " />
<glyph glyph-name="period" unicode="&#x2e;" horiz-adv-x="237" d="M-14 57 Q-14 75 -6.5 92 Q1 109 14.5 122 Q28 135 46.5 143 Q65 151 88 151 Q120 151 139 130.5 Q158 110 158 83 Q158 45 129 17.5 Q100 -10 54 -10 Q22 -10 4 10 Q-14 30 -14 57 Z " />
<glyph glyph-name="slash" unicode="&#x2f;" horiz-adv-x="440" d="M-64 -102 L416 787 L522 787 L41 -102 L-64 -102 Z " />
<glyph glyph-name="zero" unicode="0" horiz-adv-x="639" d="M277 -10 Q218 -10 173.5 10 Q129 30 100 65 Q71 100 56.5 147 Q42 194 42 247 Q42 325 62.5 407 Q83 489 125.5 556.5 Q168 624 232.5 667 Q297 710 385 710 Q444 710 488 690 Q532 670 561 634.5 Q590 599 604 551.5 Q618 504 618 450 Q618 373 597 292 Q576 211 533.5 143.5 Q491 76 427 33 Q363 -10 277 -10 Z M283 114 Q314 114 339 133 Q364 152 383.5 183.5 Q403 215 416.5 254.5 Q430 294 439 335 Q448 376 452.5 415 Q457 454 457 484 Q457 531 438.5 558 Q420 585 377 585 Q346 585 320.5 566 Q295 547 275.5 516 Q256 485 242 445.5 Q228 406 219 365 Q210 324 206 285 Q202 246 202 216 Q202 168 220 141 Q238 114 283 114 Z " />
<glyph glyph-name="one" unicode="1" horiz-adv-x="452" d="M-20 0 L2 105 L115 105 L210 553 L97 553 L119 661 L200 661 Q247 661 279.5 675 Q312 689 323 710 L403 710 L274 105 L389 105 L367 0 L-20 0 Z " />
<glyph glyph-name="two" unicode="2" horiz-adv-x="561" d="M129 662 Q138 666 157 674 Q176 682 204 690 Q232 698 267 704 Q302 710 343 710 Q403 710 444.5 694.5 Q486 679 512 654 Q538 629 549.5 597.5 Q561 566 561 535 Q561 490 546 456 Q531 422 500 391 Q469 360 421 329 Q373 298 306 260 Q266 237 241.5 222.5 Q217 208 203 196 Q189 184 182 172 Q175 160 171 143 L168 131 L486 131 L459 0 L-18 0 L8 129 Q15 165 28.5 193.5 Q42 222 67 247.5 Q92 273 130.5 299 Q169 325 227 358 Q268 381 299 400 Q330 419 351 437 Q372 455 382.5 474.5 Q393 494 393 518 Q393 548 371.5 565 Q350 582 301 582 Q263 582 209.5 569.5 Q156 557 106 534 L129 662 Z " />
<glyph glyph-name="three" unicode="3" horiz-adv-x="536" d="M129 674 Q157 687 205.5 698.5 Q254 710 315 710 Q372 710 412.5 696 Q453 682 478.5 659.5 Q504 637 516 608.5 Q528 580 528 551 Q528 470 483 421.5 Q438 373 363 359 L363 355 Q411 338 442 307 Q473 276 473 220 Q473 178 457 136.5 Q441 95 407 62.5 Q373 30 319.5 10 Q266 -10 191 -10 Q114 -10 59 4 Q4 18 -18 27 L5 141 Q62 122 105 117 Q148 112 174 112 Q210 112 236 121 Q262 130 278.5 145.5 Q295 161 303 182 Q311 203 311 226 Q311 265 291 283.5 Q271 302 221 302 L157 302 L179 415 L249 415 Q300 415 332.5 441.5 Q365 468 365 516 Q365 530 361 543 Q357 556 346.5 565.5 Q336 575 318.5 581 Q301 587 274 587 Q239 587 200.5 581.5 Q162 576 108 558 L129 674 Z " />
<glyph glyph-name="four" unicode="4" horiz-adv-x="609" d="M386 524 L156 284 L334 284 L386 524 Z M467 162 L432 0 L274 0 L308 162 L-5 162 L19 284 L425 710 L581 710 L492 284 L573 284 L549 162 L467 162 Z " />
<glyph glyph-name="five" unicode="5" horiz-adv-x="549" d="M198 -10 Q151 -10 113 -3 Q75 4 47 12 Q14 22 -11 35 L15 158 Q64 136 106.5 125.5 Q149 115 197 115 Q233 115 259.5 124.5 Q286 134 303.5 149.5 Q321 165 329 185.5 Q337 206 337 228 Q337 276 307 296.5 Q277 317 221 317 L71 317 L152 700 L558 700 L530 568 L258 568 L231 442 L264 442 Q312 442 355.5 431.5 Q399 421 431 397 Q463 373 482 334.5 Q501 296 501 241 Q501 196 483.5 151 Q466 106 429 70 Q392 34 334.5 12 Q277 -10 198 -10 Z " />
<glyph glyph-name="six" unicode="6" horiz-adv-x="586" d="M541 253 Q541 188 517 138.5 Q493 89 454 56 Q415 23 364.5 6.5 Q314 -10 261 -10 Q157 -10 96 48 Q35 106 35 228 Q35 268 43.5 319 Q52 370 71 423.5 Q90 477 120.5 528.5 Q151 580 195.5 620.5 Q240 661 299 685.5 Q358 710 435 710 Q490 710 530 702 Q570 694 589 687 L561 569 Q525 580 490.5 584 Q456 588 428 588 Q351 588 294 531.5 Q237 475 209 376 Q238 399 273.5 412.5 Q309 426 354 426 Q389 426 422.5 415.5 Q456 405 482.5 384 Q509 363 525 330.5 Q541 298 541 253 Z M275 103 Q296 103 317 110.5 Q338 118 354 134.5 Q370 151 380 175.5 Q390 200 390 235 Q390 273 367.5 293.5 Q345 314 310 314 Q280 314 249.5 301 Q219 288 188 259 Q187 245 186.5 229.5 Q186 214 186 198 Q186 178 190.5 161 Q195 144 205.5 131 Q216 118 233 110.5 Q250 103 275 103 Z " />
<glyph glyph-name="seven" unicode="7" horiz-adv-x="505" d="M36 0 L377 568 L76 568 L104 700 L571 700 L553 618 L211 0 L36 0 Z " />
<glyph glyph-name="eight" unicode="8" horiz-adv-x="582" d="M238 -10 Q172 -10 129 4 Q86 18 60 41 Q34 64 23.5 93.5 Q13 123 13 154 Q13 201 29.5 234.5 Q46 268 69.5 291 Q93 314 119.5 328 Q146 342 167 349 Q138 373 119.5 407 Q101 441 101 489 Q101 538 121 578.5 Q141 619 176 648 Q211 677 259 693.5 Q307 710 363 710 Q421 710 460.5 696 Q500 682 524 660.5 Q548 639 558.5 612 Q569 585 569 559 Q569 488 534 441.5 Q499 395 446 371 Q483 345 502.5 310.5 Q522 276 522 228 Q522 172 500 128 Q478 84 440 53 Q402 22 350 6 Q298 -10 238 -10 Z M244 524 Q244 510 250 497.5 Q256 485 269.5 472 Q283 459 305.5 445.5 Q328 432 362 416 Q376 425 389.5 436 Q403 447 414 461 Q425 475 431.5 493 Q438 511 438 532 Q438 564 412.5 581.5 Q387 599 345 599 Q298 599 271 578.5 Q244 558 244 524 Z M251 101 Q280 101 302 110 Q324 119 338.5 133 Q353 147 360 164 Q367 181 367 198 Q367 217 358.5 231 Q350 245 334 257 Q318 269 296 280 Q274 291 247 302 Q236 297 219 287 Q202 277 186 262 Q170 247 158 225.5 Q146 204 146 176 Q146 147 170.5 124 Q195 101 251 101 Z " />
<glyph glyph-name="nine" unicode="9" horiz-adv-x="587" d="M297 386 Q327 386 357.5 399 Q388 412 419 441 Q420 455 420.5 470.5 Q421 486 421 502 Q421 541 401 569 Q381 597 332 597 Q311 597 290 589.5 Q269 582 253 565.5 Q237 549 227 524 Q217 499 217 465 Q217 427 239.5 406.5 Q262 386 297 386 Z M172 -10 Q117 -10 77 -2 Q37 6 18 13 L46 131 Q82 120 116.5 116 Q151 112 179 112 Q255 112 312 168 Q369 224 398 323 Q370 301 335 287.5 Q300 274 253 274 Q218 274 184 284.5 Q150 295 124 316 Q98 337 82 369.5 Q66 402 66 447 Q66 512 90 561.5 Q114 611 153 644 Q192 677 242.5 693.5 Q293 710 346 710 Q450 710 511 652 Q572 594 572 472 Q572 432 563.5 381 Q555 330 536 276.5 Q517 223 486.5 171.5 Q456 120 411.5 79.5 Q367 39 307.5 14.5 Q248 -10 172 -10 Z " />
<glyph glyph-name="colon" unicode="&#x3a;" horiz-adv-x="273" d="M2 57 Q2 75 9.5 92 Q17 109 30.5 122 Q44 135 62.5 143 Q81 151 104 151 Q136 151 155 130.5 Q174 110 174 83 Q174 45 145 17.5 Q116 -10 70 -10 Q38 -10 20 10 Q2 30 2 57 Z M83 446 Q83 464 90.5 481 Q98 498 111.5 511 Q125 524 143.5 532 Q162 540 185 540 Q217 540 236 519.5 Q255 499 255 472 Q255 434 226 406.5 Q197 379 151 379 Q119 379 101 399 Q83 419 83 446 Z " />
<glyph glyph-name="semicolon" unicode="&#x3b;" horiz-adv-x="274" d="M2 57 Q2 75 8.5 91.5 Q15 108 27.5 121.5 Q40 135 57.5 143 Q75 151 98 151 Q133 151 153.5 131.5 Q174 112 174 83 Q174 62 165.5 46 Q157 30 146 16 L35 -130 L-20 -96 L32 -24 L28 3 Q15 12 8.5 26 Q2 40 2 57 Z M84 446 Q84 464 91.5 481 Q99 498 112.5 511 Q126 524 144.5 532 Q163 540 186 540 Q218 540 237 519.5 Q256 499 256 472 Q256 434 227 406.5 Q198 379 152 379 Q120 379 102 399 Q84 419 84 446 Z " />
<glyph glyph-name="less" unicode="&#x3c;" horiz-adv-x="537" d="M43 313 L43 380 L471 553 L471 450 L197 348 L471 241 L471 139 L43 313 Z " />
<glyph glyph-name="equal" unicode="&#x3d;" horiz-adv-x="579" d="M81 470 L509 470 L509 375 L81 375 L81 470 Z M78 305 L506 305 L506 210 L78 210 L78 305 Z " />
<glyph glyph-name="greater" unicode="&#x3e;" horiz-adv-x="532" d="M78 241 L352 348 L78 450 L78 553 L506 380 L506 313 L78 139 L78 241 Z " />
<glyph glyph-name="question" unicode="&#x3f;" horiz-adv-x="498" d="M53 62 Q53 81 61 99.5 Q69 118 83.5 131.5 Q98 145 118 153.5 Q138 162 162 162 Q194 162 215 140.5 Q236 119 236 90 Q236 70 228 52 Q220 34 205.5 20 Q191 6 170.5 -2 Q150 -10 126 -10 Q95 -10 74 11.5 Q53 33 53 62 Z M109 664 Q121 670 140.5 678 Q160 686 184.5 693 Q209 700 238.5 705 Q268 710 301 710 Q358 710 399.5 697.5 Q441 685 468 664.5 Q495 644 508 617 Q521 590 521 562 Q521 529 513.5 501 Q506 473 486.5 448 Q467 423 434 401 Q401 379 350 358 Q324 347 307 339.5 Q290 332 279.5 324.5 Q269 317 263.5 309 Q258 301 255 289 L238 225 L112 225 L120 299 Q123 331 135.5 351 Q148 371 167.5 384.5 Q187 398 211.5 408.5 Q236 419 265 433 Q293 446 310.5 458 Q328 470 338 481.5 Q348 493 351.5 503.5 Q355 514 355 524 Q355 553 331.5 566 Q308 579 251 579 Q234 579 212 575.5 Q190 572 166.5 566.5 Q143 561 120.5 553.5 Q98 546 82 538 L109 664 Z " />
<glyph glyph-name="at" unicode="&#x40;" horiz-adv-x="876" d="M228 246 Q228 300 242.5 350.5 Q257 401 284.5 440.5 Q312 480 351.5 504 Q391 528 441 528 Q470 528 493 515.5 Q516 503 530 482 L533 482 L534 486 Q537 498 545.5 509 Q554 520 577 520 L659 520 L602 256 Q600 248 599 241 Q598 234 598 226 Q598 206 610.5 191.5 Q623 177 655 177 Q675 177 695 189.5 Q715 202 731 227 Q747 252 757 290.5 Q767 329 767 382 Q767 433 750.5 479.5 Q734 526 700.5 562 Q667 598 617 619 Q567 640 501 640 Q418 640 350.5 611.5 Q283 583 234.5 533 Q186 483 159.5 413.5 Q133 344 133 263 Q133 197 151.5 150.5 Q170 104 199 72 Q228 40 264.5 21 Q301 2 336.5 -8 Q372 -18 403.5 -21 Q435 -24 455 -24 Q516 -24 562.5 -16.5 Q609 -9 649 2 L654 -51 Q614 -70 561 -82.5 Q508 -95 445 -95 Q419 -95 379.5 -91 Q340 -87 295 -74.5 Q250 -62 205 -38.5 Q160 -15 124 25 Q88 65 65.5 123 Q43 181 43 263 Q43 359 76 441 Q109 523 169 583 Q229 643 313.5 676.5 Q398 710 501 710 Q590 710 656.5 683 Q723 656 767.5 610.5 Q812 565 834.5 505.5 Q857 446 857 382 Q857 304 833 250.5 Q809 197 772.5 163.5 Q736 130 692 115.5 Q648 101 608 101 Q562 101 526 116.5 Q490 132 474 161 Q454 134 420.5 118.5 Q387 103 349 103 Q319 103 296.5 114 Q274 125 259 144 Q244 163 236 189.5 Q228 216 228 246 Z M403 203 Q414 203 433 209.5 Q452 216 469 232 L508 410 Q496 418 482.5 423 Q469 428 452 428 Q430 428 413.5 414 Q397 400 385.5 376.5 Q374 353 368 323 Q362 293 362 262 Q362 239 371 221 Q380 203 403 203 Z " />
<glyph glyph-name="A" unicode="A" horiz-adv-x="637" d="M392 131 L179 131 L115 0 L-53 0 L314 702 L478 702 L577 0 L406 0 L392 131 Z M237 249 L379 249 L354 486 L237 249 Z " />
<glyph glyph-name="B" unicode="B" horiz-adv-x="614" d="M153 700 L377 700 Q485 700 545 661.5 Q605 623 605 543 Q605 473 567 430 Q529 387 464 363 L464 360 Q512 340 537.5 308.5 Q563 277 563 222 Q563 165 541 123.5 Q519 82 479 54.5 Q439 27 382.5 13.5 Q326 0 257 0 L3 0 L153 700 Z M186 118 L270 118 Q306 118 331 126.5 Q356 135 371.5 150 Q387 165 394 185.5 Q401 206 401 230 Q401 268 377.5 283.5 Q354 299 307 299 L226 299 L186 118 Z M251 417 L309 417 Q381 417 412 445.5 Q443 474 443 522 Q443 554 417.5 568 Q392 582 346 582 L286 582 L251 417 Z " />
<glyph glyph-name="C" unicode="C" horiz-adv-x="560" d="M475 16 Q446 5 405 -2.5 Q364 -10 310 -10 Q180 -10 109 59 Q38 128 38 256 Q38 360 68 444 Q98 528 152 587 Q206 646 281.5 678 Q357 710 449 710 Q503 710 542.5 702 Q582 694 602 687 L574 559 Q539 569 506.5 573.5 Q474 578 446 578 Q395 578 351 560.5 Q307 543 274.5 505.5 Q242 468 223.5 409.5 Q205 351 205 269 Q205 202 238 161 Q271 120 352 120 Q425 120 500 145 L475 16 Z " />
<glyph glyph-name="D" unicode="D" horiz-adv-x="665" d="M152 700 L370 700 Q432 700 483 683.5 Q534 667 570 634.5 Q606 602 626 553 Q646 504 646 439 Q646 333 616.5 251 Q587 169 534 113.5 Q481 58 406.5 29 Q332 0 241 0 L4 0 L152 700 Z M189 124 L270 124 Q309 124 347 143.5 Q385 163 414 202.5 Q443 242 461 302 Q479 362 479 442 Q479 510 449 543.5 Q419 577 345 577 L285 577 L189 124 Z " />
<glyph glyph-name="E" unicode="E" horiz-adv-x="563" d="M285 576 L252 418 L504 418 L478 296 L225 296 L188 124 L493 124 L467 0 L3 0 L152 700 L606 700 L580 576 L285 576 Z " />
<glyph glyph-name="F" unicode="F" horiz-adv-x="566" d="M286 576 L248 399 L508 399 L482 275 L221 275 L163 0 L4 0 L152 700 L621 700 L595 576 L286 576 Z " />
<glyph glyph-name="G" unicode="G" horiz-adv-x="601" d="M499 24 Q470 12 426.5 1 Q383 -10 316 -10 Q248 -10 196 9.5 Q144 29 109 64 Q74 99 56 147.5 Q38 196 38 253 Q38 359 68 444 Q98 529 152 588 Q206 647 281 678.5 Q356 710 446 710 Q506 710 549 702.5 Q592 695 615 688 L587 561 Q546 573 511 578.5 Q476 584 445 584 Q392 584 347.5 566 Q303 548 271.5 509 Q240 470 222.5 409.5 Q205 349 205 264 Q205 199 241 156.5 Q277 114 350 114 Q360 114 366.5 114.5 Q373 115 378 116 L426 343 L566 343 L499 24 L499 24 Z " />
<glyph glyph-name="H" unicode="H" horiz-adv-x="662" d="M433 295 L225 295 L163 0 L4 0 L152 700 L311 700 L252 419 L460 419 L519 700 L678 700 L532 0 L373 0 L433 295 Z " />
<glyph glyph-name="I" unicode="I" horiz-adv-x="294" d="M152 700 L311 700 L163 0 L4 0 L152 700 Z " />
<glyph glyph-name="J" unicode="J" horiz-adv-x="444" d="M306 700 L465 700 L359 197 Q339 102 276.5 46 Q214 -10 107 -10 Q50 -10 14.5 0 Q-21 10 -43 21 L-18 139 Q-1 132 17 127.5 Q35 123 51 121 Q67 119 78.5 118 Q90 117 95 117 Q143 117 168 140.5 Q193 164 202 208 L306 700 Z " />
<glyph glyph-name="K" unicode="K" horiz-adv-x="638" d="M152 700 L311 700 L252 419 L303 419 L537 700 L710 700 L432 370 L581 0 L398 0 L288 295 L225 295 L163 0 L4 0 L152 700 Z " />
<glyph glyph-name="L" unicode="L" horiz-adv-x="534" d="M189 123 L488 123 L462 0 L4 0 L152 700 L311 700 L189 123 Z " />
<glyph glyph-name="M" unicode="M" horiz-adv-x="763" d="M240 434 L148 0 L3 0 L152 700 L314 700 L405 396 L617 700 L781 700 L632 0 L482 0 L572 426 L409 197 L317 197 L240 434 Z " />
<glyph glyph-name="N" unicode="N" horiz-adv-x="670" d="M424 -3 L234 436 L142 0 L3 0 L151 700 L291 700 L463 300 L547 700 L687 700 L538 -3 L424 -3 Z " />
<glyph glyph-name="O" unicode="O" horiz-adv-x="681" d="M404 710 Q472 710 521 689 Q570 668 602 632 Q634 596 649 547 Q664 498 664 443 Q664 391 654 337.5 Q644 284 623.5 234 Q603 184 573 139.5 Q543 95 502.5 61.5 Q462 28 411 9 Q360 -10 299 -10 Q231 -10 182 11 Q133 32 100.5 68 Q68 104 52.5 151.5 Q37 199 37 253 Q37 305 47 359 Q57 413 77 463.5 Q97 514 127 559 Q157 604 198 637.5 Q239 671 290.5 690.5 Q342 710 404 710 Z M395 584 Q361 584 333.5 565.5 Q306 547 284.5 517 Q263 487 248 448.5 Q233 410 223 369.5 Q213 329 208.5 290.5 Q204 252 204 222 Q204 172 226 144.5 Q248 117 305 117 Q338 117 365.5 134.5 Q393 152 414 181.5 Q435 211 451 248.5 Q467 286 477 325 Q487 364 492 402.5 Q497 441 497 471 Q497 527 475 555.5 Q453 584 395 584 Z " />
<glyph glyph-name="P" unicode="P" horiz-adv-x="599" d="M152 700 L374 700 Q485 700 549.5 653.5 Q614 607 614 512 Q614 442 590.5 391 Q567 340 524 306.5 Q481 273 421 256.5 Q361 240 288 240 L214 240 L163 0 L4 0 L152 700 Z M286 582 L239 358 L311 358 Q374 358 412 393.5 Q450 429 450 506 Q450 542 427.5 562 Q405 582 351 582 L286 582 Z " />
<glyph glyph-name="Q" unicode="Q" horiz-adv-x="680" d="M404 710 Q472 710 521 689 Q570 668 602 632 Q634 596 649 547 Q664 498 664 443 Q664 381 649 316 Q634 251 604.5 193 Q575 135 530.5 88 Q486 41 427 16 L452 -15 L493 -33 L567 -33 L544 -142 L400 -142 Q363 -142 344.5 -131 Q326 -120 314 -100 L257 -7 Q200 -1 158.5 22 Q117 45 90 79.5 Q63 114 50 158.5 Q37 203 37 253 Q37 305 47 359 Q57 413 77 463.5 Q97 514 127 559 Q157 604 198 637.5 Q239 671 290 690.5 Q341 710 404 710 Z M395 584 Q361 584 333.5 565.5 Q306 547 284.5 517 Q263 487 248 448.5 Q233 410 223 369.5 Q213 329 208.5 290.5 Q204 252 204 222 Q204 172 226 144.5 Q248 117 305 117 Q338 117 365.5 134.5 Q393 152 414 181.5 Q435 211 451 248.5 Q467 286 477 325 Q487 364 492 402 Q497 440 497 471 Q497 527 475 555.5 Q453 584 395 584 Z " />
<glyph glyph-name="R" unicode="R" horiz-adv-x="622" d="M289 582 L247 388 L314 388 Q374 388 409.5 418 Q445 448 445 511 Q445 544 425.5 563 Q406 582 357 582 L289 582 Z M4 0 L152 700 L384 700 Q490 700 550.5 658.5 Q611 617 611 531 Q611 481 592.5 444.5 Q574 408 545.5 383.5 Q517 359 484 346 Q451 333 423 330 L423 326 Q461 321 481.5 297.5 Q502 274 510 223 L542 0 L364 0 L343 212 Q341 231 339 242.5 Q337 254 333.5 260 Q330 266 323.5 268 Q317 270 306 270 L224 270 L163 0 L4 0 Z " />
<glyph glyph-name="S" unicode="S" horiz-adv-x="535" d="M493 225 Q493 171 473 127.5 Q453 84 415 53.5 Q377 23 323 6.5 Q269 -10 200 -10 Q125 -10 73 5.5 Q21 21 1 33 L28 158 Q87 133 131 124 Q175 115 204 115 Q242 115 266.5 121.5 Q291 128 305 139 Q319 150 324 164 Q329 178 329 192 Q329 217 308.5 235 Q288 253 236 279 Q204 295 174.5 313.5 Q145 332 122.5 356.5 Q100 381 86.5 412 Q73 443 73 484 Q73 540 94.5 582 Q116 624 154 652.5 Q192 681 243.5 695.5 Q295 710 354 710 Q422 710 467.5 699 Q513 688 534 679 L507 552 Q460 567 420.5 576 Q381 585 345 585 Q290 585 258.5 568 Q227 551 227 516 Q227 501 231 489.5 Q235 478 246 467 Q257 456 277.5 443.5 Q298 431 330 415 Q407 376 450 332.5 Q493 289 493 225 Z " />
<glyph glyph-name="T" unicode="T" horiz-adv-x="572" d="M644 700 L617 576 L425 576 L304 0 L145 0 L266 576 L73 576 L100 700 L644 700 Z " />
<glyph glyph-name="U" unicode="U" horiz-adv-x="652" d="M524 700 L675 700 L575 230 Q561 165 534 119 Q507 73 469 44.5 Q431 16 382.5 3 Q334 -10 278 -10 Q169 -10 105 33.5 Q41 77 41 166 Q41 181 43.5 206 Q46 231 50 248 L146 700 L310 700 L215 250 Q212 234 210 220.5 Q208 207 208 195 Q208 164 229.5 141 Q251 118 300 118 Q330 118 351 126.5 Q372 135 387 151.5 Q402 168 412 192.5 Q422 217 429 250 L524 700 Z " />
<glyph glyph-name="V" unicode="V" horiz-adv-x="625" d="M177 -2 L85 700 L257 700 L303 236 L544 700 L705 700 L323 -2 L177 -2 Z " />
<glyph glyph-name="W" unicode="W" horiz-adv-x="961" d="M506 427 L300 -2 L138 -2 L91 700 L260 700 L275 222 L490 700 L650 700 L666 216 L882 700 L1035 700 L695 -2 L533 -2 L506 427 Z " />
<glyph glyph-name="X" unicode="X" horiz-adv-x="651" d="M307 234 L109 0 L-74 0 L250 362 L102 700 L276 700 L368 482 L557 700 L738 700 L426 354 L582 0 L404 0 L307 234 Z " />
<glyph glyph-name="Y" unicode="Y" horiz-adv-x="623" d="M175 0 L230 259 L75 700 L241 700 L337 416 L529 700 L695 700 L393 275 L334 0 L175 0 Z " />
<glyph glyph-name="Z" unicode="Z" horiz-adv-x="580" d="M-35 0 L-17 86 L390 577 L98 577 L125 700 L620 700 L602 614 L199 124 L517 124 L490 0 L-35 0 Z " />
<glyph glyph-name="bracketleft" unicode="&#x5b;" horiz-adv-x="308" d="M197 -102 L-29 -102 L160 786 L386 786 L365 686 L277 686 L132 -2 L218 -2 L197 -102 Z " />
<glyph glyph-name="backslash" unicode="&#x5c;" horiz-adv-x="420" d="M122 787 L218 787 L315 -102 L219 -102 L122 787 Z " />
<glyph glyph-name="bracketright" unicode="&#x5d;" horiz-adv-x="308" d="M129.012 785.994 L354.998 785.994 L166.01 -101.952 L-59.9764 -101.952 L-38.9777 -1.95813 L49.0169 -1.95813 L194.008 686 L108.013 686 L129.012 785.994 Z " />
<glyph glyph-name="asciicircum" unicode="&#x5e;" horiz-adv-x="433" d="M323 387 L241 593 L162 387 L63 387 L193 700 L290 700 L423 387 L323 387 Z " />
<glyph glyph-name="underscore" unicode="&#x5f;" horiz-adv-x="508" d="M-81 -80 L427 -80 L410 -158 L-98 -158 L-81 -80 Z " />
<glyph glyph-name="grave" unicode="&#x60;" horiz-adv-x="409" d="M125 668 L214 756 L237 756 L337 623 L286 577 L269 577 L125 668 Z " />
<glyph glyph-name="a" unicode="a" horiz-adv-x="557" d="M228 121 Q276 121 324 177 L369 381 Q353 395 336 402.5 Q319 410 297 410 Q265 410 241 391.5 Q217 373 200.5 343 Q184 313 175.5 274.5 Q167 236 167 195 Q167 167 181 144 Q195 121 228 121 Z M301 66 Q278 32 242 11 Q206 -10 164 -10 Q127 -10 98.5 4 Q70 18 51 43 Q32 68 22.5 102 Q13 136 13 175 Q13 244 31.5 310 Q50 376 84.5 427 Q119 478 169.5 509 Q220 540 283 540 Q355 540 396 487 L401 487 L402 492 Q405 506 416 518 Q427 530 456 530 L551 530 L439 0 L341 0 Q311 0 306.5 14 Q302 28 305 44 L309 66 L301 66 Z " />
<glyph glyph-name="b" unicode="b" horiz-adv-x="557" d="M258 -10 Q223 -10 193.5 4 Q164 18 145 44 L140 44 L139 39 Q136 23 125.5 11.5 Q115 0 85 0 L-10 0 L145 730 L295 730 L237 459 Q260 495 296.5 517.5 Q333 540 377 540 Q414 540 442.5 526 Q471 512 490 487 Q509 462 518.5 428 Q528 394 528 355 Q528 286 509.5 220 Q491 154 456.5 103 Q422 52 371.5 21 Q321 -10 258 -10 Z M244 120 Q275 120 299.5 138.5 Q324 157 340.5 187 Q357 217 365.5 255.5 Q374 294 374 335 Q374 363 360 386 Q346 409 313 409 Q263 409 214 349 L171 149 Q188 135 204.5 127.5 Q221 120 244 120 Z " />
<glyph glyph-name="c" unicode="c" horiz-adv-x="463" d="M418 81 Q407 69 388.5 53 Q370 37 344.5 23 Q319 9 286 -0.5 Q253 -10 212 -10 Q174 -10 138.5 1.5 Q103 13 75.5 38 Q48 63 31 102.5 Q14 142 14 197 Q14 278 40.5 341.5 Q67 405 111.5 449.5 Q156 494 214.5 517 Q273 540 338 540 Q375 540 405 534 Q435 528 454 522 L429 405 Q406 409 386 412.5 Q366 416 332 416 Q294 416 263.5 400.5 Q233 385 211.5 359 Q190 333 178.5 298.5 Q167 264 167 226 Q167 170 189.5 143.5 Q212 117 252 117 Q285 117 311 129 Q337 141 359 160 L418 81 Z " />
<glyph glyph-name="d" unicode="d" horiz-adv-x="557" d="M228 121 Q277 121 323 176 L368 382 Q352 396 335.5 403 Q319 410 297 410 Q265 410 241 391.5 Q217 373 200.5 343 Q184 313 175.5 274.5 Q167 236 167 195 Q167 167 181 144 Q195 121 228 121 Z M301 64 Q278 31 242 10.5 Q206 -10 164 -10 Q127 -10 98.5 4 Q70 18 51 43 Q32 68 22.5 102 Q13 136 13 175 Q13 244 31.5 310 Q50 376 84.5 427 Q119 478 169.5 509 Q220 540 283 540 Q352 540 392 492 L443 730 L593 730 L438 0 L341 0 Q326 0 318 4 Q310 8 307 14 Q304 20 304 28 Q304 36 305 44 L308 64 L301 64 Z " />
<glyph glyph-name="e" unicode="e" horiz-adv-x="495" d="M224 -10 Q181 -10 143 1 Q105 12 76.5 37 Q48 62 31.5 101 Q15 140 15 196 Q15 276 39 339.5 Q63 403 103.5 447.5 Q144 492 196.5 516 Q249 540 306 540 Q386 540 433 505 Q480 470 480 406 Q480 347 449 306.5 Q418 266 372 239.5 Q326 213 271.5 199 Q217 185 171 179 Q183 116 263 116 Q295 116 321.5 127.5 Q348 139 374 159 L431 83 Q419 69 400.5 52.5 Q382 36 356 22 Q330 8 297 -1 Q264 -10 224 -10 Z M291 431 Q275 431 257 422 Q239 413 223 394.5 Q207 376 194 346.5 Q181 317 174 276 Q202 280 231.5 286.5 Q261 293 285 305 Q309 317 324.5 336 Q340 355 340 385 Q340 431 291 431 Z " />
<glyph glyph-name="f" unicode="f" horiz-adv-x="351" d="M171 2 Q163 -37 146 -70.5 Q129 -104 101 -128 Q73 -152 34.5 -166 Q-4 -180 -55 -180 Q-87 -180 -108 -178 Q-129 -176 -135 -174 L-114 -75 L-54 -75 Q-20 -75 -4 -58 Q12 -41 19 -7 L110 423 L49 423 L70 528 L133 528 L138 558 Q144 597 161.5 630.5 Q179 664 207.5 688 Q236 712 277 726 Q318 740 372 740 Q403 740 425.5 738 Q448 736 456 734 L434 628 L370 628 Q329 628 312.5 611 Q296 594 289 562 L282 528 L391 528 L370 423 L259 423 L171 2 L171 2 Z " />
<glyph glyph-name="g" unicode="g" horiz-adv-x="535" d="M189 357 Q189 288 251 288 Q289 288 311.5 315.5 Q334 343 334 385 Q334 453 271 453 Q233 453 211 425.5 Q189 398 189 357 Z M473 12 Q473 -38 450.5 -74 Q428 -110 388 -133.5 Q348 -157 293 -168.5 Q238 -180 173 -180 Q128 -180 89.5 -174.5 Q51 -169 23 -156.5 Q-5 -144 -20.5 -124 Q-36 -104 -36 -74 Q-36 -52 -28 -34.5 Q-20 -17 -7.5 -4.5 Q5 8 20 17 Q35 26 49 31 Q9 57 9 109 Q9 145 30.5 177 Q52 209 108 236 Q81 254 65 283 Q49 312 49 354 Q49 398 67.5 432.5 Q86 467 117 491 Q148 515 188.5 527.5 Q229 540 273 540 Q320 540 357 530 L548 530 L529 423 L478 423 L472 417 Q473 412 473 407.5 Q473 403 473 398 Q473 350 454 313 Q435 276 403.5 251.5 Q372 227 331 214 Q290 201 245 201 Q211 201 181 207 Q163 199 152 189 Q141 179 141 166 Q141 142 184 142 L315 142 Q347 142 376 134.5 Q405 127 426.5 111 Q448 95 460.5 70.5 Q473 46 473 12 Z M196 -85 Q225 -85 250.5 -80.5 Q276 -76 294.5 -67.5 Q313 -59 323.5 -46.5 Q334 -34 334 -18 Q334 0 316.5 5 Q299 10 260 10 L130 10 L120 10 Q110 2 101 -9.5 Q92 -21 92 -39 Q92 -48 97 -56.5 Q102 -65 114 -71 Q126 -77 146 -81 Q166 -85 196 -85 Z " />
<glyph glyph-name="h" unicode="h" horiz-adv-x="556" d="M320 407 Q291 407 262 384.5 Q233 362 211 333 L140 0 L-10 0 L145 730 L295 730 L237 458 Q250 473 266.5 488 Q283 503 302 514.5 Q321 526 343.5 533 Q366 540 392 540 Q456 540 490 505 Q524 470 524 411 Q524 387 518 360 L441 0 L291 0 L363 336 Q366 348 366 360 Q366 380 356 393.5 Q346 407 320 407 Z " />
<glyph glyph-name="i" unicode="i" horiz-adv-x="259" d="M103 530 L253 530 L140 0 L-10 0 L103 530 Z M113 648 Q113 692 137.5 718.5 Q162 745 213 745 Q248 745 266.5 727 Q285 709 285 682 Q285 638 261 611.5 Q237 585 185 585 Q150 585 131.5 603 Q113 621 113 648 Z " />
<glyph glyph-name="j" unicode="j" horiz-adv-x="259" d="M114 649 Q114 693 138.5 719.5 Q163 746 214 746 Q249 746 267.5 728 Q286 710 286 683 Q286 639 262 612.5 Q238 586 186 586 Q151 586 132.5 604 Q114 622 114 649 Z M104 530 L254 530 L142 10 Q133 -30 117 -64.5 Q101 -99 74 -124.5 Q47 -150 6.5 -165 Q-34 -180 -92 -180 Q-113 -180 -128 -178.5 Q-143 -177 -153 -175 Q-164 -172 -173 -169 L-152 -66 L-76 -66 Q-50 -66 -32.5 -44.5 Q-15 -23 -10 1 L104 530 Z " />
<glyph glyph-name="k" unicode="k" horiz-adv-x="566" d="M140 0 L-9 0 L145 730 L295 730 L212 338 L246 338 L441 530 L615 530 L375 300 L501 0 L339 0 L248 225 L188 225 L140 0 Z " />
<glyph glyph-name="l" unicode="l" horiz-adv-x="259" d="M145 730 L295 730 L140 0 L-9 0 L145 730 Z " />
<glyph glyph-name="m" unicode="m" horiz-adv-x="867" d="M322 407 Q293 407 264 384.5 Q235 362 213 333 L140 0 L-9 0 L103 530 L201 530 Q231 530 237 516 Q243 502 239 487 L232 457 L238 457 Q251 473 267.5 488 Q284 503 303 514.5 Q322 526 344.5 533 Q367 540 394 540 Q448 540 480 515 Q512 490 522 446 Q535 462 552 479 Q569 496 591.5 509.5 Q614 523 642 531.5 Q670 540 703 540 Q767 540 801 505 Q835 470 835 411 Q835 387 829 360 L752 0 L602 0 L674 336 Q677 349 677 362 Q676 381 666 394 Q656 407 631 407 Q600 407 567.5 385.5 Q535 364 515 335 L443 0 L293 0 L365 336 Q368 349 368 361 Q368 381 358 394 Q348 407 322 407 Z " />
<glyph glyph-name="n" unicode="n" horiz-adv-x="558" d="M322 407 Q293 407 264 384.5 Q235 362 213 333 L140 0 L-9 0 L103 530 L201 530 Q231 530 237 516 Q243 502 239 487 L232 457 L239 457 Q252 473 268 488 Q284 503 303 514.5 Q322 526 344.5 533 Q367 540 394 540 Q458 540 491.5 505 Q525 470 526 412 Q526 387 520 360 L443 0 L293 0 L365 336 Q368 348 368 361 Q368 381 358 394 Q348 407 322 407 Z " />
<glyph glyph-name="o" unicode="o" horiz-adv-x="546" d="M17 207 Q17 289 41.5 351.5 Q66 414 106 456 Q146 498 197 519 Q248 540 301 540 Q346 540 385 527.5 Q424 515 453 489 Q482 463 498.5 424 Q515 385 515 331 Q515 247 490.5 183.5 Q466 120 426 77 Q386 34 335 12 Q284 -10 231 -10 Q187 -10 148 3 Q109 16 80 42.5 Q51 69 34 110 Q17 151 17 207 Z M171 201 Q171 150 186.5 126 Q202 102 236 102 Q271 102 295 126.5 Q319 151 333.5 188 Q348 225 354.5 266.5 Q361 308 361 343 Q361 384 345.5 406 Q330 428 295 428 Q260 428 236 403.5 Q212 379 197.5 344 Q183 309 177 270 Q171 231 171 201 Z " />
<glyph glyph-name="p" unicode="p" horiz-adv-x="556" d="M244 120 Q275 120 299.5 138.5 Q324 157 340.5 187 Q357 217 365.5 255.5 Q374 294 374 335 Q374 363 360 386 Q346 409 313 409 Q265 409 217 353 L172 148 Q188 134 205 127 Q222 120 244 120 Z M258 -10 Q224 -10 196 3 Q168 16 149 39 L103 -170 L-47 -170 L104 530 L200 530 Q230 530 234.5 516 Q239 502 236 486 L232 464 L240 464 Q263 498 299 519 Q335 540 377 540 Q414 540 442.5 526 Q471 512 490 487 Q509 462 518.5 428 Q528 394 528 355 Q528 286 509.5 220 Q491 154 456.5 103 Q422 52 371.5 21 Q321 -10 258 -10 Z " />
<glyph glyph-name="q" unicode="q" horiz-adv-x="557" d="M251 -170 L302 69 Q279 34 243 12 Q207 -10 164 -10 Q127 -10 98.5 4 Q70 18 51 43 Q32 68 22.5 102 Q13 136 13 175 Q13 244 31.5 310 Q50 376 84.5 427 Q119 478 169.5 509 Q220 540 283 540 Q355 540 396 487 L402 487 L403 492 Q406 506 416.5 518 Q427 530 456 530 L552 530 L401 -170 L251 -170 Z M228 121 Q252 121 277.5 136 Q303 151 326 180 L370 381 Q354 395 337 402.5 Q320 410 297 410 Q265 410 241 391.5 Q217 373 200.5 343 Q184 313 175.5 274.5 Q167 236 167 195 Q167 167 181 144 Q195 121 228 121 Z " />
<glyph glyph-name="r" unicode="r" horiz-adv-x="397" d="M337 399 Q302 399 269.5 377 Q237 355 210 320 L140 0 L-9 0 L103 530 L200 530 Q230 530 236 516 Q242 502 238 487 L229 447 L236 447 Q249 465 264.5 482 Q280 499 300 511.5 Q320 524 345 532 Q370 540 400 540 Q414 540 423 539 Q432 538 437 537 L406 387 L396 387 Q385 392 369.5 395.5 Q354 399 337 399 Z " />
<glyph glyph-name="s" unicode="s" horiz-adv-x="445" d="M394 176 Q394 132 376 97.5 Q358 63 326.5 39 Q295 15 251 2.5 Q207 -10 156 -10 Q123 -10 93.5 -4.5 Q64 1 41 7.5 Q18 14 3 21 Q-12 28 -17 31 L6 145 Q59 121 98 113.5 Q137 106 154 106 Q204 106 222.5 122.5 Q241 139 241 157 Q241 177 225 189.5 Q209 202 164 216 Q97 238 70 276 Q43 314 43 362 Q43 399 58.5 431.5 Q74 464 104.5 488 Q135 512 179.5 526 Q224 540 282 540 Q315 540 343.5 535 Q372 530 393 525 Q418 519 438 511 L412 400 Q393 407 372.5 412.5 Q352 418 333.5 421.5 Q315 425 300.5 426.5 Q286 428 279 428 Q241 428 216 416.5 Q191 405 191 381 Q191 364 204 353.5 Q217 343 255 330 Q321 307 357.5 271.5 Q394 236 394 176 Z " />
<glyph glyph-name="t" unicode="t" horiz-adv-x="362" d="M143 -10 Q78 -10 52.5 19.5 Q27 49 42 120 L106 423 L45 423 L67 528 L121 528 L211 670 L308 670 L278 528 L392 528 L370 423 L255 423 L189 100 L307 100 L284 0 Q281 0 268.5 -2 Q256 -4 237 -5.5 Q218 -7 193.5 -8.5 Q169 -10 143 -10 Z " />
<glyph glyph-name="u" unicode="u" horiz-adv-x="548" d="M295 73 Q282 57 266 42 Q250 27 231.5 15.5 Q213 4 191 -3 Q169 -10 143 -10 Q81 -10 48.5 25 Q16 60 16 118 Q16 143 22 170 L99 530 L249 530 L177 194 Q174 180 174 169 Q174 149 183 136 Q192 123 215 123 Q244 123 271 145.5 Q298 168 320 196 L393 530 L542 530 L430 0 L333 0 Q303 0 297 14 Q291 28 295 43 L301 73 L295 73 Z " />
<glyph glyph-name="v" unicode="v" horiz-adv-x="532" d="M137 -2 L47 530 L211 530 L249 201 L427 530 L575 530 L273 -2 L137 -2 Z " />
<glyph glyph-name="w" unicode="w" horiz-adv-x="781" d="M386 284 L254 -2 L111 -2 L53 530 L209 530 L225 201 L381 530 L500 530 L516 198 L672 530 L821 530 L544 -2 L398 -2 L386 284 Z " />
<glyph glyph-name="x" unicode="x" horiz-adv-x="541" d="M241 159 L105 0 L-67 0 L184 271 L54 530 L219 530 L290 383 L414 530 L586 530 L345 275 L480 0 L316 0 L241 159 Z " />
<glyph glyph-name="y" unicode="y" horiz-adv-x="529" d="M52 -170 L140 -5 L47 530 L210 530 L249 199 L426 530 L573 530 L181 -170 L52 -170 Z " />
<glyph glyph-name="z" unicode="z" horiz-adv-x="493" d="M-35 0 L-21 66 L277 412 L54 412 L79 530 L505 530 L491 464 L194 118 L430 118 L405 0 L-35 0 Z " />
<glyph glyph-name="braceleft" unicode="&#x7b;" horiz-adv-x="347" d="M240 -103 Q225 -105 211.5 -106 Q198 -107 184 -107 Q114 -107 76 -80 Q38 -53 38 8 Q38 30 44 59 L74 204 Q78 222 80 235 Q82 248 82 259 Q82 281 69 289.5 Q56 298 22 301 L42 396 Q67 398 82.5 403 Q98 408 108 418.5 Q118 429 124 446.5 Q130 464 136 493 L164 624 Q173 668 187.5 699.5 Q202 731 226 751 Q250 771 286 780.5 Q322 790 375 790 Q389 790 402 789 Q415 788 429 786 L411 699 L386 697 Q372 695 359.5 692 Q347 689 337.5 680.5 Q328 672 320.5 658 Q313 644 308 621 L287 526 Q275 472 263 440.5 Q251 409 236 391 Q221 373 201 365 Q181 357 152 350 L152 347 Q188 337 205.5 319 Q223 301 223 260 Q223 226 211 171 L188 62 Q184 46 184 31 Q184 5 197.5 -3.5 Q211 -12 233 -14 L259 -16 L240 -103 Z " />
<glyph glyph-name="bar" unicode="&#x7c;" horiz-adv-x="275" d="M96 -102 L96 787 L196 787 L196 -102 L96 -102 Z " />
<glyph glyph-name="braceright" unicode="&#x7d;" horiz-adv-x="347" d="M124.015 785.994 Q139.014 787.994 152.513 788.994 Q166.012 789.993 180.011 789.993 Q250.007 789.993 288.005 762.995 Q326.002 735.997 326.002 675 Q326.002 653.002 320.003 624.004 L290.005 479.012 Q286.005 461.014 284.005 448.014 Q282.005 435.015 282.005 424.016 Q282.005 402.017 295.004 393.518 Q308.003 385.018 342.001 382.018 L322.003 287.024 Q297.004 285.024 281.505 280.025 Q266.006 275.025 256.007 264.526 Q246.007 254.026 240.008 236.527 Q234.008 219.028 228.008 190.03 L200.01 59.0381 Q191.011 15.0408 176.511 -16.4573 Q162.012 -47.9554 138.014 -67.9542 Q114.015 -87.9529 78.0175 -97.4524 Q42.0197 -106.952 -10.9771 -106.952 Q-24.9763 -106.952 -37.9755 -105.952 Q-50.9747 -104.952 -64.9738 -102.952 L-46.9749 -15.9573 L-21.9764 -13.9575 Q-7.97729 -11.9576 4.52194 -8.95776 Q17.0212 -5.95795 26.5206 2.54153 Q36.02 11.041 43.5196 25.0402 Q51.0191 39.0393 56.0188 62.0379 L77.0175 157.032 Q89.0168 211.029 101.016 242.527 Q113.015 274.025 128.014 292.024 Q143.013 310.023 163.012 318.022 Q183.011 326.022 212.009 333.021 L212.009 336.021 Q176.011 346.021 158.513 364.019 Q141.014 382.018 141.014 423.016 Q141.014 457.014 153.013 512.01 L176.011 621.004 Q180.011 637.003 180.011 652.002 Q180.011 678 166.512 686.5 Q153.013 694.999 131.014 696.999 L105.016 698.999 L124.015 785.994 Z " />
<glyph glyph-name="asciitilde" unicode="&#x7e;" horiz-adv-x="629" d="M39 278 Q66 329 111 361.5 Q156 394 216 394 Q253 394 283.5 382 Q314 370 340.5 355 Q367 340 391 328 Q415 316 439 316 Q457 316 475 325 L537 389 L593 341 Q565 290 520 258 Q475 226 415 226 Q378 226 347.5 238 Q317 250 290.5 265 Q264 280 240 292 Q216 304 192 304 Q174 304 156 295 L94 231 L39 278 L39 278 Z " />
<glyph glyph-name="uni00A0" unicode="&#xa0;" horiz-adv-x="206" d="" />
<glyph glyph-name="exclamdown" unicode="&#xa1;" horiz-adv-x="269" d="M256 469.004 Q256 450.005 248.001 432.006 Q240.001 414.007 226.002 400.508 Q212.003 387.009 192.504 379.009 Q173.005 371.01 149.007 371.01 Q118.009 371.01 97.5098 392.508 Q77.011 414.007 77.011 442.005 Q77.011 462.004 85.0106 479.503 Q93.0101 497.002 107.009 510.501 Q121.008 524 141.007 532 Q161.006 539.999 185.004 539.999 Q215.003 539.999 235.501 519.001 Q256 498.002 256 469.004 Z M196.004 305.014 L160.006 1.03229 L123.008 -169.957 L-52.981 -169.957 L-15.9833 1.03229 L75.0112 305.014 L196.004 305.014 Z " />
<glyph glyph-name="cent" unicode="&#xa2;" horiz-adv-x="499" d="M447 181 Q427 152 386.5 121.5 Q346 91 280 81 L261 -10 L198 -10 L217 79 Q183 82 151.5 95 Q120 108 96 133 Q72 158 57.5 195.5 Q43 233 43 285 Q43 361 66 422 Q89 483 129 526.5 Q169 570 221.5 595.5 Q274 621 333 627 L351 710 L414 710 L396 628 Q427 626 451.5 620.5 Q476 615 493 610 L468 493 Q444 498 423.5 501 Q403 504 370 505 L307 206 Q333 210 354.5 221 Q376 232 395 248 L447 181 Z M196 314 Q196 273 209 248.5 Q222 224 245 213 L305 495 Q253 476 224.5 426 Q196 376 196 314 Z " />
<glyph glyph-name="sterling" unicode="&#xa3;" horiz-adv-x="585" d="M481 0 L-21 0 L5 124 L67 124 L105 299 L43 299 L61 387 L123 387 L142 474 Q151 518 174.5 560.5 Q198 603 236 636 Q274 669 328.5 689.5 Q383 710 454 710 Q492 710 522.5 706 Q553 702 574 697 Q599 692 618 685 L592 564 Q554 577 516.5 584 Q479 591 447 591 Q415 591 391.5 585.5 Q368 580 351 566.5 Q334 553 322.5 530.5 Q311 508 304 474 L285 387 L422 387 L404 299 L267 299 L229 124 L507 124 L481 0 Z " />
<glyph glyph-name="currency" unicode="&#xa4;" horiz-adv-x="541" d="M339 191 Q310 176 275 176 Q240 176 210 191 L131 111 L59 182 L140 262 Q125 290 125 326 Q125 362 140 391 L60 471 L132 542 L211 462 Q241 477 275 477 Q310 477 340 462 L419 542 L491 471 L411 391 Q418 376 422 359.5 Q426 343 426 326 Q426 309 422 292.5 Q418 276 411 261 L490 182 L418 111 L339 191 Z M208 326 Q208 296 228.5 275 Q249 254 276 254 Q303 254 323 275 Q343 296 343 326 Q343 356 323 377 Q303 398 276 398 Q249 398 228.5 377 Q208 356 208 326 Z " />
<glyph glyph-name="yen" unicode="&#xa5;" horiz-adv-x="675" d="M132 383 L217 383 L106 700 L272 700 L368 416 L560 700 L726 700 L500 383 L602 383 L584 295 L438 295 L424 275 L419 253 L574 253 L556 165 L400 165 L365 0 L206 0 L241 165 L86 165 L104 253 L259 253 L261 259 L248 295 L114 295 L132 383 Z " />
<glyph glyph-name="brokenbar" unicode="&#xa6;" horiz-adv-x="285" d="M100 413 L100 787 L202 787 L202 413 L100 413 Z M100 -102 L100 273 L202 273 L202 -102 L100 -102 Z " />
<glyph glyph-name="section" unicode="&#xa7;" horiz-adv-x="561" d="M154 -220 Q79 -220 27 -204.5 Q-25 -189 -45 -177 L-18 -52 Q41 -77 85 -86 Q129 -95 158 -95 Q196 -95 220.5 -88.5 Q245 -82 259 -72 Q273 -62 278 -50.5 Q283 -39 283 -29 Q283 -19 278 -11 Q273 -3 262 5 Q251 13 233 22 Q215 31 190 44 Q158 60 129 77.5 Q100 95 77 117.5 Q54 140 40.5 168 Q27 196 27 234 Q27 293 57.5 334.5 Q88 376 140 400 Q122 422 111.5 449.5 Q101 477 101 515 Q101 558 122.5 593.5 Q144 629 182 655 Q220 681 271.5 695.5 Q323 710 382 710 Q450 710 495.5 699 Q541 688 562 679 L535 552 Q488 567 448.5 576 Q409 585 373 585 Q318 585 286.5 571 Q255 557 255 531 Q255 519 259.5 511 Q264 503 275.5 494.5 Q287 486 307 475.5 Q327 465 358 450 Q434 412 477.5 373 Q521 334 521 275 Q521 210 488.5 170.5 Q456 131 397 109 Q421 86 433.5 59 Q446 32 446 -4 Q446 -47 426 -86 Q406 -125 368.5 -155 Q331 -185 277 -202.5 Q223 -220 154 -220 Z M310 167 Q342 176 355.5 194 Q369 212 369 232 Q369 244 363.5 253 Q358 262 345 270.5 Q332 279 312 289 Q292 299 264 314 L221 337 Q198 325 186.5 308 Q175 291 175 274 Q175 260 179.5 250 Q184 240 196 230 Q208 220 229.5 208 Q251 196 284 180 L310 167 Z " />
<glyph glyph-name="dieresis" unicode="&#xa8;" horiz-adv-x="336" d="M78 660 Q78 689 100.5 712 Q123 735 160 735 Q186 735 201 718.5 Q216 702 216 680 Q216 650 192.5 628 Q169 606 133 606 Q107 606 92.5 622 Q78 638 78 660 Z M247 660 Q247 689 269.5 712 Q292 735 329 735 Q355 735 370 718.5 Q385 702 385 680 Q385 650 361.5 628 Q338 606 302 606 Q276 606 261.5 622 Q247 638 247 660 Z " />
<glyph glyph-name="copyright" unicode="&#xa9;" horiz-adv-x="807" d="M54 349 Q54 423 82 488.5 Q110 554 159 603 Q208 652 273 680.5 Q338 709 413 709 Q487 709 552.5 680.5 Q618 652 667 603 Q716 554 744.5 488.5 Q773 423 773 349 Q773 274 744.5 209 Q716 144 667 95 Q618 46 552.5 18 Q487 -10 413 -10 Q338 -10 273 18 Q208 46 159 95 Q110 144 82 209 Q54 274 54 349 Z M112 349 Q112 285 135.5 229 Q159 173 200 131.5 Q241 90 296 66 Q351 42 413 42 Q475 42 530 66 Q585 90 626 131.5 Q667 173 690.5 229 Q714 285 714 349 Q714 413 690.5 469 Q667 525 626 567 Q585 609 530 633 Q475 657 413 657 Q351 657 296 633 Q241 609 200 567 Q159 525 135.5 469 Q112 413 112 349 Z M534 133 Q513 123 481 118 Q449 113 417 113 Q376 113 339.5 126.5 Q303 140 275 167.5 Q247 195 230.5 237.5 Q214 280 214 339 Q214 399 231.5 444 Q249 489 278.5 519 Q308 549 347.5 563.5 Q387 578 431 578 Q463 578 489 574.5 Q515 571 532 566 L532 466 Q512 470 495 472 Q478 474 449 474 Q396 474 370.5 440.5 Q345 407 345 344 Q345 279 373 248.5 Q401 218 454 218 Q476 218 497.5 221 Q519 224 534 228 L534 133 Z " />
<glyph glyph-name="ordfeminine" unicode="&#xaa;" horiz-adv-x="377" d="M217 456 Q225 456 239 462.5 Q253 469 264 481 L294 619 Q277 632 250 632 Q232 632 218.5 621 Q205 610 196 591.5 Q187 573 182 549.5 Q177 526 177 502 Q177 485 185.5 470.5 Q194 456 217 456 Z M252 420 Q222 379 170 379 Q125 379 101.5 410 Q78 441 78 490 Q78 532 89 571.5 Q100 611 121 641.5 Q142 672 172.5 691 Q203 710 241 710 Q290 710 312 674 L315 674 L316 679 Q318 688 325 696 Q332 704 349 704 L406 704 L339 384 L276 384 Q258 384 255 392.5 Q252 401 254 410 L256 420 L252 420 Z " />
<glyph glyph-name="guillemotleft" unicode="&#xab;" horiz-adv-x="499" d="M304.999 463.003 L135.009 250.016 L217.004 46.0283 L105.011 46.0283 L13.0165 232.017 L23.0159 277.014 L188.006 463.003 L304.999 463.003 Z M500.999 463.003 L331.009 250.016 L413.004 46.0283 L301.011 46.0283 L209.017 232.017 L219.016 277.014 L384.006 463.003 L500.999 463.003 Z " />
<glyph glyph-name="logicalnot" unicode="&#xac;" horiz-adv-x="564" d="M61 386 L489 386 L489 157 L394 157 L394 292 L61 292 L61 386 Z " />
<glyph glyph-name="uni00AD" unicode="&#xad;" horiz-adv-x="504" d="" />
<glyph glyph-name="registered" unicode="&#xae;" horiz-adv-x="663" d="M70 421 Q70 481 92.5 533.5 Q115 586 154 625 Q193 664 245 687 Q297 710 356 710 Q416 710 468 687 Q520 664 559 625 Q598 586 620.5 533.5 Q643 481 643 421 Q643 361 620.5 308.5 Q598 256 559 217 Q520 178 468 155 Q416 132 356 132 Q297 132 245 155 Q193 178 154 217 Q115 256 92.5 308.5 Q70 361 70 421 Z M120 421 Q120 370 138.5 325.5 Q157 281 189.5 248 Q222 215 265 195.5 Q308 176 357 176 Q406 176 449 195.5 Q492 215 524 249 Q556 283 574.5 327 Q593 371 593 421 Q593 472 574.5 516.5 Q556 561 524 594 Q492 627 449 646.5 Q406 666 357 666 Q308 666 265 646.5 Q222 627 189.5 594 Q157 561 138.5 516.5 Q120 472 120 421 Z M230 578 L359 578 Q419 578 454 557.5 Q489 537 489 491 Q489 471 482.5 457 Q476 443 466 434 Q456 425 444 420 Q432 415 420 414 L420 412 Q437 409 446 398.5 Q455 388 465 365 L506 265 L399 265 L373 354 Q368 371 365 375.5 Q362 380 352 380 L322 380 L322 265 L230 265 L230 578 Z M322 514 L322 445 L357 445 Q379 445 386.5 453.5 Q394 462 394 481 Q394 496 386.5 505 Q379 514 357 514 L322 514 Z " />
<glyph glyph-name="macron" unicode="&#xaf;" horiz-adv-x="392" d="M144 706 L402 706 L383 618 L125 618 L144 706 Z " />
<glyph glyph-name="degree" unicode="&#xb0;" horiz-adv-x="361" d="M82 559 Q82 590 94 617.5 Q106 645 126.5 665.5 Q147 686 174 698 Q201 710 232 710 Q263 710 290.5 698 Q318 686 338.5 665.5 Q359 645 371 617.5 Q383 590 383 559 Q383 528 371 501 Q359 474 338.5 453.5 Q318 433 290.5 421 Q263 409 232 409 Q201 409 174 421 Q147 433 126.5 453.5 Q106 474 94 501 Q82 528 82 559 Z M164 559 Q164 529 184.5 508 Q205 487 232 487 Q259 487 279 508 Q299 529 299 559 Q299 589 279 610 Q259 631 232 631 Q205 631 184.5 610 Q164 589 164 559 Z " />
<glyph glyph-name="plusminus" unicode="&#xb1;" horiz-adv-x="566" d="M65 461 L232 461 L232 603 L326 603 L326 461 L493 461 L493 367 L326 367 L326 225 L232 225 L232 367 L65 367 L65 461 Z M65 182 L493 182 L493 88 L65 88 L65 182 Z " />
<glyph glyph-name="twosuperior" unicode="&#xb2;" horiz-adv-x="286" d="M70 506 L83 565 Q87 586 94 600 Q101 614 113 626 Q125 638 143 650 Q161 662 188 678 Q223 698 238.5 711.5 Q254 725 254 737 Q254 743 248 748 Q242 753 225 753 Q202 753 174.5 748 Q147 743 122 733 L139 813 Q154 819 172 824 Q187 828 207 831.5 Q227 835 250 835 Q278 835 297 828.5 Q316 822 328 811.5 Q340 801 345 787 Q350 773 350 759 Q350 737 344.5 720 Q339 703 326 687.5 Q313 672 291.5 656.5 Q270 641 238 623 Q211 607 200 600.5 Q189 594 186 586 L324 586 L307 506 L70 506 Z " />
<glyph glyph-name="threesuperior" unicode="&#xb3;" horiz-adv-x="275" d="M86 591 Q111 583 137 579.5 Q163 576 181 576 Q221 576 221 608 Q221 633 194 633 L152 633 L166 705 L208 705 Q225 705 235 713.5 Q245 722 245 736 Q245 745 238.5 751 Q232 757 215 757 Q201 757 177 755 Q153 753 123 747 L139 820 Q154 823 172 827 Q187 830 206 832.5 Q225 835 245 835 Q272 835 290.5 829 Q309 823 320 812.5 Q331 802 336 788.5 Q341 775 341 760 Q341 728 323.5 705 Q306 682 272 672 L272 669 Q317 653 317 610 Q317 590 309.5 570.5 Q302 551 285.5 535.5 Q269 520 243.5 510.5 Q218 501 181 501 Q158 501 138.5 503.5 Q119 506 104 510 Q86 514 72 520 L86 591 Z " />
<glyph glyph-name="acute" unicode="&#xb4;" horiz-adv-x="409" d="M327 756 L378 668 L196 577 L174 577 L142 623 L299 756 L327 756 Z " />
<glyph glyph-name="paragraph" unicode="&#xb6;" horiz-adv-x="622" d="M180 -170 L269 252 Q63 272 63 447 Q63 512 85 559.5 Q107 607 147 638.5 Q187 670 243.5 685 Q300 700 369 700 L463 700 L278 -170 L180 -170 Z M639 700 L455 -170 L357 -170 L542 700 L639 700 Z " />
<glyph glyph-name="periodcentered" unicode="&#xb7;" horiz-adv-x="247" d="M52 364 Q52 382 59.5 399 Q67 416 80.5 429 Q94 442 112.5 450 Q131 458 154 458 Q186 458 205 437.5 Q224 417 224 390 Q224 352 195 324.5 Q166 297 120 297 Q88 297 70 317 Q52 337 52 364 Z " />
<glyph glyph-name="cedilla" unicode="&#xb8;" horiz-adv-x="392" d="M112 -180 Q80 -180 53 -171.5 Q26 -163 12 -151 L41 -109 Q49 -114 69 -122 Q89 -130 109 -130 Q124 -130 135 -124.5 Q146 -119 146 -103 Q146 -89 126 -80 Q106 -71 73 -66 L77 -46 L141 15 L219 15 L168 -36 Q206 -36 227.5 -50.5 Q249 -65 249 -95 Q249 -119 236.5 -135 Q224 -151 204.5 -161 Q185 -171 160.5 -175.5 Q136 -180 112 -180 Z " />
<glyph glyph-name="onesuperior" unicode="&#xb9;" horiz-adv-x="252" d="M71 506 L85 572 L141 572 L176 737 L121 737 L135 805 L185 805 Q201 805 215.5 813.5 Q230 822 235 833 L292 833 L236 572 L295 572 L281 506 L71 506 Z " />
<glyph glyph-name="ordmasculine" unicode="&#xba;" horiz-adv-x="354" d="M374 583 Q374 532 359.5 494 Q345 456 321 430.5 Q297 405 266.5 392.5 Q236 380 205 380 Q179 380 156 387.5 Q133 395 116 410.5 Q99 426 89 450 Q79 474 79 506 Q79 557 93.5 595 Q108 633 132 658.5 Q156 684 186 697 Q216 710 248 710 Q274 710 297 702 Q320 694 337 678.5 Q354 663 364 639 Q374 615 374 583 Z M280 603 Q280 619 272 628.5 Q264 638 245 638 Q224 638 210.5 620.5 Q197 603 188.5 579 Q180 555 176.5 529.5 Q173 504 173 487 Q173 471 181.5 461.5 Q190 452 208 452 Q229 452 242.5 469 Q256 486 264.5 510 Q273 534 276.5 559.5 Q280 585 280 603 Z " />
<glyph glyph-name="guillemotright" unicode="&#xbb;" horiz-adv-x="499" d="M-21 46 L149 259 L67 463 L179 463 L271 277 L261 232 L96 46 L-21 46 Z M175 46 L345 259 L263 463 L375 463 L467 277 L457 232 L292 46 L175 46 Z " />
<glyph glyph-name="onequarter" unicode="&#xbc;" horiz-adv-x="650" d="M535 63 L522 0 L429 0 L442 63 L297 63 L312 133 L503 327 L592 327 L552 139 L588 139 L571 63 L535 63 Z M477 225 L392 139 L459 139 L477 225 Z M54 376 L68 442 L124 442 L159 607 L104 607 L118 675 L168 675 Q184 675 198.5 683.5 Q213 692 218 703 L275 703 L219 442 L278 442 L264 376 L54 376 Z M534 700 L619 700 L123 0 L38 0 L534 700 Z " />
<glyph glyph-name="onehalf" unicode="&#xbd;" horiz-adv-x="663" d="M334 0 L347 59 Q351 80 358 94 Q365 108 377 120 Q389 132 407 144 Q425 156 452 172 Q487 192 502.5 205.5 Q518 219 518 231 Q518 237 512 242 Q506 247 489 247 Q466 247 438.5 242 Q411 237 386 227 L403 307 Q418 313 436 318 Q451 322 471 325.5 Q491 329 514 329 Q542 329 561 322.5 Q580 316 592 305.5 Q604 295 609 281 Q614 267 614 253 Q614 231 608.5 214 Q603 197 590 181.5 Q577 166 555.5 150.5 Q534 135 502 117 Q475 101 464 94.5 Q453 88 450 80 L588 80 L571 0 L334 0 Z M53 376 L67 442 L123 442 L158 607 L103 607 L117 675 L167 675 Q183 675 197.5 683.5 Q212 692 217 703 L274 703 L218 442 L277 442 L263 376 L53 376 Z M533 700 L618 700 L122 0 L37 0 L533 700 Z " />
<glyph glyph-name="threequarters" unicode="&#xbe;" horiz-adv-x="666" d="M551 63 L538 0 L445 0 L458 63 L313 63 L328 133 L519 327 L608 327 L568 139 L604 139 L587 63 L551 63 Z M493 225 L408 139 L475 139 L493 225 Z M550 700 L635 700 L139 0 L54 0 L550 700 Z M69 461 Q94 453 120 449.5 Q146 446 164 446 Q204 446 204 478 Q204 503 177 503 L135 503 L149 575 L191 575 Q208 575 218 583.5 Q228 592 228 606 Q228 615 221.5 621 Q215 627 198 627 Q184 627 160 625 Q136 623 106 617 L122 690 Q137 693 155 697 Q170 700 189 702.5 Q208 705 228 705 Q255 705 273.5 699 Q292 693 303 682.5 Q314 672 319 658.5 Q324 645 324 630 Q324 598 306.5 575 Q289 552 255 542 L255 539 Q300 523 300 480 Q300 460 292.5 440.5 Q285 421 268.5 405.5 Q252 390 226.5 380.5 Q201 371 164 371 Q141 371 121.5 373.5 Q102 376 87 380 Q69 384 55 390 L69 461 Z " />
<glyph glyph-name="questiondown" unicode="&#xbf;" horiz-adv-x="493" d="M427.003 468.004 Q427.003 449.005 419.004 430.506 Q411.004 412.007 396.505 398.508 Q382.006 385.009 362.007 376.509 Q342.008 368.01 318.01 368.01 Q286.012 368.01 265.013 389.509 Q244.014 411.007 244.014 440.005 Q244.014 460.004 252.014 478.003 Q260.013 496.002 274.513 510.001 Q289.012 524 309.51 532 Q330.009 539.999 354.008 539.999 Q385.006 539.999 406.005 518.501 Q427.003 497.002 427.003 468.004 Z M371.007 -133.959 Q359.007 -139.959 339.509 -147.959 Q320.01 -155.958 295.511 -162.958 Q271.013 -169.957 241.515 -174.957 Q212.016 -179.957 179.018 -179.957 Q122.022 -179.957 80.5244 -167.457 Q39.0269 -154.958 12.0286 -134.459 Q-14.9698 -113.961 -27.969 -86.9623 Q-40.9682 -59.964 -40.9682 -31.9657 Q-40.9682 1.03229 -33.4687 29.0306 Q-25.9691 57.0289 -6.47031 82.0273 Q13.0285 107.026 46.0265 129.024 Q79.0245 151.023 130.021 172.022 Q156.02 183.021 173.019 190.521 Q190.018 198.02 200.517 205.52 Q211.016 213.019 216.516 221.019 Q222.016 229.018 225.016 241.018 L242.015 305.014 L368.007 305.014 L360.007 231.018 Q357.008 199.02 344.508 179.021 Q332.009 159.023 312.51 145.523 Q293.011 132.024 268.513 121.525 Q244.014 111.026 215.016 97.0264 Q187.018 84.0272 169.519 72.028 Q152.02 60.0287 142.021 48.5294 Q132.021 37.0301 128.521 26.5307 Q125.022 16.0314 125.022 6.03198 Q125.022 -22.9662 148.52 -35.9655 Q172.019 -48.9647 229.015 -48.9647 Q246.014 -48.9647 268.013 -45.4649 Q290.012 -41.9651 313.51 -36.4654 Q337.009 -30.9658 359.507 -23.4662 Q382.006 -15.9667 398.005 -7.96716 L371.007 -133.959 Z " />
<glyph glyph-name="Agrave" unicode="&#xc0;" horiz-adv-x="637" d="M392 131 L179 131 L115 0 L-53 0 L314 702 L478 702 L577 0 L406 0 L392 131 Z M237 249 L379 249 L354 486 L237 249 Z M399 747 L255 838 L344 926 L367 926 L467 793 L416 747 L399 747 Z " />
<glyph glyph-name="Aacute" unicode="&#xc1;" horiz-adv-x="637" d="M392 131 L179 131 L115 0 L-53 0 L314 702 L478 702 L577 0 L406 0 L392 131 Z M237 249 L379 249 L354 486 L237 249 Z M399 747 L367 793 L524 926 L552 926 L603 838 L421 747 L399 747 Z " />
<glyph glyph-name="Acircumflex" unicode="&#xc2;" horiz-adv-x="637" d="M392 131 L179 131 L115 0 L-53 0 L314 702 L478 702 L577 0 L406 0 L392 131 Z M237 249 L379 249 L354 486 L237 249 Z M425 821 L299 746 L272 746 L252 780 L420 929 L467 929 L572 780 L537 746 L521 746 L425 821 Z " />
<glyph glyph-name="Atilde" unicode="&#xc3;" horiz-adv-x="637" d="M392 131 L179 131 L115 0 L-53 0 L314 702 L478 702 L577 0 L406 0 L392 131 Z M237 249 L379 249 L354 486 L237 249 Z M598 898 L588 853 Q577 803 554 780 Q531 757 486 757 Q470 757 452.5 762.5 Q435 768 419 775 Q403 782 389.5 787.5 Q376 793 367 793 Q360 793 355.5 791.5 Q351 790 348 788 Q344 786 342 784 L333 746 L253 746 L262 787 Q275 845 296.5 868.5 Q318 892 358 892 Q374 892 391 885.5 Q408 879 425 871.5 Q442 864 457.5 857.5 Q473 851 485 851 Q501 851 508 858 Q512 861 513 865 L520 898 L598 898 Z " />
<glyph glyph-name="Adieresis" unicode="&#xc4;" horiz-adv-x="637" d="M392 131 L179 131 L115 0 L-53 0 L314 702 L478 702 L577 0 L406 0 L392 131 Z M237 249 L379 249 L354 486 L237 249 Z M277 830 Q277 859 299.5 882 Q322 905 359 905 Q385 905 400 888.5 Q415 872 415 850 Q415 820 391.5 798 Q368 776 332 776 Q306 776 291.5 792 Q277 808 277 830 Z M446 830 Q446 859 468.5 882 Q491 905 528 905 Q554 905 569 888.5 Q584 872 584 850 Q584 820 560.5 798 Q537 776 501 776 Q475 776 460.5 792 Q446 808 446 830 Z " />
<glyph glyph-name="Aring" unicode="&#xc5;" horiz-adv-x="637" d="M392 131 L179 131 L115 0 L-53 0 L314 702 L478 702 L577 0 L406 0 L392 131 Z M237 249 L379 249 L354 486 L237 249 Z M380 817 Q380 790 417 790 Q446 790 458 802.5 Q470 815 470 835 Q470 848 461.5 855 Q453 862 432 862 Q404 862 392 849.5 Q380 837 380 817 Z M438 914 Q489 914 519.5 893.5 Q550 873 550 834 Q550 809 538.5 791 Q527 773 508 761 Q489 749 464 743.5 Q439 738 411 738 Q362 738 331 757 Q300 776 300 812 Q300 839 310.5 858 Q321 877 340 889.5 Q359 902 384 908 Q409 914 438 914 Z " />
<glyph glyph-name="AE" unicode="&#xc6;" horiz-adv-x="948" d="M991 700 L965 576 L670 576 L637 418 L889 418 L863 296 L610 296 L573 124 L878 124 L852 0 L388 0 L416 131 L193 131 L102 0 L-73 0 L432 700 L991 700 Z M496 576 L275 249 L441 249 L510 576 L496 576 Z " />
<glyph glyph-name="Ccedilla" unicode="&#xc7;" horiz-adv-x="560" d="M246 -180 Q214 -180 187 -171.5 Q160 -163 146 -151 L175 -109 Q183 -114 203 -122 Q223 -130 243 -130 Q258 -130 269 -124.5 Q280 -119 280 -103 Q280 -89 260 -80 Q240 -71 207 -66 L211 -46 L253 -6 Q150 8 94 75.5 Q38 143 38 256 Q38 360 68 444 Q98 528 152 587 Q206 646 281.5 678 Q357 710 449 710 Q503 710 542.5 702 Q582 694 602 687 L574 559 Q539 569 506.5 573.5 Q474 578 446 578 Q395 578 351 560.5 Q307 543 274.5 505.5 Q242 468 223.5 409.5 Q205 351 205 269 Q205 202 238 161 Q271 120 352 120 Q425 120 500 145 L475 16 Q449 6 412.5 -1 Q376 -8 328 -10 L302 -36 Q340 -36 361.5 -50.5 Q383 -65 383 -95 Q383 -119 370.5 -135 Q358 -151 338.5 -161 Q319 -171 294.5 -175.5 Q270 -180 246 -180 Z " />
<glyph glyph-name="Egrave" unicode="&#xc8;" horiz-adv-x="563" d="M387 747 L243 838 L332 926 L355 926 L455 793 L404 747 L387 747 Z M285 576 L252 418 L504 418 L478 296 L225 296 L188 124 L493 124 L467 0 L3 0 L152 700 L606 700 L580 576 L285 576 Z " />
<glyph glyph-name="Eacute" unicode="&#xc9;" horiz-adv-x="563" d="M285 576 L252 418 L504 418 L478 296 L225 296 L188 124 L493 124 L467 0 L3 0 L152 700 L606 700 L580 576 L285 576 Z M379 747 L347 793 L504 926 L532 926 L583 838 L401 747 L379 747 Z " />
<glyph glyph-name="Ecircumflex" unicode="&#xca;" horiz-adv-x="563" d="M415 821 L289 746 L262 746 L242 780 L410 929 L457 929 L562 780 L527 746 L511 746 L415 821 Z M285 576 L252 418 L504 418 L478 296 L225 296 L188 124 L493 124 L467 0 L3 0 L152 700 L606 700 L580 576 L285 576 Z " />
<glyph glyph-name="Edieresis" unicode="&#xcb;" horiz-adv-x="563" d="M285 576 L252 418 L504 418 L478 296 L225 296 L188 124 L493 124 L467 0 L3 0 L152 700 L606 700 L580 576 L285 576 Z M264 830 Q264 859 286.5 882 Q309 905 346 905 Q372 905 387 888.5 Q402 872 402 850 Q402 820 378.5 798 Q355 776 319 776 Q293 776 278.5 792 Q264 808 264 830 Z M433 830 Q433 859 455.5 882 Q478 905 515 905 Q541 905 556 888.5 Q571 872 571 850 Q571 820 547.5 798 Q524 776 488 776 Q462 776 447.5 792 Q433 808 433 830 Z " />
<glyph glyph-name="Igrave" unicode="&#xcc;" horiz-adv-x="294" d="M152 700 L311 700 L163 0 L4 0 L152 700 Z M230 747 L86 838 L175 926 L198 926 L298 793 L247 747 L230 747 Z " />
<glyph glyph-name="Iacute" unicode="&#xcd;" horiz-adv-x="294" d="M152 700 L311 700 L163 0 L4 0 L152 700 Z M228 747 L196 793 L353 926 L381 926 L432 838 L250 747 L228 747 Z " />
<glyph glyph-name="Icircumflex" unicode="&#xce;" horiz-adv-x="294" d="M152 700 L311 700 L163 0 L4 0 L152 700 Z M256 821 L130 746 L103 746 L83 780 L251 929 L298 929 L403 780 L368 746 L352 746 L256 821 Z " />
<glyph glyph-name="Idieresis" unicode="&#xcf;" horiz-adv-x="294" d="M152 700 L311 700 L163 0 L4 0 L152 700 Z M106 830 Q106 859 128.5 882 Q151 905 188 905 Q214 905 229 888.5 Q244 872 244 850 Q244 820 220.5 798 Q197 776 161 776 Q135 776 120.5 792 Q106 808 106 830 Z M275 830 Q275 859 297.5 882 Q320 905 357 905 Q383 905 398 888.5 Q413 872 413 850 Q413 820 389.5 798 Q366 776 330 776 Q304 776 289.5 792 Q275 808 275 830 Z " />
<glyph glyph-name="Eth" unicode="&#xd0;" horiz-adv-x="667" d="M33 396 L90 396 L154 700 L372 700 Q434 700 485 683.5 Q536 667 572 634.5 Q608 602 628 553 Q648 504 648 439 Q648 333 618.5 251 Q589 169 536 113.5 Q483 58 408.5 29 Q334 0 243 0 L6 0 L73 316 L16 316 L33 396 Z M248 396 L401 396 L384 316 L231 316 L191 124 L272 124 Q311 124 349 143.5 Q387 163 416 202.5 Q445 242 463 302 Q481 362 481 442 Q481 510 451 543.5 Q421 577 347 577 L287 577 L248 396 Z " />
<glyph glyph-name="Ntilde" unicode="&#xd1;" horiz-adv-x="670" d="M615 898 L605 853 Q594 803 571 780 Q548 757 503 757 Q487 757 469.5 762.5 Q452 768 436 775 Q420 782 406.5 787.5 Q393 793 384 793 Q377 793 372.5 791.5 Q368 790 365 788 Q361 786 359 784 L350 746 L270 746 L279 787 Q292 845 313.5 868.5 Q335 892 375 892 Q391 892 408 885.5 Q425 879 442 871.5 Q459 864 474.5 857.5 Q490 851 502 851 Q518 851 525 858 Q529 861 530 865 L537 898 L615 898 Z M424 -3 L234 436 L142 0 L3 0 L151 700 L291 700 L463 300 L547 700 L687 700 L538 -3 L424 -3 Z " />
<glyph glyph-name="Ograve" unicode="&#xd2;" horiz-adv-x="681" d="M431 747 L287 838 L376 926 L399 926 L499 793 L448 747 L431 747 Z M404 710 Q472 710 521 689 Q570 668 602 632 Q634 596 649 547 Q664 498 664 443 Q664 391 654 337.5 Q644 284 623.5 234 Q603 184 573 139.5 Q543 95 502.5 61.5 Q462 28 411 9 Q360 -10 299 -10 Q231 -10 182 11 Q133 32 100.5 68 Q68 104 52.5 151.5 Q37 199 37 253 Q37 305 47 359 Q57 413 77 463.5 Q97 514 127 559 Q157 604 198 637.5 Q239 671 290.5 690.5 Q342 710 404 710 Z M395 584 Q361 584 333.5 565.5 Q306 547 284.5 517 Q263 487 248 448.5 Q233 410 223 369.5 Q213 329 208.5 290.5 Q204 252 204 222 Q204 172 226 144.5 Q248 117 305 117 Q338 117 365.5 134.5 Q393 152 414 181.5 Q435 211 451 248.5 Q467 286 477 325 Q487 364 492 402.5 Q497 441 497 471 Q497 527 475 555.5 Q453 584 395 584 Z " />
<glyph glyph-name="Oacute" unicode="&#xd3;" horiz-adv-x="681" d="M424 747 L392 793 L549 926 L577 926 L628 838 L446 747 L424 747 Z M404 710 Q472 710 521 689 Q570 668 602 632 Q634 596 649 547 Q664 498 664 443 Q664 391 654 337.5 Q644 284 623.5 234 Q603 184 573 139.5 Q543 95 502.5 61.5 Q462 28 411 9 Q360 -10 299 -10 Q231 -10 182 11 Q133 32 100.5 68 Q68 104 52.5 151.5 Q37 199 37 253 Q37 305 47 359 Q57 413 77 463.5 Q97 514 127 559 Q157 604 198 637.5 Q239 671 290.5 690.5 Q342 710 404 710 Z M395 584 Q361 584 333.5 565.5 Q306 547 284.5 517 Q263 487 248 448.5 Q233 410 223 369.5 Q213 329 208.5 290.5 Q204 252 204 222 Q204 172 226 144.5 Q248 117 305 117 Q338 117 365.5 134.5 Q393 152 414 181.5 Q435 211 451 248.5 Q467 286 477 325 Q487 364 492 402.5 Q497 441 497 471 Q497 527 475 555.5 Q453 584 395 584 Z " />
<glyph glyph-name="Ocircumflex" unicode="&#xd4;" horiz-adv-x="681" d="M449 821 L323 746 L296 746 L276 780 L444 929 L491 929 L596 780 L561 746 L545 746 L449 821 Z M404 710 Q472 710 521 689 Q570 668 602 632 Q634 596 649 547 Q664 498 664 443 Q664 391 654 337.5 Q644 284 623.5 234 Q603 184 573 139.5 Q543 95 502.5 61.5 Q462 28 411 9 Q360 -10 299 -10 Q231 -10 182 11 Q133 32 100.5 68 Q68 104 52.5 151.5 Q37 199 37 253 Q37 305 47 359 Q57 413 77 463.5 Q97 514 127 559 Q157 604 198 637.5 Q239 671 290.5 690.5 Q342 710 404 710 Z M395 584 Q361 584 333.5 565.5 Q306 547 284.5 517 Q263 487 248 448.5 Q233 410 223 369.5 Q213 329 208.5 290.5 Q204 252 204 222 Q204 172 226 144.5 Q248 117 305 117 Q338 117 365.5 134.5 Q393 152 414 181.5 Q435 211 451 248.5 Q467 286 477 325 Q487 364 492 402.5 Q497 441 497 471 Q497 527 475 555.5 Q453 584 395 584 Z " />
<glyph glyph-name="Otilde" unicode="&#xd5;" horiz-adv-x="681" d="M404 710 Q472 710 521 689 Q570 668 602 632 Q634 596 649 547 Q664 498 664 443 Q664 391 654 337.5 Q644 284 623.5 234 Q603 184 573 139.5 Q543 95 502.5 61.5 Q462 28 411 9 Q360 -10 299 -10 Q231 -10 182 11 Q133 32 100.5 68 Q68 104 52.5 151.5 Q37 199 37 253 Q37 305 47 359 Q57 413 77 463.5 Q97 514 127 559 Q157 604 198 637.5 Q239 671 290.5 690.5 Q342 710 404 710 Z M395 584 Q361 584 333.5 565.5 Q306 547 284.5 517 Q263 487 248 448.5 Q233 410 223 369.5 Q213 329 208.5 290.5 Q204 252 204 222 Q204 172 226 144.5 Q248 117 305 117 Q338 117 365.5 134.5 Q393 152 414 181.5 Q435 211 451 248.5 Q467 286 477 325 Q487 364 492 402.5 Q497 441 497 471 Q497 527 475 555.5 Q453 584 395 584 Z M622 898 L612 853 Q601 803 578 780 Q555 757 510 757 Q494 757 476.5 762.5 Q459 768 443 775 Q427 782 413.5 787.5 Q400 793 391 793 Q384 793 379.5 791.5 Q375 790 372 788 Q368 786 366 784 L357 746 L277 746 L286 787 Q299 845 320.5 868.5 Q342 892 382 892 Q398 892 415 885.5 Q432 879 449 871.5 Q466 864 481.5 857.5 Q497 851 509 851 Q525 851 532 858 Q536 861 537 865 L544 898 L622 898 Z " />
<glyph glyph-name="Odieresis" unicode="&#xd6;" horiz-adv-x="681" d="M404 710 Q472 710 521 689 Q570 668 602 632 Q634 596 649 547 Q664 498 664 443 Q664 391 654 337.5 Q644 284 623.5 234 Q603 184 573 139.5 Q543 95 502.5 61.5 Q462 28 411 9 Q360 -10 299 -10 Q231 -10 182 11 Q133 32 100.5 68 Q68 104 52.5 151.5 Q37 199 37 253 Q37 305 47 359 Q57 413 77 463.5 Q97 514 127 559 Q157 604 198 637.5 Q239 671 290.5 690.5 Q342 710 404 710 Z M395 584 Q361 584 333.5 565.5 Q306 547 284.5 517 Q263 487 248 448.5 Q233 410 223 369.5 Q213 329 208.5 290.5 Q204 252 204 222 Q204 172 226 144.5 Q248 117 305 117 Q338 117 365.5 134.5 Q393 152 414 181.5 Q435 211 451 248.5 Q467 286 477 325 Q487 364 492 402.5 Q497 441 497 471 Q497 527 475 555.5 Q453 584 395 584 Z M300 830 Q300 859 322.5 882 Q345 905 382 905 Q408 905 423 888.5 Q438 872 438 850 Q438 820 414.5 798 Q391 776 355 776 Q329 776 314.5 792 Q300 808 300 830 Z M469 830 Q469 859 491.5 882 Q514 905 551 905 Q577 905 592 888.5 Q607 872 607 850 Q607 820 583.5 798 Q560 776 524 776 Q498 776 483.5 792 Q469 808 469 830 Z " />
<glyph glyph-name="multiply" unicode="&#xd7;" horiz-adv-x="513" d="M60 204 L191 334 L60 465 L132 536 L262 405 L392 536 L464 465 L332 334 L464 204 L393 132 L262 264 L131 132 L60 204 Z " />
<glyph glyph-name="Oslash" unicode="&#xd8;" horiz-adv-x="681" d="M404 710 Q462 710 506 694.5 Q550 679 582 652 L636 710 L737 710 L628 594 Q664 529 664 443 Q664 392 654 338 Q644 284 623.5 234 Q603 184 573 139.5 Q543 95 502.5 61.5 Q462 28 411 9 Q360 -10 299 -10 Q241 -10 196.5 5.5 Q152 21 120 48 L66 -10 L-36 -10 L73 106 Q55 138 46 175 Q37 212 37 253 Q37 305 47 359 Q57 413 77 463.5 Q97 514 127 559 Q157 604 198 637.5 Q239 671 290 690.5 Q341 710 404 710 Z M395 584 Q363 584 337 568 Q311 552 290.5 525 Q270 498 254.5 463 Q239 428 228.5 391 Q218 354 212.5 316.5 Q207 279 205 248 L482 545 Q471 564 450 574 Q429 584 395 584 Z M305 117 Q352 117 387 151.5 Q422 186 445.5 237 Q469 288 481.5 346.5 Q494 405 496 452 L219 154 Q230 136 251 126.5 Q272 117 305 117 Z " />
<glyph glyph-name="Ugrave" unicode="&#xd9;" horiz-adv-x="652" d="M419 747 L275 838 L364 926 L387 926 L487 793 L436 747 L419 747 Z M524 700 L675 700 L575 230 Q561 165 534 119 Q507 73 469 44.5 Q431 16 382.5 3 Q334 -10 278 -10 Q169 -10 105 33.5 Q41 77 41 166 Q41 181 43.5 206 Q46 231 50 248 L146 700 L310 700 L215 250 Q212 234 210 220.5 Q208 207 208 195 Q208 164 229.5 141 Q251 118 300 118 Q330 118 351 126.5 Q372 135 387 151.5 Q402 168 412 192.5 Q422 217 429 250 L524 700 Z " />
<glyph glyph-name="Uacute" unicode="&#xda;" horiz-adv-x="652" d="M524 700 L675 700 L575 230 Q561 165 534 119 Q507 73 469 44.5 Q431 16 382.5 3 Q334 -10 278 -10 Q169 -10 105 33.5 Q41 77 41 166 Q41 181 43.5 206 Q46 231 50 248 L146 700 L310 700 L215 250 Q212 234 210 220.5 Q208 207 208 195 Q208 164 229.5 141 Q251 118 300 118 Q330 118 351 126.5 Q372 135 387 151.5 Q402 168 412 192.5 Q422 217 429 250 L524 700 Z M417 747 L385 793 L542 926 L570 926 L621 838 L439 747 L417 747 Z " />
<glyph glyph-name="Ucircumflex" unicode="&#xdb;" horiz-adv-x="652" d="M444 821 L318 746 L291 746 L271 780 L439 929 L486 929 L591 780 L556 746 L540 746 L444 821 Z M524 700 L675 700 L575 230 Q561 165 534 119 Q507 73 469 44.5 Q431 16 382.5 3 Q334 -10 278 -10 Q169 -10 105 33.5 Q41 77 41 166 Q41 181 43.5 206 Q46 231 50 248 L146 700 L310 700 L215 250 Q212 234 210 220.5 Q208 207 208 195 Q208 164 229.5 141 Q251 118 300 118 Q330 118 351 126.5 Q372 135 387 151.5 Q402 168 412 192.5 Q422 217 429 250 L524 700 Z " />
<glyph glyph-name="Udieresis" unicode="&#xdc;" horiz-adv-x="652" d="M524 700 L675 700 L575 230 Q561 165 534 119 Q507 73 469 44.5 Q431 16 382.5 3 Q334 -10 278 -10 Q169 -10 105 33.5 Q41 77 41 166 Q41 181 43.5 206 Q46 231 50 248 L146 700 L310 700 L215 250 Q212 234 210 220.5 Q208 207 208 195 Q208 164 229.5 141 Q251 118 300 118 Q330 118 351 126.5 Q372 135 387 151.5 Q402 168 412 192.5 Q422 217 429 250 L524 700 Z M295 830 Q295 859 317.5 882 Q340 905 377 905 Q403 905 418 888.5 Q433 872 433 850 Q433 820 409.5 798 Q386 776 350 776 Q324 776 309.5 792 Q295 808 295 830 Z M464 830 Q464 859 486.5 882 Q509 905 546 905 Q572 905 587 888.5 Q602 872 602 850 Q602 820 578.5 798 Q555 776 519 776 Q493 776 478.5 792 Q464 808 464 830 Z " />
<glyph glyph-name="Yacute" unicode="&#xdd;" horiz-adv-x="623" d="M175 0 L230 259 L75 700 L241 700 L337 416 L529 700 L695 700 L393 275 L334 0 L175 0 Z M397 747 L365 793 L522 926 L550 926 L601 838 L419 747 L397 747 Z " />
<glyph glyph-name="Ygrave" unicode="&#x1ef2;" horiz-adv-x="623" d="M175 0 L230 259 L75 700 L241 700 L337 416 L529 700 L695 700 L393 275 L334 0 L175 0 Z M401 747 L257 838 L346 926 L369 926 L469 793 L418 747 L401 747 Z " />
<glyph glyph-name="Thorn" unicode="&#xde;" horiz-adv-x="597" d="M192 136 L163 0 L4 0 L152 700 L311 700 L285 576 L346 576 Q459 576 524.5 530 Q590 484 590 387 Q590 323 566.5 276 Q543 229 500.5 198 Q458 167 398.5 151.5 Q339 136 266 136 L192 136 Z M216 254 L292 254 Q351 254 387.5 285.5 Q424 317 424 386 Q424 421 400.5 439.5 Q377 458 320 458 L259 458 L216 254 Z " />
<glyph glyph-name="germandbls" unicode="&#xdf;" horiz-adv-x="620" d="M171 2 Q163 -37 146 -70.5 Q129 -104 101 -128 Q73 -152 34.5 -166 Q-4 -180 -55 -180 Q-87 -180 -108 -178 Q-129 -176 -135 -174 L-114 -75 L-54 -75 Q-20 -75 -4 -58 Q12 -41 19 -7 L110 427 L49 427 L70 528 L133 528 L138 558 Q144 597 165.5 630.5 Q187 664 220.5 688 Q254 712 298 726 Q342 740 393 740 Q420 740 454.5 734 Q489 728 519.5 713 Q550 698 570.5 671 Q591 644 591 602 Q591 573 581 550 Q571 527 556.5 508.5 Q542 490 525 474.5 Q508 459 493.5 444.5 Q479 430 469 415.5 Q459 401 459 384 Q459 368 469 353.5 Q479 339 496 316 Q511 296 525.5 278 Q540 260 552 241 Q564 222 571.5 202.5 Q579 183 579 160 Q579 127 564.5 96 Q550 65 524 41.5 Q498 18 460 4 Q422 -10 376 -10 Q335 -10 297.5 -1.5 Q260 7 239 17 L262 127 Q284 113 311.5 104 Q339 95 374 95 Q404 95 419.5 109 Q435 123 435 142 Q435 163 416 186 Q397 209 373 236 Q344 268 327.5 291.5 Q311 315 311 344 Q311 377 333.5 407.5 Q356 438 383.5 467 Q411 496 433.5 523 Q456 550 456 576 Q456 595 447.5 606.5 Q439 618 427 624.5 Q415 631 401 633 Q387 635 375 635 Q302 635 288 567 L171 2 Z " />
<glyph glyph-name="agrave" unicode="&#xe0;" horiz-adv-x="557" d="M228 121 Q276 121 324 177 L369 381 Q353 395 336 402.5 Q319 410 297 410 Q265 410 241 391.5 Q217 373 200.5 343 Q184 313 175.5 274.5 Q167 236 167 195 Q167 167 181 144 Q195 121 228 121 Z M301 66 Q278 32 242 11 Q206 -10 164 -10 Q127 -10 98.5 4 Q70 18 51 43 Q32 68 22.5 102 Q13 136 13 175 Q13 244 31.5 310 Q50 376 84.5 427 Q119 478 169.5 509 Q220 540 283 540 Q355 540 396 487 L401 487 L402 492 Q405 506 416 518 Q427 530 456 530 L551 530 L439 0 L341 0 Q311 0 306.5 14 Q302 28 305 44 L309 66 L301 66 Z M186 668 L275 756 L298 756 L398 623 L347 577 L330 577 L186 668 Z " />
<glyph glyph-name="aacute" unicode="&#xe1;" horiz-adv-x="557" d="M228 121 Q276 121 324 177 L369 381 Q353 395 336 402.5 Q319 410 297 410 Q265 410 241 391.5 Q217 373 200.5 343 Q184 313 175.5 274.5 Q167 236 167 195 Q167 167 181 144 Q195 121 228 121 Z M301 66 Q278 32 242 11 Q206 -10 164 -10 Q127 -10 98.5 4 Q70 18 51 43 Q32 68 22.5 102 Q13 136 13 175 Q13 244 31.5 310 Q50 376 84.5 427 Q119 478 169.5 509 Q220 540 283 540 Q355 540 396 487 L401 487 L402 492 Q405 506 416 518 Q427 530 456 530 L551 530 L439 0 L341 0 Q311 0 306.5 14 Q302 28 305 44 L309 66 L301 66 Z M481 756 L532 668 L350 577 L328 577 L296 623 L453 756 L481 756 Z " />
<glyph glyph-name="acircumflex" unicode="&#xe2;" horiz-adv-x="557" d="M228 121 Q276 121 324 177 L369 381 Q353 395 336 402.5 Q319 410 297 410 Q265 410 241 391.5 Q217 373 200.5 343 Q184 313 175.5 274.5 Q167 236 167 195 Q167 167 181 144 Q195 121 228 121 Z M301 66 Q278 32 242 11 Q206 -10 164 -10 Q127 -10 98.5 4 Q70 18 51 43 Q32 68 22.5 102 Q13 136 13 175 Q13 244 31.5 310 Q50 376 84.5 427 Q119 478 169.5 509 Q220 540 283 540 Q355 540 396 487 L401 487 L402 492 Q405 506 416 518 Q427 530 456 530 L551 530 L439 0 L341 0 Q311 0 306.5 14 Q302 28 305 44 L309 66 L301 66 Z M353 648 L227 573 L200 573 L180 607 L348 756 L395 756 L500 607 L465 573 L449 573 L353 648 Z " />
<glyph glyph-name="atilde" unicode="&#xe3;" horiz-adv-x="557" d="M228 121 Q276 121 324 177 L369 381 Q353 395 336 402.5 Q319 410 297 410 Q265 410 241 391.5 Q217 373 200.5 343 Q184 313 175.5 274.5 Q167 236 167 195 Q167 167 181 144 Q195 121 228 121 Z M301 66 Q278 32 242 11 Q206 -10 164 -10 Q127 -10 98.5 4 Q70 18 51 43 Q32 68 22.5 102 Q13 136 13 175 Q13 244 31.5 310 Q50 376 84.5 427 Q119 478 169.5 509 Q220 540 283 540 Q355 540 396 487 L401 487 L402 492 Q405 506 416 518 Q427 530 456 530 L551 530 L439 0 L341 0 Q311 0 306.5 14 Q302 28 305 44 L309 66 L301 66 Z M526 728 L516 683 Q505 633 482 610 Q459 587 414 587 Q398 587 382 592.5 Q366 598 350.5 605 Q335 612 321 617.5 Q307 623 295 623 Q288 623 283.5 621.5 Q279 620 276 618 Q272 616 270 614 L261 576 L181 576 L190 617 Q203 675 224.5 698.5 Q246 722 286 722 Q302 722 318.5 715.5 Q335 709 351.5 701.5 Q368 694 383.5 687.5 Q399 681 413 681 Q429 681 436 688 Q440 691 441 695 L448 728 L526 728 Z " />
<glyph glyph-name="adieresis" unicode="&#xe4;" horiz-adv-x="557" d="M228 121 Q276 121 324 177 L369 381 Q353 395 336 402.5 Q319 410 297 410 Q265 410 241 391.5 Q217 373 200.5 343 Q184 313 175.5 274.5 Q167 236 167 195 Q167 167 181 144 Q195 121 228 121 Z M301 66 Q278 32 242 11 Q206 -10 164 -10 Q127 -10 98.5 4 Q70 18 51 43 Q32 68 22.5 102 Q13 136 13 175 Q13 244 31.5 310 Q50 376 84.5 427 Q119 478 169.5 509 Q220 540 283 540 Q355 540 396 487 L401 487 L402 492 Q405 506 416 518 Q427 530 456 530 L551 530 L439 0 L341 0 Q311 0 306.5 14 Q302 28 305 44 L309 66 L301 66 Z M204 660 Q204 689 226.5 712 Q249 735 286 735 Q312 735 327 718.5 Q342 702 342 680 Q342 650 318.5 628 Q295 606 259 606 Q233 606 218.5 622 Q204 638 204 660 Z M373 660 Q373 689 395.5 712 Q418 735 455 735 Q481 735 496 718.5 Q511 702 511 680 Q511 650 487.5 628 Q464 606 428 606 Q402 606 387.5 622 Q373 638 373 660 Z " />
<glyph glyph-name="aring" unicode="&#xe5;" horiz-adv-x="557" d="M228 121 Q276 121 324 177 L369 381 Q353 395 336 402.5 Q319 410 297 410 Q265 410 241 391.5 Q217 373 200.5 343 Q184 313 175.5 274.5 Q167 236 167 195 Q167 167 181 144 Q195 121 228 121 Z M301 66 Q278 32 242 11 Q206 -10 164 -10 Q127 -10 98.5 4 Q70 18 51 43 Q32 68 22.5 102 Q13 136 13 175 Q13 244 31.5 310 Q50 376 84.5 427 Q119 478 169.5 509 Q220 540 283 540 Q355 540 396 487 L401 487 L402 492 Q405 506 416 518 Q427 530 456 530 L551 530 L439 0 L341 0 Q311 0 306.5 14 Q302 28 305 44 L309 66 L301 66 Z M308 647 Q308 620 345 620 Q374 620 386 632.5 Q398 645 398 665 Q398 678 389.5 685 Q381 692 360 692 Q332 692 320 679.5 Q308 667 308 647 Z M366 744 Q417 744 447.5 723.5 Q478 703 478 664 Q478 639 466.5 621 Q455 603 436 591 Q417 579 392 573.5 Q367 568 339 568 Q290 568 259 587 Q228 606 228 642 Q228 669 238.5 688 Q249 707 268 719.5 Q287 732 312 738 Q337 744 366 744 Z " />
<glyph glyph-name="ae" unicode="&#xe6;" horiz-adv-x="771" d="M500 -10 Q443 -10 396.5 9 Q350 28 322 73 Q314 66 299 52 Q284 38 261.5 24.5 Q239 11 210 0.5 Q181 -10 147 -10 Q103 -10 72 2 Q41 14 22 34.5 Q3 55 -5.5 82 Q-14 109 -14 138 Q-14 180 1 212.5 Q16 245 43 266.5 Q70 288 108 299.5 Q146 311 192 311 L304 311 L306 320 Q308 331 310 341.5 Q312 352 312 361 Q312 387 294.5 401 Q277 415 228 415 Q203 415 179.5 412 Q156 409 136.5 404.5 Q117 400 102.5 395.5 Q88 391 81 388 L108 516 Q132 523 159 528 Q182 533 213.5 536.5 Q245 540 281 540 Q390 540 421 486 Q456 512 496.5 526 Q537 540 579 540 Q660 540 708 505 Q756 470 756 406 Q756 345 726 307.5 Q696 270 650.5 249 Q605 228 550 220 Q495 212 445 209 L445 202 Q445 116 539 116 Q571 116 597.5 127.5 Q624 139 650 159 L707 83 Q695 69 676.5 52.5 Q658 36 632 22 Q606 8 573 -1 Q540 -10 500 -10 Z M186 110 Q218 110 246.5 120.5 Q275 131 296 143 Q294 155 292.5 168.5 Q291 182 291 196 L291 209 L216 209 Q136 209 136 155 Q136 133 147.5 121.5 Q159 110 186 110 Z M564 431 Q535 431 504 402 Q473 373 457 307 Q484 311 512 315.5 Q540 320 563.5 328.5 Q587 337 601.5 350.5 Q616 364 616 385 Q616 431 564 431 Z " />
<glyph glyph-name="ccedilla" unicode="&#xe7;" horiz-adv-x="463" d="M159 -180 Q127 -180 100 -171.5 Q73 -163 59 -151 L88 -109 Q96 -114 116 -122 Q136 -130 156 -130 Q171 -130 182 -124.5 Q193 -119 193 -103 Q193 -89 173 -80 Q153 -71 120 -66 L124 -46 L166 -5 Q135 1 107.5 16 Q80 31 59 55.5 Q38 80 26 115 Q14 150 14 197 Q14 278 40.5 341.5 Q67 405 111.5 449.5 Q156 494 214.5 517 Q273 540 338 540 Q375 540 405 534 Q435 528 454 522 L429 405 Q406 409 386 412.5 Q366 416 332 416 Q294 416 263.5 400.5 Q233 385 211.5 359 Q190 333 178.5 298.5 Q167 264 167 226 Q167 170 189.5 143.5 Q212 117 252 117 Q285 117 311 129 Q337 141 359 160 L418 81 Q408 70 392 56 Q376 42 354.5 29 Q333 16 304.5 5.5 Q276 -5 242 -8 L215 -36 Q253 -36 274.5 -50.5 Q296 -65 296 -95 Q296 -119 283.5 -135 Q271 -151 251.5 -161 Q232 -171 207.5 -175.5 Q183 -180 159 -180 Z " />
<glyph glyph-name="egrave" unicode="&#xe8;" horiz-adv-x="495" d="M224 -10 Q181 -10 143 1 Q105 12 76.5 37 Q48 62 31.5 101 Q15 140 15 196 Q15 276 39 339.5 Q63 403 103.5 447.5 Q144 492 196.5 516 Q249 540 306 540 Q386 540 433 505 Q480 470 480 406 Q480 347 449 306.5 Q418 266 372 239.5 Q326 213 271.5 199 Q217 185 171 179 Q183 116 263 116 Q295 116 321.5 127.5 Q348 139 374 159 L431 83 Q419 69 400.5 52.5 Q382 36 356 22 Q330 8 297 -1 Q264 -10 224 -10 Z M291 431 Q275 431 257 422 Q239 413 223 394.5 Q207 376 194 346.5 Q181 317 174 276 Q202 280 231.5 286.5 Q261 293 285 305 Q309 317 324.5 336 Q340 355 340 385 Q340 431 291 431 Z M164 668 L253 756 L276 756 L376 623 L325 577 L308 577 L164 668 Z " />
<glyph glyph-name="eacute" unicode="&#xe9;" horiz-adv-x="495" d="M459 756 L510 668 L328 577 L306 577 L274 623 L431 756 L459 756 Z M224 -10 Q181 -10 143 1 Q105 12 76.5 37 Q48 62 31.5 101 Q15 140 15 196 Q15 276 39 339.5 Q63 403 103.5 447.5 Q144 492 196.5 516 Q249 540 306 540 Q386 540 433 505 Q480 470 480 406 Q480 347 449 306.5 Q418 266 372 239.5 Q326 213 271.5 199 Q217 185 171 179 Q183 116 263 116 Q295 116 321.5 127.5 Q348 139 374 159 L431 83 Q419 69 400.5 52.5 Q382 36 356 22 Q330 8 297 -1 Q264 -10 224 -10 Z M291 431 Q275 431 257 422 Q239 413 223 394.5 Q207 376 194 346.5 Q181 317 174 276 Q202 280 231.5 286.5 Q261 293 285 305 Q309 317 324.5 336 Q340 355 340 385 Q340 431 291 431 Z " />
<glyph glyph-name="ecircumflex" unicode="&#xea;" horiz-adv-x="495" d="M330 648 L204 573 L177 573 L157 607 L325 756 L372 756 L477 607 L442 573 L426 573 L330 648 Z M224 -10 Q181 -10 143 1 Q105 12 76.5 37 Q48 62 31.5 101 Q15 140 15 196 Q15 276 39 339.5 Q63 403 103.5 447.5 Q144 492 196.5 516 Q249 540 306 540 Q386 540 433 505 Q480 470 480 406 Q480 347 449 306.5 Q418 266 372 239.5 Q326 213 271.5 199 Q217 185 171 179 Q183 116 263 116 Q295 116 321.5 127.5 Q348 139 374 159 L431 83 Q419 69 400.5 52.5 Q382 36 356 22 Q330 8 297 -1 Q264 -10 224 -10 Z M291 431 Q275 431 257 422 Q239 413 223 394.5 Q207 376 194 346.5 Q181 317 174 276 Q202 280 231.5 286.5 Q261 293 285 305 Q309 317 324.5 336 Q340 355 340 385 Q340 431 291 431 Z " />
<glyph glyph-name="edieresis" unicode="&#xeb;" horiz-adv-x="495" d="M181 660 Q181 689 203.5 712 Q226 735 263 735 Q289 735 304 718.5 Q319 702 319 680 Q319 650 295.5 628 Q272 606 236 606 Q210 606 195.5 622 Q181 638 181 660 Z M350 660 Q350 689 372.5 712 Q395 735 432 735 Q458 735 473 718.5 Q488 702 488 680 Q488 650 464.5 628 Q441 606 405 606 Q379 606 364.5 622 Q350 638 350 660 Z M224 -10 Q181 -10 143 1 Q105 12 76.5 37 Q48 62 31.5 101 Q15 140 15 196 Q15 276 39 339.5 Q63 403 103.5 447.5 Q144 492 196.5 516 Q249 540 306 540 Q386 540 433 505 Q480 470 480 406 Q480 347 449 306.5 Q418 266 372 239.5 Q326 213 271.5 199 Q217 185 171 179 Q183 116 263 116 Q295 116 321.5 127.5 Q348 139 374 159 L431 83 Q419 69 400.5 52.5 Q382 36 356 22 Q330 8 297 -1 Q264 -10 224 -10 Z M291 431 Q275 431 257 422 Q239 413 223 394.5 Q207 376 194 346.5 Q181 317 174 276 Q202 280 231.5 286.5 Q261 293 285 305 Q309 317 324.5 336 Q340 355 340 385 Q340 431 291 431 Z " />
<glyph glyph-name="igrave" unicode="&#xec;" horiz-adv-x="259" d="M103 530 L253 530 L140 0 L-10 0 L103 530 Z M30 668 L119 756 L142 756 L242 623 L191 577 L174 577 L30 668 Z " />
<glyph glyph-name="iacute" unicode="&#xed;" horiz-adv-x="259" d="M326 756 L377 668 L195 577 L173 577 L141 623 L298 756 L326 756 Z M103 530 L253 530 L140 0 L-10 0 L103 530 Z " />
<glyph glyph-name="icircumflex" unicode="&#xee;" horiz-adv-x="259" d="M197 648 L71 573 L44 573 L24 607 L192 756 L239 756 L344 607 L309 573 L293 573 L197 648 Z M103 530 L253 530 L140 0 L-10 0 L103 530 Z " />
<glyph glyph-name="idieresis" unicode="&#xef;" horiz-adv-x="259" d="M50 660 Q50 689 72.5 712 Q95 735 132 735 Q158 735 173 718.5 Q188 702 188 680 Q188 650 164.5 628 Q141 606 105 606 Q79 606 64.5 622 Q50 638 50 660 Z M219 660 Q219 689 241.5 712 Q264 735 301 735 Q327 735 342 718.5 Q357 702 357 680 Q357 650 333.5 628 Q310 606 274 606 Q248 606 233.5 622 Q219 638 219 660 Z M103 530 L253 530 L140 0 L-10 0 L103 530 Z " />
<glyph glyph-name="eth" unicode="&#xf0;" horiz-adv-x="547" d="M231 -10 Q187 -10 148 3 Q109 16 80 42.5 Q51 69 34 110 Q17 151 17 207 Q17 289 41.5 351.5 Q66 414 106 456 Q146 498 197 519 Q248 540 301 540 Q329 540 349 536 Q338 567 320 596 L245 565 L230 624 L284 646 Q266 668 246 690 L303 741 Q349 716 380 686 L462 720 L478 660 L423 638 Q474 571 494.5 490.5 Q515 410 515 331 Q515 247 490.5 183.5 Q466 120 426 77 Q386 34 335 12 Q284 -10 231 -10 Z M171 201 Q171 148 185.5 125 Q200 102 236 102 Q271 102 295 126.5 Q319 151 333.5 188 Q348 225 354.5 266.5 Q361 308 361 343 Q361 385 346.5 406.5 Q332 428 295 428 Q260 428 236 403.5 Q212 379 197.5 344 Q183 309 177 270 Q171 231 171 201 Z " />
<glyph glyph-name="ntilde" unicode="&#xf1;" horiz-adv-x="558" d="M322 407 Q293 407 264 384.5 Q235 362 213 333 L140 0 L-9 0 L103 530 L201 530 Q231 530 237 516 Q243 502 239 487 L232 457 L239 457 Q252 473 268 488 Q284 503 303 514.5 Q322 526 344.5 533 Q367 540 394 540 Q458 540 491.5 505 Q525 470 526 412 Q526 387 520 360 L443 0 L293 0 L365 336 Q368 348 368 361 Q368 381 358 394 Q348 407 322 407 Z M536 728 L526 683 Q515 633 492 610 Q469 587 424 587 Q408 587 392 592.5 Q376 598 360.5 605 Q345 612 331 617.5 Q317 623 305 623 Q298 623 293.5 621.5 Q289 620 286 618 Q282 616 280 614 L271 576 L191 576 L200 617 Q213 675 234.5 698.5 Q256 722 296 722 Q312 722 328.5 715.5 Q345 709 361.5 701.5 Q378 694 393.5 687.5 Q409 681 423 681 Q439 681 446 688 Q450 691 451 695 L458 728 L536 728 Z " />
<glyph glyph-name="ograve" unicode="&#xf2;" horiz-adv-x="546" d="M17 207 Q17 289 41.5 351.5 Q66 414 106 456 Q146 498 197 519 Q248 540 301 540 Q346 540 385 527.5 Q424 515 453 489 Q482 463 498.5 424 Q515 385 515 331 Q515 247 490.5 183.5 Q466 120 426 77 Q386 34 335 12 Q284 -10 231 -10 Q187 -10 148 3 Q109 16 80 42.5 Q51 69 34 110 Q17 151 17 207 Z M171 201 Q171 150 186.5 126 Q202 102 236 102 Q271 102 295 126.5 Q319 151 333.5 188 Q348 225 354.5 266.5 Q361 308 361 343 Q361 384 345.5 406 Q330 428 295 428 Q260 428 236 403.5 Q212 379 197.5 344 Q183 309 177 270 Q171 231 171 201 Z M167 668 L256 756 L279 756 L379 623 L328 577 L311 577 L167 668 Z " />
<glyph glyph-name="oacute" unicode="&#xf3;" horiz-adv-x="546" d="M472 756 L523 668 L341 577 L319 577 L287 623 L444 756 L472 756 Z M17 207 Q17 289 41.5 351.5 Q66 414 106 456 Q146 498 197 519 Q248 540 301 540 Q346 540 385 527.5 Q424 515 453 489 Q482 463 498.5 424 Q515 385 515 331 Q515 247 490.5 183.5 Q466 120 426 77 Q386 34 335 12 Q284 -10 231 -10 Q187 -10 148 3 Q109 16 80 42.5 Q51 69 34 110 Q17 151 17 207 Z M171 201 Q171 150 186.5 126 Q202 102 236 102 Q271 102 295 126.5 Q319 151 333.5 188 Q348 225 354.5 266.5 Q361 308 361 343 Q361 384 345.5 406 Q330 428 295 428 Q260 428 236 403.5 Q212 379 197.5 344 Q183 309 177 270 Q171 231 171 201 Z " />
<glyph glyph-name="ocircumflex" unicode="&#xf4;" horiz-adv-x="546" d="M347 648 L221 573 L194 573 L174 607 L342 756 L389 756 L494 607 L459 573 L443 573 L347 648 Z M17 207 Q17 289 41.5 351.5 Q66 414 106 456 Q146 498 197 519 Q248 540 301 540 Q346 540 385 527.5 Q424 515 453 489 Q482 463 498.5 424 Q515 385 515 331 Q515 247 490.5 183.5 Q466 120 426 77 Q386 34 335 12 Q284 -10 231 -10 Q187 -10 148 3 Q109 16 80 42.5 Q51 69 34 110 Q17 151 17 207 Z M171 201 Q171 150 186.5 126 Q202 102 236 102 Q271 102 295 126.5 Q319 151 333.5 188 Q348 225 354.5 266.5 Q361 308 361 343 Q361 384 345.5 406 Q330 428 295 428 Q260 428 236 403.5 Q212 379 197.5 344 Q183 309 177 270 Q171 231 171 201 Z " />
<glyph glyph-name="otilde" unicode="&#xf5;" horiz-adv-x="546" d="M17 207 Q17 289 41.5 351.5 Q66 414 106 456 Q146 498 197 519 Q248 540 301 540 Q346 540 385 527.5 Q424 515 453 489 Q482 463 498.5 424 Q515 385 515 331 Q515 247 490.5 183.5 Q466 120 426 77 Q386 34 335 12 Q284 -10 231 -10 Q187 -10 148 3 Q109 16 80 42.5 Q51 69 34 110 Q17 151 17 207 Z M171 201 Q171 150 186.5 126 Q202 102 236 102 Q271 102 295 126.5 Q319 151 333.5 188 Q348 225 354.5 266.5 Q361 308 361 343 Q361 384 345.5 406 Q330 428 295 428 Q260 428 236 403.5 Q212 379 197.5 344 Q183 309 177 270 Q171 231 171 201 Z M517 728 L507 683 Q496 633 473 610 Q450 587 405 587 Q389 587 373 592.5 Q357 598 341.5 605 Q326 612 312 617.5 Q298 623 286 623 Q279 623 274.5 621.5 Q270 620 267 618 Q263 616 261 614 L252 576 L172 576 L181 617 Q194 675 215.5 698.5 Q237 722 277 722 Q293 722 309.5 715.5 Q326 709 342.5 701.5 Q359 694 374.5 687.5 Q390 681 404 681 Q420 681 427 688 Q431 691 432 695 L439 728 L517 728 Z " />
<glyph glyph-name="odieresis" unicode="&#xf6;" horiz-adv-x="546" d="M200 660 Q200 689 222.5 712 Q245 735 282 735 Q308 735 323 718.5 Q338 702 338 680 Q338 650 314.5 628 Q291 606 255 606 Q229 606 214.5 622 Q200 638 200 660 Z M369 660 Q369 689 391.5 712 Q414 735 451 735 Q477 735 492 718.5 Q507 702 507 680 Q507 650 483.5 628 Q460 606 424 606 Q398 606 383.5 622 Q369 638 369 660 Z M17 207 Q17 289 41.5 351.5 Q66 414 106 456 Q146 498 197 519 Q248 540 301 540 Q346 540 385 527.5 Q424 515 453 489 Q482 463 498.5 424 Q515 385 515 331 Q515 247 490.5 183.5 Q466 120 426 77 Q386 34 335 12 Q284 -10 231 -10 Q187 -10 148 3 Q109 16 80 42.5 Q51 69 34 110 Q17 151 17 207 Z M171 201 Q171 150 186.5 126 Q202 102 236 102 Q271 102 295 126.5 Q319 151 333.5 188 Q348 225 354.5 266.5 Q361 308 361 343 Q361 384 345.5 406 Q330 428 295 428 Q260 428 236 403.5 Q212 379 197.5 344 Q183 309 177 270 Q171 231 171 201 Z " />
<glyph glyph-name="divide" unicode="&#xf7;" horiz-adv-x="507" d="M195 501 Q195 529 215 548 Q235 567 261 567 Q287 567 307 548 Q327 529 327 501 Q327 475 307 455.5 Q287 436 261 436 Q235 436 215 455.5 Q195 475 195 501 Z M195 175 Q195 203 215 222 Q235 241 261 241 Q287 241 307 222 Q327 203 327 175 Q327 149 307 129.5 Q287 110 261 110 Q235 110 215 129.5 Q195 149 195 175 Z M47 386 L475 386 L475 291 L47 291 L47 386 Z " />
<glyph glyph-name="oslash" unicode="&#xf8;" horiz-adv-x="546" d="M17 207 Q17 289 41.5 351.5 Q66 414 106 456 Q146 498 197 519 Q248 540 301 540 Q342 540 377.5 529.5 Q413 519 441 498 L481 540 L572 540 L486 449 Q500 426 507.5 396 Q515 366 515 331 Q515 247 490.5 183.5 Q466 120 426 77 Q386 34 335 12 Q284 -10 231 -10 Q191 -10 156 0 Q121 10 92 32 L53 -10 L-39 -10 L48 82 Q17 132 17 207 Z M295 428 Q261 428 238 405.5 Q215 383 200 350 Q185 317 178.5 279.5 Q172 242 171 212 L349 400 Q332 428 295 428 Z M236 102 Q268 102 290.5 122.5 Q313 143 327.5 174.5 Q342 206 350 243.5 Q358 281 360 315 L184 129 Q200 102 236 102 Z " />
<glyph glyph-name="ugrave" unicode="&#xf9;" horiz-adv-x="548" d="M295 73 Q282 57 266 42 Q250 27 231.5 15.5 Q213 4 191 -3 Q169 -10 143 -10 Q81 -10 48.5 25 Q16 60 16 118 Q16 143 22 170 L99 530 L249 530 L177 194 Q174 180 174 169 Q174 149 183 136 Q192 123 215 123 Q244 123 271 145.5 Q298 168 320 196 L393 530 L542 530 L430 0 L333 0 Q303 0 297 14 Q291 28 295 43 L301 73 L295 73 Z M185 668 L274 756 L297 756 L397 623 L346 577 L329 577 L185 668 Z " />
<glyph glyph-name="uacute" unicode="&#xfa;" horiz-adv-x="548" d="M470 756 L521 668 L339 577 L317 577 L285 623 L442 756 L470 756 Z M295 73 Q282 57 266 42 Q250 27 231.5 15.5 Q213 4 191 -3 Q169 -10 143 -10 Q81 -10 48.5 25 Q16 60 16 118 Q16 143 22 170 L99 530 L249 530 L177 194 Q174 180 174 169 Q174 149 183 136 Q192 123 215 123 Q244 123 271 145.5 Q298 168 320 196 L393 530 L542 530 L430 0 L333 0 Q303 0 297 14 Q291 28 295 43 L301 73 L295 73 Z " />
<glyph glyph-name="ucircumflex" unicode="&#xfb;" horiz-adv-x="548" d="M352 648 L226 573 L199 573 L179 607 L347 756 L394 756 L499 607 L464 573 L448 573 L352 648 Z M295 73 Q282 57 266 42 Q250 27 231.5 15.5 Q213 4 191 -3 Q169 -10 143 -10 Q81 -10 48.5 25 Q16 60 16 118 Q16 143 22 170 L99 530 L249 530 L177 194 Q174 180 174 169 Q174 149 183 136 Q192 123 215 123 Q244 123 271 145.5 Q298 168 320 196 L393 530 L542 530 L430 0 L333 0 Q303 0 297 14 Q291 28 295 43 L301 73 L295 73 Z " />
<glyph glyph-name="udieresis" unicode="&#xfc;" horiz-adv-x="548" d="M204 660 Q204 689 226.5 712 Q249 735 286 735 Q312 735 327 718.5 Q342 702 342 680 Q342 650 318.5 628 Q295 606 259 606 Q233 606 218.5 622 Q204 638 204 660 Z M373 660 Q373 689 395.5 712 Q418 735 455 735 Q481 735 496 718.5 Q511 702 511 680 Q511 650 487.5 628 Q464 606 428 606 Q402 606 387.5 622 Q373 638 373 660 Z M295 73 Q282 57 266 42 Q250 27 231.5 15.5 Q213 4 191 -3 Q169 -10 143 -10 Q81 -10 48.5 25 Q16 60 16 118 Q16 143 22 170 L99 530 L249 530 L177 194 Q174 180 174 169 Q174 149 183 136 Q192 123 215 123 Q244 123 271 145.5 Q298 168 320 196 L393 530 L542 530 L430 0 L333 0 Q303 0 297 14 Q291 28 295 43 L301 73 L295 73 Z " />
<glyph glyph-name="yacute" unicode="&#xfd;" horiz-adv-x="529" d="M52 -170 L140 -5 L47 530 L210 530 L249 199 L426 530 L573 530 L181 -170 L52 -170 Z M474 756 L525 668 L343 577 L321 577 L289 623 L446 756 L474 756 Z " />
<glyph glyph-name="ygrave" unicode="&#x1ef3;" horiz-adv-x="529" d="M52 -170 L140 -5 L47 530 L210 530 L249 199 L426 530 L573 530 L181 -170 L52 -170 Z M185 668 L274 756 L297 756 L397 623 L346 577 L329 577 L185 668 Z " />
<glyph glyph-name="thorn" unicode="&#xfe;" horiz-adv-x="557" d="M245 120 Q276 120 300.5 138.5 Q325 157 341.5 187 Q358 217 366.5 255.5 Q375 294 375 335 Q375 364 361 387 Q347 410 314 410 Q264 410 215 349 L172 149 Q188 135 205 127.5 Q222 120 245 120 Z M259 -10 Q188 -10 149 40 L104 -170 L-46 -170 L146 730 L296 730 L238 459 Q261 496 297.5 518.5 Q334 541 378 541 Q415 541 443.5 527 Q472 513 491 488 Q510 463 519.5 429 Q529 395 529 355 Q529 286 510.5 220 Q492 154 457.5 103 Q423 52 372.5 21 Q322 -10 259 -10 Z " />
<glyph glyph-name="ydieresis" unicode="&#xff;" horiz-adv-x="529" d="M52 -170 L140 -5 L47 530 L210 530 L249 199 L426 530 L573 530 L181 -170 L52 -170 Z M197 660 Q197 689 219.5 712 Q242 735 279 735 Q305 735 320 718.5 Q335 702 335 680 Q335 650 311.5 628 Q288 606 252 606 Q226 606 211.5 622 Q197 638 197 660 Z M366 660 Q366 689 388.5 712 Q411 735 448 735 Q474 735 489 718.5 Q504 702 504 680 Q504 650 480.5 628 Q457 606 421 606 Q395 606 380.5 622 Q366 638 366 660 Z " />
<glyph glyph-name="Amacron" unicode="&#x100;" horiz-adv-x="637" d="M392 131 L179 131 L115 0 L-53 0 L314 702 L478 702 L577 0 L406 0 L392 131 Z M237 249 L379 249 L354 486 L237 249 Z M306 876 L564 876 L545 788 L287 788 L306 876 Z " />
<glyph glyph-name="amacron" unicode="&#x101;" horiz-adv-x="557" d="M228 121 Q276 121 324 177 L369 381 Q353 395 336 402.5 Q319 410 297 410 Q265 410 241 391.5 Q217 373 200.5 343 Q184 313 175.5 274.5 Q167 236 167 195 Q167 167 181 144 Q195 121 228 121 Z M301 66 Q278 32 242 11 Q206 -10 164 -10 Q127 -10 98.5 4 Q70 18 51 43 Q32 68 22.5 102 Q13 136 13 175 Q13 244 31.5 310 Q50 376 84.5 427 Q119 478 169.5 509 Q220 540 283 540 Q355 540 396 487 L401 487 L402 492 Q405 506 416 518 Q427 530 456 530 L551 530 L439 0 L341 0 Q311 0 306.5 14 Q302 28 305 44 L309 66 L301 66 Z M236 706 L494 706 L475 618 L217 618 L236 706 Z " />
<glyph glyph-name="Abreve" unicode="&#x102;" horiz-adv-x="637" d="M392 131 L179 131 L115 0 L-53 0 L314 702 L478 702 L577 0 L406 0 L392 131 Z M237 249 L379 249 L354 486 L237 249 Z M555 876 Q547 853 534 832.5 Q521 812 501.5 795.5 Q482 779 457.5 769.5 Q433 760 403 760 Q376 760 356 769.5 Q336 779 323 795 Q310 811 303.5 832 Q297 853 297 876 L365 895 Q367 875 378.5 858.5 Q390 842 416 842 Q445 842 463.5 857.5 Q482 873 492 892 L555 876 L555 876 Z " />
<glyph glyph-name="abreve" unicode="&#x103;" horiz-adv-x="557" d="M228 121 Q276 121 324 177 L369 381 Q353 395 336 402.5 Q319 410 297 410 Q265 410 241 391.5 Q217 373 200.5 343 Q184 313 175.5 274.5 Q167 236 167 195 Q167 167 181 144 Q195 121 228 121 Z M301 66 Q278 32 242 11 Q206 -10 164 -10 Q127 -10 98.5 4 Q70 18 51 43 Q32 68 22.5 102 Q13 136 13 175 Q13 244 31.5 310 Q50 376 84.5 427 Q119 478 169.5 509 Q220 540 283 540 Q355 540 396 487 L401 487 L402 492 Q405 506 416 518 Q427 530 456 530 L551 530 L439 0 L341 0 Q311 0 306.5 14 Q302 28 305 44 L309 66 L301 66 Z M483 706 Q475 683 462 662.5 Q449 642 429.5 625.5 Q410 609 385.5 599.5 Q361 590 331 590 Q304 590 284 599.5 Q264 609 251 625 Q238 641 231.5 662 Q225 683 225 706 L293 725 Q295 705 306.5 688.5 Q318 672 344 672 Q373 672 392.5 687 Q412 702 422 721 L483 706 L483 706 Z " />
<glyph glyph-name="Aogonek" unicode="&#x104;" horiz-adv-x="635" d="M531 -151 Q512 -163 481.5 -171.5 Q451 -180 419 -180 Q369 -180 342 -162.5 Q315 -145 315 -107 Q315 -70 340.5 -43.5 Q366 -17 405 0 L391 131 L178 131 L114 0 L-54 0 L313 702 L477 702 L576 0 L540 0 Q513 0 491.5 -6.5 Q470 -13 454 -24 Q438 -35 429.5 -48.5 Q421 -62 421 -76 Q421 -93 431 -99.5 Q441 -106 459 -106 Q473 -106 491 -100 Q509 -94 516 -89 L531 -151 Z M236 249 L378 249 L353 486 L236 249 Z " />
<glyph glyph-name="aogonek" unicode="&#x105;" horiz-adv-x="557" d="M301 66 Q278 32 242 11 Q206 -10 164 -10 Q127 -10 98.5 4 Q70 18 51 43 Q32 68 22.5 102 Q13 136 13 175 Q13 244 31.5 310 Q50 376 84.5 427 Q119 478 169.5 509 Q220 540 283 540 Q355 540 396 487 L401 487 L402 492 Q405 506 416 518 Q427 530 456 530 L551 530 L439 0 L436 0 Q410 0 388 -6.5 Q366 -13 350 -24 Q334 -35 325.5 -48.5 Q317 -62 317 -76 Q317 -93 327 -99.5 Q337 -106 355 -106 Q369 -106 387 -100 Q405 -94 412 -89 L427 -151 Q408 -163 377.5 -171.5 Q347 -180 315 -180 Q265 -180 238 -162.5 Q211 -145 211 -107 Q211 -67 240.5 -39 Q270 -11 314 6 Q304 12 303.5 22.5 Q303 33 305 44 L309 66 L301 66 Z M228 121 Q276 121 324 177 L369 381 Q353 395 336 402.5 Q319 410 297 410 Q265 410 241 391.5 Q217 373 200.5 343 Q184 313 175.5 274.5 Q167 236 167 195 Q167 167 181 144 Q195 121 228 121 Z " />
<glyph glyph-name="Cacute" unicode="&#x106;" horiz-adv-x="560" d="M475 16 Q446 5 405 -2.5 Q364 -10 310 -10 Q180 -10 109 59 Q38 128 38 256 Q38 360 68 444 Q98 528 152 587 Q206 646 281.5 678 Q357 710 449 710 Q503 710 542.5 702 Q582 694 602 687 L574 559 Q539 569 506.5 573.5 Q474 578 446 578 Q395 578 351 560.5 Q307 543 274.5 505.5 Q242 468 223.5 409.5 Q205 351 205 269 Q205 202 238 161 Q271 120 352 120 Q425 120 500 145 L475 16 Z M447 747 L415 793 L572 926 L600 926 L651 838 L469 747 L447 747 Z " />
<glyph glyph-name="cacute" unicode="&#x107;" horiz-adv-x="463" d="M484 756 L535 668 L353 577 L331 577 L299 623 L456 756 L484 756 Z M418 81 Q407 69 388.5 53 Q370 37 344.5 23 Q319 9 286 -0.5 Q253 -10 212 -10 Q174 -10 138.5 1.5 Q103 13 75.5 38 Q48 63 31 102.5 Q14 142 14 197 Q14 278 40.5 341.5 Q67 405 111.5 449.5 Q156 494 214.5 517 Q273 540 338 540 Q375 540 405 534 Q435 528 454 522 L429 405 Q406 409 386 412.5 Q366 416 332 416 Q294 416 263.5 400.5 Q233 385 211.5 359 Q190 333 178.5 298.5 Q167 264 167 226 Q167 170 189.5 143.5 Q212 117 252 117 Q285 117 311 129 Q337 141 359 160 L418 81 Z " />
<glyph glyph-name="Ccircumflex" unicode="&#x108;" horiz-adv-x="560" d="M475 16 Q446 5 405 -2.5 Q364 -10 310 -10 Q180 -10 109 59 Q38 128 38 256 Q38 360 68 444 Q98 528 152 587 Q206 646 281.5 678 Q357 710 449 710 Q503 710 542.5 702 Q582 694 602 687 L574 559 Q539 569 506.5 573.5 Q474 578 446 578 Q395 578 351 560.5 Q307 543 274.5 505.5 Q242 468 223.5 409.5 Q205 351 205 269 Q205 202 238 161 Q271 120 352 120 Q425 120 500 145 L475 16 Z M472 821 L346 746 L319 746 L299 780 L467 929 L514 929 L619 780 L584 746 L568 746 L472 821 Z " />
<glyph glyph-name="ccircumflex" unicode="&#x109;" horiz-adv-x="463" d="M356 648 L230 573 L203 573 L183 607 L351 756 L398 756 L503 607 L468 573 L452 573 L356 648 Z M418 81 Q407 69 388.5 53 Q370 37 344.5 23 Q319 9 286 -0.5 Q253 -10 212 -10 Q174 -10 138.5 1.5 Q103 13 75.5 38 Q48 63 31 102.5 Q14 142 14 197 Q14 278 40.5 341.5 Q67 405 111.5 449.5 Q156 494 214.5 517 Q273 540 338 540 Q375 540 405 534 Q435 528 454 522 L429 405 Q406 409 386 412.5 Q366 416 332 416 Q294 416 263.5 400.5 Q233 385 211.5 359 Q190 333 178.5 298.5 Q167 264 167 226 Q167 170 189.5 143.5 Q212 117 252 117 Q285 117 311 129 Q337 141 359 160 L418 81 Z " />
<glyph glyph-name="Cdotaccent" unicode="&#x10a;" horiz-adv-x="560" d="M390 816 Q390 834 397.5 851 Q405 868 418.5 881 Q432 894 450.5 902 Q469 910 492 910 Q524 910 543 889.5 Q562 869 562 842 Q562 804 533 776.5 Q504 749 458 749 Q426 749 408 769 Q390 789 390 816 Z M475 16 Q446 5 405 -2.5 Q364 -10 310 -10 Q180 -10 109 59 Q38 128 38 256 Q38 360 68 444 Q98 528 152 587 Q206 646 281.5 678 Q357 710 449 710 Q503 710 542.5 702 Q582 694 602 687 L574 559 Q539 569 506.5 573.5 Q474 578 446 578 Q395 578 351 560.5 Q307 543 274.5 505.5 Q242 468 223.5 409.5 Q205 351 205 269 Q205 202 238 161 Q271 120 352 120 Q425 120 500 145 L475 16 Z " />
<glyph glyph-name="cdotaccent" unicode="&#x10b;" horiz-adv-x="463" d="M418 81 Q407 69 388.5 53 Q370 37 344.5 23 Q319 9 286 -0.5 Q253 -10 212 -10 Q174 -10 138.5 1.5 Q103 13 75.5 38 Q48 63 31 102.5 Q14 142 14 197 Q14 278 40.5 341.5 Q67 405 111.5 449.5 Q156 494 214.5 517 Q273 540 338 540 Q375 540 405 534 Q435 528 454 522 L429 405 Q406 409 386 412.5 Q366 416 332 416 Q294 416 263.5 400.5 Q233 385 211.5 359 Q190 333 178.5 298.5 Q167 264 167 226 Q167 170 189.5 143.5 Q212 117 252 117 Q285 117 311 129 Q337 141 359 160 L418 81 Z M275 646 Q275 664 282.5 681 Q290 698 303.5 711 Q317 724 335.5 732 Q354 740 377 740 Q409 740 428 719.5 Q447 699 447 672 Q447 634 418 606.5 Q389 579 343 579 Q311 579 293 599 Q275 619 275 646 Z " />
<glyph glyph-name="Ccaron" unicode="&#x10c;" horiz-adv-x="560" d="M475 16 Q446 5 405 -2.5 Q364 -10 310 -10 Q180 -10 109 59 Q38 128 38 256 Q38 360 68 444 Q98 528 152 587 Q206 646 281.5 678 Q357 710 449 710 Q503 710 542.5 702 Q582 694 602 687 L574 559 Q539 569 506.5 573.5 Q474 578 446 578 Q395 578 351 560.5 Q307 543 274.5 505.5 Q242 468 223.5 409.5 Q205 351 205 269 Q205 202 238 161 Q271 120 352 120 Q425 120 500 145 L475 16 Z M438 747 L333 896 L368 930 L384 930 L480 855 L606 930 L633 930 L653 896 L485 747 L438 747 Z " />
<glyph glyph-name="ccaron" unicode="&#x10d;" horiz-adv-x="463" d="M322 577 L217 726 L252 760 L268 760 L364 685 L490 760 L517 760 L537 726 L369 577 L322 577 Z M418 81 Q407 69 388.5 53 Q370 37 344.5 23 Q319 9 286 -0.5 Q253 -10 212 -10 Q174 -10 138.5 1.5 Q103 13 75.5 38 Q48 63 31 102.5 Q14 142 14 197 Q14 278 40.5 341.5 Q67 405 111.5 449.5 Q156 494 214.5 517 Q273 540 338 540 Q375 540 405 534 Q435 528 454 522 L429 405 Q406 409 386 412.5 Q366 416 332 416 Q294 416 263.5 400.5 Q233 385 211.5 359 Q190 333 178.5 298.5 Q167 264 167 226 Q167 170 189.5 143.5 Q212 117 252 117 Q285 117 311 129 Q337 141 359 160 L418 81 Z " />
<glyph glyph-name="Dcaron" unicode="&#x10e;" horiz-adv-x="665" d="M152 700 L370 700 Q432 700 483 683.5 Q534 667 570 634.5 Q606 602 626 553 Q646 504 646 439 Q646 333 616.5 251 Q587 169 534 113.5 Q481 58 406.5 29 Q332 0 241 0 L4 0 L152 700 Z M189 124 L270 124 Q309 124 347 143.5 Q385 163 414 202.5 Q443 242 461 302 Q479 362 479 442 Q479 510 449 543.5 Q419 577 345 577 L285 577 L189 124 Z M368 747 L263 896 L298 930 L314 930 L410 855 L536 930 L563 930 L583 896 L415 747 L368 747 Z " />
<glyph glyph-name="dcaron" unicode="&#x10f;" horiz-adv-x="556" d="M634 582 L676 780 L785 780 L772 719 L724 582 L634 582 Z M228 121 Q277 121 323 176 L368 382 Q352 396 335.5 403 Q319 410 297 410 Q265 410 241 391.5 Q217 373 200.5 343 Q184 313 175.5 274.5 Q167 236 167 195 Q167 167 181 144 Q195 121 228 121 Z M301 64 Q278 31 242 10.5 Q206 -10 164 -10 Q127 -10 98.5 4 Q70 18 51 43 Q32 68 22.5 102 Q13 136 13 175 Q13 244 31.5 310 Q50 376 84.5 427 Q119 478 169.5 509 Q220 540 283 540 Q352 540 392 492 L443 730 L593 730 L438 0 L341 0 Q326 0 318 4 Q310 8 307 14 Q304 20 304 28 Q304 36 305 44 L308 64 L301 64 Z " />
<glyph glyph-name="Dcroat" unicode="&#x110;" horiz-adv-x="667" d="M33 396 L90 396 L154 700 L372 700 Q434 700 485 683.5 Q536 667 572 634.5 Q608 602 628 553 Q648 504 648 439 Q648 333 618.5 251 Q589 169 536 113.5 Q483 58 408.5 29 Q334 0 243 0 L6 0 L73 316 L16 316 L33 396 Z M248 396 L401 396 L384 316 L231 316 L191 124 L272 124 Q311 124 349 143.5 Q387 163 416 202.5 Q445 242 463 302 Q481 362 481 442 Q481 510 451 543.5 Q421 577 347 577 L287 577 L248 396 Z " />
<glyph glyph-name="dcroat" unicode="&#x111;" horiz-adv-x="556" d="M305 646 L425 646 L443 730 L593 730 L575 646 L639 646 L623 568 L558 568 L438 0 L341 0 Q326 0 318 4 Q310 8 307 14 Q304 20 304 28 Q304 36 305 44 L308 64 L301 64 Q278 31 242 10.5 Q206 -10 164 -10 Q127 -10 98.5 4 Q70 18 51 43 Q32 68 22.5 102 Q13 136 13 175 Q13 244 31.5 310 Q50 376 84.5 427 Q119 478 169.5 509 Q220 540 283 540 Q352 540 392 492 L408 568 L289 568 L305 646 Z M228 121 Q277 121 323 176 L368 382 Q352 396 335.5 403 Q319 410 297 410 Q265 410 241 391.5 Q217 373 200.5 343 Q184 313 175.5 274.5 Q167 236 167 195 Q167 167 181 144 Q195 121 228 121 Z " />
<glyph glyph-name="Emacron" unicode="&#x112;" horiz-adv-x="563" d="M285 576 L252 418 L504 418 L478 296 L225 296 L188 124 L493 124 L467 0 L3 0 L152 700 L606 700 L580 576 L285 576 Z M297 876 L555 876 L536 788 L278 788 L297 876 Z " />
<glyph glyph-name="emacron" unicode="&#x113;" horiz-adv-x="495" d="M224 -10 Q181 -10 143 1 Q105 12 76.5 37 Q48 62 31.5 101 Q15 140 15 196 Q15 276 39 339.5 Q63 403 103.5 447.5 Q144 492 196.5 516 Q249 540 306 540 Q386 540 433 505 Q480 470 480 406 Q480 347 449 306.5 Q418 266 372 239.5 Q326 213 271.5 199 Q217 185 171 179 Q183 116 263 116 Q295 116 321.5 127.5 Q348 139 374 159 L431 83 Q419 69 400.5 52.5 Q382 36 356 22 Q330 8 297 -1 Q264 -10 224 -10 Z M291 431 Q275 431 257 422 Q239 413 223 394.5 Q207 376 194 346.5 Q181 317 174 276 Q202 280 231.5 286.5 Q261 293 285 305 Q309 317 324.5 336 Q340 355 340 385 Q340 431 291 431 Z M213 706 L471 706 L452 618 L194 618 L213 706 Z " />
<glyph glyph-name="Ebreve" unicode="&#x114;" horiz-adv-x="563" d="M285 576 L252 418 L504 418 L478 296 L225 296 L188 124 L493 124 L467 0 L3 0 L152 700 L606 700 L580 576 L285 576 Z M545 876 Q537 853 524 832.5 Q511 812 491.5 795.5 Q472 779 447.5 769.5 Q423 760 393 760 Q366 760 346 769.5 Q326 779 313 795 Q300 811 293.5 832 Q287 853 287 876 L355 895 Q357 875 368.5 858.5 Q380 842 406 842 Q435 842 453.5 857.5 Q472 873 482 892 L545 876 L545 876 Z " />
<glyph glyph-name="ebreve" unicode="&#x115;" horiz-adv-x="495" d="M224 -10 Q181 -10 143 1 Q105 12 76.5 37 Q48 62 31.5 101 Q15 140 15 196 Q15 276 39 339.5 Q63 403 103.5 447.5 Q144 492 196.5 516 Q249 540 306 540 Q386 540 433 505 Q480 470 480 406 Q480 347 449 306.5 Q418 266 372 239.5 Q326 213 271.5 199 Q217 185 171 179 Q183 116 263 116 Q295 116 321.5 127.5 Q348 139 374 159 L431 83 Q419 69 400.5 52.5 Q382 36 356 22 Q330 8 297 -1 Q264 -10 224 -10 Z M291 431 Q275 431 257 422 Q239 413 223 394.5 Q207 376 194 346.5 Q181 317 174 276 Q202 280 231.5 286.5 Q261 293 285 305 Q309 317 324.5 336 Q340 355 340 385 Q340 431 291 431 Z M460 706 Q452 683 439 662.5 Q426 642 406.5 625.5 Q387 609 362.5 599.5 Q338 590 308 590 Q281 590 261 599.5 Q241 609 228 625 Q215 641 208.5 662 Q202 683 202 706 L270 725 Q272 705 283.5 688.5 Q295 672 321 672 Q350 672 369.5 687 Q389 702 399 721 L460 706 L460 706 Z " />
<glyph glyph-name="Edotaccent" unicode="&#x116;" horiz-adv-x="563" d="M330 816 Q330 834 337.5 851 Q345 868 358.5 881 Q372 894 390.5 902 Q409 910 432 910 Q464 910 483 889.5 Q502 869 502 842 Q502 804 473 776.5 Q444 749 398 749 Q366 749 348 769 Q330 789 330 816 Z M285 576 L252 418 L504 418 L478 296 L225 296 L188 124 L493 124 L467 0 L3 0 L152 700 L606 700 L580 576 L285 576 Z " />
<glyph glyph-name="edotaccent" unicode="&#x117;" horiz-adv-x="495" d="M224 -10 Q181 -10 143 1 Q105 12 76.5 37 Q48 62 31.5 101 Q15 140 15 196 Q15 276 39 339.5 Q63 403 103.5 447.5 Q144 492 196.5 516 Q249 540 306 540 Q386 540 433 505 Q480 470 480 406 Q480 347 449 306.5 Q418 266 372 239.5 Q326 213 271.5 199 Q217 185 171 179 Q183 116 263 116 Q295 116 321.5 127.5 Q348 139 374 159 L431 83 Q419 69 400.5 52.5 Q382 36 356 22 Q330 8 297 -1 Q264 -10 224 -10 Z M291 431 Q275 431 257 422 Q239 413 223 394.5 Q207 376 194 346.5 Q181 317 174 276 Q202 280 231.5 286.5 Q261 293 285 305 Q309 317 324.5 336 Q340 355 340 385 Q340 431 291 431 Z M245 646 Q245 664 252.5 681 Q260 698 273.5 711 Q287 724 305.5 732 Q324 740 347 740 Q379 740 398 719.5 Q417 699 417 672 Q417 634 388 606.5 Q359 579 313 579 Q281 579 263 599 Q245 619 245 646 Z " />
<glyph glyph-name="Eogonek" unicode="&#x118;" horiz-adv-x="562" d="M284 576 L251 418 L503 418 L477 296 L224 296 L187 124 L492 124 L466 0 L444 0 Q417 0 395.5 -6.5 Q374 -13 358 -24 Q342 -35 333.5 -48.5 Q325 -62 325 -76 Q325 -93 335 -99.5 Q345 -106 363 -106 Q377 -106 395 -100 Q413 -94 420 -89 L435 -151 Q416 -163 385.5 -171.5 Q355 -180 323 -180 Q273 -180 246 -162.5 Q219 -145 219 -107 Q219 -70 244 -43.5 Q269 -17 307 0 L2 0 L151 700 L605 700 L579 576 L284 576 Z " />
<glyph glyph-name="eogonek" unicode="&#x119;" horiz-adv-x="495" d="M232 -180 Q182 -180 155 -162.5 Q128 -145 128 -107 Q128 -78 144.5 -53 Q161 -28 189 -8 Q152 -4 120 9.5 Q88 23 65 48 Q42 73 28.5 109.5 Q15 146 15 196 Q15 276 39 339.5 Q63 403 103.5 447.5 Q144 492 196.5 516 Q249 540 306 540 Q386 540 433 505 Q480 470 480 406 Q480 347 449 306.5 Q418 266 372 239.5 Q326 213 271.5 199 Q217 185 171 179 Q183 116 263 116 Q295 116 321.5 127.5 Q348 139 374 159 L431 83 Q414 63 383.5 41.5 Q353 20 307 1 Q263 -17 248.5 -37.5 Q234 -58 234 -76 Q234 -93 244 -99.5 Q254 -106 272 -106 Q286 -106 304 -100 Q322 -94 329 -89 L344 -151 Q325 -163 294.5 -171.5 Q264 -180 232 -180 Z M291 431 Q275 431 257 422 Q239 413 223 394.5 Q207 376 194 346.5 Q181 317 174 276 Q202 280 231.5 286.5 Q261 293 285 305 Q309 317 324.5 336 Q340 355 340 385 Q340 431 291 431 Z " />
<glyph glyph-name="Ecaron" unicode="&#x11a;" horiz-adv-x="563" d="M285 576 L252 418 L504 418 L478 296 L225 296 L188 124 L493 124 L467 0 L3 0 L152 700 L606 700 L580 576 L285 576 Z M380 747 L275 896 L310 930 L326 930 L422 855 L548 930 L575 930 L595 896 L427 747 L380 747 Z " />
<glyph glyph-name="ecaron" unicode="&#x11b;" horiz-adv-x="495" d="M296 577 L191 726 L226 760 L242 760 L338 685 L464 760 L491 760 L511 726 L343 577 L296 577 Z M224 -10 Q181 -10 143 1 Q105 12 76.5 37 Q48 62 31.5 101 Q15 140 15 196 Q15 276 39 339.5 Q63 403 103.5 447.5 Q144 492 196.5 516 Q249 540 306 540 Q386 540 433 505 Q480 470 480 406 Q480 347 449 306.5 Q418 266 372 239.5 Q326 213 271.5 199 Q217 185 171 179 Q183 116 263 116 Q295 116 321.5 127.5 Q348 139 374 159 L431 83 Q419 69 400.5 52.5 Q382 36 356 22 Q330 8 297 -1 Q264 -10 224 -10 Z M291 431 Q275 431 257 422 Q239 413 223 394.5 Q207 376 194 346.5 Q181 317 174 276 Q202 280 231.5 286.5 Q261 293 285 305 Q309 317 324.5 336 Q340 355 340 385 Q340 431 291 431 Z " />
<glyph glyph-name="Gcircumflex" unicode="&#x11c;" horiz-adv-x="601" d="M470 821 L344 746 L317 746 L297 780 L465 929 L512 929 L617 780 L582 746 L566 746 L470 821 Z M499 24 Q470 12 426.5 1 Q383 -10 316 -10 Q248 -10 196 9.5 Q144 29 109 64 Q74 99 56 147.5 Q38 196 38 253 Q38 359 68 444 Q98 529 152 588 Q206 647 281 678.5 Q356 710 446 710 Q506 710 549 702.5 Q592 695 615 688 L587 561 Q546 573 511 578.5 Q476 584 445 584 Q392 584 347.5 566 Q303 548 271.5 509 Q240 470 222.5 409.5 Q205 349 205 264 Q205 199 241 156.5 Q277 114 350 114 Q360 114 366.5 114.5 Q373 115 378 116 L426 343 L566 343 L499 24 L499 24 Z " />
<glyph glyph-name="gcircumflex" unicode="&#x11d;" horiz-adv-x="535" d="M316 648 L190 573 L163 573 L143 607 L311 756 L358 756 L463 607 L428 573 L412 573 L316 648 Z M189 357 Q189 288 251 288 Q289 288 311.5 315.5 Q334 343 334 385 Q334 453 271 453 Q233 453 211 425.5 Q189 398 189 357 Z M473 12 Q473 -38 450.5 -74 Q428 -110 388 -133.5 Q348 -157 293 -168.5 Q238 -180 173 -180 Q128 -180 89.5 -174.5 Q51 -169 23 -156.5 Q-5 -144 -20.5 -124 Q-36 -104 -36 -74 Q-36 -52 -28 -34.5 Q-20 -17 -7.5 -4.5 Q5 8 20 17 Q35 26 49 31 Q9 57 9 109 Q9 145 30.5 177 Q52 209 108 236 Q81 254 65 283 Q49 312 49 354 Q49 398 67.5 432.5 Q86 467 117 491 Q148 515 188.5 527.5 Q229 540 273 540 Q320 540 357 530 L548 530 L529 423 L478 423 L472 417 Q473 412 473 407.5 Q473 403 473 398 Q473 350 454 313 Q435 276 403.5 251.5 Q372 227 331 214 Q290 201 245 201 Q211 201 181 207 Q163 199 152 189 Q141 179 141 166 Q141 142 184 142 L315 142 Q347 142 376 134.5 Q405 127 426.5 111 Q448 95 460.5 70.5 Q473 46 473 12 Z M196 -85 Q225 -85 250.5 -80.5 Q276 -76 294.5 -67.5 Q313 -59 323.5 -46.5 Q334 -34 334 -18 Q334 0 316.5 5 Q299 10 260 10 L130 10 L120 10 Q110 2 101 -9.5 Q92 -21 92 -39 Q92 -48 97 -56.5 Q102 -65 114 -71 Q126 -77 146 -81 Q166 -85 196 -85 Z " />
<glyph glyph-name="Gbreve" unicode="&#x11e;" horiz-adv-x="601" d="M499 24 Q470 12 426.5 1 Q383 -10 316 -10 Q248 -10 196 9.5 Q144 29 109 64 Q74 99 56 147.5 Q38 196 38 253 Q38 359 68 444 Q98 529 152 588 Q206 647 281 678.5 Q356 710 446 710 Q506 710 549 702.5 Q592 695 615 688 L587 561 Q546 573 511 578.5 Q476 584 445 584 Q392 584 347.5 566 Q303 548 271.5 509 Q240 470 222.5 409.5 Q205 349 205 264 Q205 199 241 156.5 Q277 114 350 114 Q360 114 366.5 114.5 Q373 115 378 116 L426 343 L566 343 L499 24 L499 24 Z M608 876 Q600 853 587 832.5 Q574 812 554.5 795.5 Q535 779 510.5 769.5 Q486 760 456 760 Q429 760 409 769.5 Q389 779 376 795 Q363 811 356.5 832 Q350 853 350 876 L418 895 Q420 875 431.5 858.5 Q443 842 469 842 Q498 842 516.5 857.5 Q535 873 545 892 L608 876 L608 876 Z " />
<glyph glyph-name="gbreve" unicode="&#x11f;" horiz-adv-x="535" d="M189 357 Q189 288 251 288 Q289 288 311.5 315.5 Q334 343 334 385 Q334 453 271 453 Q233 453 211 425.5 Q189 398 189 357 Z M473 12 Q473 -38 450.5 -74 Q428 -110 388 -133.5 Q348 -157 293 -168.5 Q238 -180 173 -180 Q128 -180 89.5 -174.5 Q51 -169 23 -156.5 Q-5 -144 -20.5 -124 Q-36 -104 -36 -74 Q-36 -52 -28 -34.5 Q-20 -17 -7.5 -4.5 Q5 8 20 17 Q35 26 49 31 Q9 57 9 109 Q9 145 30.5 177 Q52 209 108 236 Q81 254 65 283 Q49 312 49 354 Q49 398 67.5 432.5 Q86 467 117 491 Q148 515 188.5 527.5 Q229 540 273 540 Q320 540 357 530 L548 530 L529 423 L478 423 L472 417 Q473 412 473 407.5 Q473 403 473 398 Q473 350 454 313 Q435 276 403.5 251.5 Q372 227 331 214 Q290 201 245 201 Q211 201 181 207 Q163 199 152 189 Q141 179 141 166 Q141 142 184 142 L315 142 Q347 142 376 134.5 Q405 127 426.5 111 Q448 95 460.5 70.5 Q473 46 473 12 Z M196 -85 Q225 -85 250.5 -80.5 Q276 -76 294.5 -67.5 Q313 -59 323.5 -46.5 Q334 -34 334 -18 Q334 0 316.5 5 Q299 10 260 10 L130 10 L120 10 Q110 2 101 -9.5 Q92 -21 92 -39 Q92 -48 97 -56.5 Q102 -65 114 -71 Q126 -77 146 -81 Q166 -85 196 -85 Z M460 706 Q452 683 439 662.5 Q426 642 406.5 625.5 Q387 609 362.5 599.5 Q338 590 308 590 Q281 590 261 599.5 Q241 609 228 625 Q215 641 208.5 662 Q202 683 202 706 L270 725 Q272 705 283.5 688.5 Q295 672 321 672 Q350 672 369.5 687 Q389 702 399 721 L460 706 L460 706 Z " />
<glyph glyph-name="Gdotaccent" unicode="&#x120;" horiz-adv-x="601" d="M392 816 Q392 834 399.5 851 Q407 868 420.5 881 Q434 894 452.5 902 Q471 910 494 910 Q526 910 545 889.5 Q564 869 564 842 Q564 804 535 776.5 Q506 749 460 749 Q428 749 410 769 Q392 789 392 816 Z M499 24 Q470 12 426.5 1 Q383 -10 316 -10 Q248 -10 196 9.5 Q144 29 109 64 Q74 99 56 147.5 Q38 196 38 253 Q38 359 68 444 Q98 529 152 588 Q206 647 281 678.5 Q356 710 446 710 Q506 710 549 702.5 Q592 695 615 688 L587 561 Q546 573 511 578.5 Q476 584 445 584 Q392 584 347.5 566 Q303 548 271.5 509 Q240 470 222.5 409.5 Q205 349 205 264 Q205 199 241 156.5 Q277 114 350 114 Q360 114 366.5 114.5 Q373 115 378 116 L426 343 L566 343 L499 24 L499 24 Z " />
<glyph glyph-name="gdotaccent" unicode="&#x121;" horiz-adv-x="535" d="M189 357 Q189 288 251 288 Q289 288 311.5 315.5 Q334 343 334 385 Q334 453 271 453 Q233 453 211 425.5 Q189 398 189 357 Z M473 12 Q473 -38 450.5 -74 Q428 -110 388 -133.5 Q348 -157 293 -168.5 Q238 -180 173 -180 Q128 -180 89.5 -174.5 Q51 -169 23 -156.5 Q-5 -144 -20.5 -124 Q-36 -104 -36 -74 Q-36 -52 -28 -34.5 Q-20 -17 -7.5 -4.5 Q5 8 20 17 Q35 26 49 31 Q9 57 9 109 Q9 145 30.5 177 Q52 209 108 236 Q81 254 65 283 Q49 312 49 354 Q49 398 67.5 432.5 Q86 467 117 491 Q148 515 188.5 527.5 Q229 540 273 540 Q320 540 357 530 L548 530 L529 423 L478 423 L472 417 Q473 412 473 407.5 Q473 403 473 398 Q473 350 454 313 Q435 276 403.5 251.5 Q372 227 331 214 Q290 201 245 201 Q211 201 181 207 Q163 199 152 189 Q141 179 141 166 Q141 142 184 142 L315 142 Q347 142 376 134.5 Q405 127 426.5 111 Q448 95 460.5 70.5 Q473 46 473 12 Z M196 -85 Q225 -85 250.5 -80.5 Q276 -76 294.5 -67.5 Q313 -59 323.5 -46.5 Q334 -34 334 -18 Q334 0 316.5 5 Q299 10 260 10 L130 10 L120 10 Q110 2 101 -9.5 Q92 -21 92 -39 Q92 -48 97 -56.5 Q102 -65 114 -71 Q126 -77 146 -81 Q166 -85 196 -85 Z M235 646 Q235 664 242.5 681 Q250 698 263.5 711 Q277 724 295.5 732 Q314 740 337 740 Q369 740 388 719.5 Q407 699 407 672 Q407 634 378 606.5 Q349 579 303 579 Q271 579 253 599 Q235 619 235 646 Z " />
<glyph glyph-name="uni0122" unicode="&#x122;" horiz-adv-x="601" d="M213 -257 L246 -210 L243 -185 Q232 -178 225.5 -165.5 Q219 -153 219 -139 Q219 -108 242 -83 Q265 -58 304 -58 Q333 -58 350.5 -74.5 Q368 -91 368 -117 Q368 -134 361.5 -148.5 Q355 -163 345 -176 L260 -286 L213 -257 Z M499 24 Q470 12 426.5 1 Q383 -10 316 -10 Q248 -10 196 9.5 Q144 29 109 64 Q74 99 56 147.5 Q38 196 38 253 Q38 359 68 444 Q98 529 152 588 Q206 647 281 678.5 Q356 710 446 710 Q506 710 549 702.5 Q592 695 615 688 L587 561 Q546 573 511 578.5 Q476 584 445 584 Q392 584 347.5 566 Q303 548 271.5 509 Q240 470 222.5 409.5 Q205 349 205 264 Q205 199 241 156.5 Q277 114 350 114 Q360 114 366.5 114.5 Q373 115 378 116 L426 343 L566 343 L499 24 L499 24 Z " />
<glyph glyph-name="uni0123" unicode="&#x123;" horiz-adv-x="535" d="M302 579 Q273 579 255.5 595.5 Q238 612 238 638 Q238 655 244.5 669.5 Q251 684 261 697 L346 807 L393 778 L360 731 L363 706 Q374 699 380.5 686.5 Q387 674 387 660 Q387 629 364 604 Q341 579 302 579 Z M189 357 Q189 288 251 288 Q289 288 311.5 315.5 Q334 343 334 385 Q334 453 271 453 Q233 453 211 425.5 Q189 398 189 357 Z M473 12 Q473 -38 450.5 -74 Q428 -110 388 -133.5 Q348 -157 293 -168.5 Q238 -180 173 -180 Q128 -180 89.5 -174.5 Q51 -169 23 -156.5 Q-5 -144 -20.5 -124 Q-36 -104 -36 -74 Q-36 -52 -28 -34.5 Q-20 -17 -7.5 -4.5 Q5 8 20 17 Q35 26 49 31 Q9 57 9 109 Q9 145 30.5 177 Q52 209 108 236 Q81 254 65 283 Q49 312 49 354 Q49 398 67.5 432.5 Q86 467 117 491 Q148 515 188.5 527.5 Q229 540 273 540 Q320 540 357 530 L548 530 L529 423 L478 423 L472 417 Q473 412 473 407.5 Q473 403 473 398 Q473 350 454 313 Q435 276 403.5 251.5 Q372 227 331 214 Q290 201 245 201 Q211 201 181 207 Q163 199 152 189 Q141 179 141 166 Q141 142 184 142 L315 142 Q347 142 376 134.5 Q405 127 426.5 111 Q448 95 460.5 70.5 Q473 46 473 12 Z M196 -85 Q225 -85 250.5 -80.5 Q276 -76 294.5 -67.5 Q313 -59 323.5 -46.5 Q334 -34 334 -18 Q334 0 316.5 5 Q299 10 260 10 L130 10 L120 10 Q110 2 101 -9.5 Q92 -21 92 -39 Q92 -48 97 -56.5 Q102 -65 114 -71 Q126 -77 146 -81 Q166 -85 196 -85 Z " />
<glyph glyph-name="Hcircumflex" unicode="&#x124;" horiz-adv-x="662" d="M433 295 L225 295 L163 0 L4 0 L152 700 L311 700 L252 419 L460 419 L519 700 L678 700 L532 0 L373 0 L433 295 Z M439 821 L313 746 L286 746 L266 780 L434 929 L481 929 L586 780 L551 746 L535 746 L439 821 Z " />
<glyph glyph-name="hcircumflex" unicode="&#x125;" horiz-adv-x="556" d="M248 848 L122 773 L95 773 L75 807 L243 956 L290 956 L395 807 L360 773 L344 773 L248 848 Z M320 407 Q291 407 262 384.5 Q233 362 211 333 L140 0 L-10 0 L145 730 L295 730 L237 458 Q250 473 266.5 488 Q283 503 302 514.5 Q321 526 343.5 533 Q366 540 392 540 Q456 540 490 505 Q524 470 524 411 Q524 387 518 360 L441 0 L291 0 L363 336 Q366 348 366 360 Q366 380 356 393.5 Q346 407 320 407 Z " />
<glyph glyph-name="Hbar" unicode="&#x126;" horiz-adv-x="667" d="M72 582 L130 582 L155 700 L314 700 L289 582 L497 582 L522 700 L681 700 L656 582 L714 582 L697 502 L639 502 L535 0 L376 0 L436 295 L228 295 L166 0 L7 0 L113 502 L55 502 L72 582 Z M463 419 L480 502 L272 502 L255 419 L463 419 Z " />
<glyph glyph-name="hbar" unicode="&#x127;" horiz-adv-x="557" d="M63 646 L128 646 L146 730 L296 730 L278 646 L397 646 L381 568 L261 568 L238 458 Q251 473 267.5 488 Q284 503 303 514.5 Q322 526 344.5 533 Q367 540 393 540 Q457 540 491 505 Q525 470 525 411 Q525 387 519 360 L442 0 L292 0 L364 336 Q367 348 367 360 Q367 380 357 393.5 Q347 407 321 407 Q292 407 263 384.5 Q234 362 212 333 L141 0 L-9 0 L111 568 L47 568 L63 646 Z " />
<glyph glyph-name="Itilde" unicode="&#x128;" horiz-adv-x="294" d="M152 700 L311 700 L163 0 L4 0 L152 700 Z M428 898 L418 853 Q407 803 384 780 Q361 757 316 757 Q300 757 282.5 762.5 Q265 768 249 775 Q233 782 219.5 787.5 Q206 793 197 793 Q190 793 185.5 791.5 Q181 790 178 788 Q174 786 172 784 L163 746 L83 746 L92 787 Q105 845 126.5 868.5 Q148 892 188 892 Q204 892 221 885.5 Q238 879 255 871.5 Q272 864 287.5 857.5 Q303 851 315 851 Q331 851 338 858 Q342 861 343 865 L350 898 L428 898 Z " />
<glyph glyph-name="itilde" unicode="&#x129;" horiz-adv-x="259" d="M103 530 L253 530 L140 0 L-10 0 L103 530 Z M370 728 L360 683 Q349 633 326 610 Q303 587 258 587 Q242 587 226 592.5 Q210 598 194.5 605 Q179 612 165 617.5 Q151 623 139 623 Q132 623 127.5 621.5 Q123 620 120 618 Q116 616 114 614 L105 576 L25 576 L34 617 Q47 675 68.5 698.5 Q90 722 130 722 Q146 722 162.5 715.5 Q179 709 195.5 701.5 Q212 694 227.5 687.5 Q243 681 257 681 Q273 681 280 688 Q284 691 285 695 L292 728 L370 728 Z " />
<glyph glyph-name="Imacron" unicode="&#x12a;" horiz-adv-x="294" d="M152 700 L311 700 L163 0 L4 0 L152 700 Z M137 876 L395 876 L376 788 L118 788 L137 876 Z " />
<glyph glyph-name="imacron" unicode="&#x12b;" horiz-adv-x="259" d="M103 530 L253 530 L140 0 L-10 0 L103 530 Z M82 706 L340 706 L321 618 L63 618 L82 706 Z " />
<glyph glyph-name="Iogonek" unicode="&#x12e;" horiz-adv-x="294" d="M130 -151 Q111 -163 80.5 -171.5 Q50 -180 18 -180 Q-32 -180 -59 -162.5 Q-86 -145 -86 -107 Q-86 -70 -60 -43.5 Q-34 -17 4 0 L152 700 L311 700 L163 0 L139 0 Q112 0 90.5 -6.5 Q69 -13 53 -24 Q37 -35 28.5 -48.5 Q20 -62 20 -76 Q20 -93 30 -99.5 Q40 -106 58 -106 Q72 -106 90 -100 Q108 -94 115 -89 L130 -151 L130 -151 Z " />
<glyph glyph-name="iogonek" unicode="&#x12f;" horiz-adv-x="259" d="M117 -151 Q98 -163 67.5 -171.5 Q37 -180 5 -180 Q-45 -180 -72 -162.5 Q-99 -145 -99 -107 Q-99 -70 -73.5 -43.5 Q-48 -17 -10 0 L103 530 L253 530 L140 0 L126 0 Q99 0 77.5 -6.5 Q56 -13 40 -24 Q24 -35 15.5 -48.5 Q7 -62 7 -76 Q7 -93 17 -99.5 Q27 -106 45 -106 Q59 -106 77 -100 Q95 -94 102 -89 L117 -151 Z M113 648 Q113 692 137.5 718.5 Q162 745 213 745 Q248 745 266.5 727 Q285 709 285 682 Q285 638 261 611.5 Q237 585 185 585 Q150 585 131.5 603 Q113 621 113 648 Z " />
<glyph glyph-name="Idotaccent" unicode="&#x130;" horiz-adv-x="294" d="M152 700 L311 700 L163 0 L4 0 L152 700 Z M171 816 Q171 834 178.5 851 Q186 868 199.5 881 Q213 894 231.5 902 Q250 910 273 910 Q305 910 324 889.5 Q343 869 343 842 Q343 804 314 776.5 Q285 749 239 749 Q207 749 189 769 Q171 789 171 816 Z " />
<glyph glyph-name="dotlessi" unicode="&#x131;" horiz-adv-x="259" d="M103 530 L253 530 L140 0 L-10 0 L103 530 Z " />
<glyph glyph-name="IJ" unicode="&#x132;" horiz-adv-x="604" d="M467 700 L626 700 L527 229 Q477 -10 214 -10 Q143 -10 92.5 4.5 Q42 19 13 35 L38 153 Q63 142 89.5 135.5 Q116 129 139 124.5 Q162 120 181 118.5 Q200 117 210 117 Q240 117 266.5 123.5 Q293 130 313.5 144.5 Q334 159 348.5 182.5 Q363 206 370 240 L467 700 Z M148 700 L307 700 L209 237 L50 237 L148 700 Z " />
<glyph glyph-name="ij" unicode="&#x133;" horiz-adv-x="558" d="M101 530 L251 530 L138 0 L-12 0 L101 530 Z M111 648 Q111 692 135.5 718.5 Q160 745 211 745 Q246 745 264.5 727 Q283 709 283 682 Q283 638 259 611.5 Q235 585 183 585 Q148 585 129.5 603 Q111 621 111 648 Z M413 649 Q413 693 437.5 719.5 Q462 746 513 746 Q548 746 566.5 728 Q585 710 585 683 Q585 639 561 612.5 Q537 586 485 586 Q450 586 431.5 604 Q413 622 413 649 Z M403 530 L553 530 L441 10 Q432 -30 416 -64.5 Q400 -99 373 -124.5 Q346 -150 305.5 -165 Q265 -180 207 -180 Q186 -180 171 -178.5 Q156 -177 146 -175 Q135 -172 126 -169 L147 -66 L223 -66 Q249 -66 266.5 -44.5 Q284 -23 289 1 L403 530 Z " />
<glyph glyph-name="Jcircumflex" unicode="&#x134;" horiz-adv-x="444" d="M306 700 L465 700 L359 197 Q339 102 276.5 46 Q214 -10 107 -10 Q50 -10 14.5 0 Q-21 10 -43 21 L-18 139 Q-1 132 17 127.5 Q35 123 51 121 Q67 119 78.5 118 Q90 117 95 117 Q143 117 168 140.5 Q193 164 202 208 L306 700 Z M411 821 L285 746 L258 746 L238 780 L406 929 L453 929 L558 780 L523 746 L507 746 L411 821 Z " />
<glyph glyph-name="jcircumflex" unicode="&#x135;" horiz-adv-x="259" d="M205 648 L79 573 L52 573 L32 607 L200 756 L247 756 L352 607 L317 573 L301 573 L205 648 Z M104 530 L254 530 L142 10 Q133 -30 117 -64.5 Q101 -99 74 -124.5 Q47 -150 6.5 -165 Q-34 -180 -92 -180 Q-113 -180 -128 -178.5 Q-143 -177 -153 -175 Q-164 -172 -173 -169 L-152 -66 L-76 -66 Q-50 -66 -32.5 -44.5 Q-15 -23 -10 1 L104 530 Z " />
<glyph glyph-name="uni0136" unicode="&#x136;" horiz-adv-x="638" d="M157 -257 L190 -210 L187 -185 Q176 -178 169.5 -165.5 Q163 -153 163 -139 Q163 -108 186 -83 Q209 -58 248 -58 Q277 -58 294.5 -74.5 Q312 -91 312 -117 Q312 -134 305.5 -148.5 Q299 -163 289 -176 L204 -286 L157 -257 Z M152 700 L311 700 L252 419 L303 419 L537 700 L710 700 L432 370 L581 0 L398 0 L288 295 L225 295 L163 0 L4 0 L152 700 Z " />
<glyph glyph-name="uni0137" unicode="&#x137;" horiz-adv-x="566" d="M129 -257 L162 -210 L159 -185 Q148 -178 141.5 -165.5 Q135 -153 135 -139 Q135 -108 158 -83 Q181 -58 220 -58 Q249 -58 266.5 -74.5 Q284 -91 284 -117 Q284 -134 277.5 -148.5 Q271 -163 261 -176 L176 -286 L129 -257 Z M140 0 L-9 0 L145 730 L295 730 L212 338 L246 338 L441 530 L615 530 L375 300 L501 0 L339 0 L248 225 L188 225 L140 0 Z " />
<glyph glyph-name="kgreenlandic" unicode="&#x138;" horiz-adv-x="566" d="M188 225 L140 0 L-9 0 L103 530 L253 530 L212 338 L249 338 L443 530 L615 530 L375 300 L501 0 L326 0 L235 225 L188 225 Z " />
<glyph glyph-name="Lacute" unicode="&#x139;" horiz-adv-x="534" d="M246 747 L214 793 L371 926 L399 926 L450 838 L268 747 L246 747 Z M189 123 L488 123 L462 0 L4 0 L152 700 L311 700 L189 123 Z " />
<glyph glyph-name="lacute" unicode="&#x13a;" horiz-adv-x="259" d="M382 956 L433 868 L251 777 L229 777 L197 823 L354 956 L382 956 Z M145 730 L295 730 L140 0 L-9 0 L145 730 Z " />
<glyph glyph-name="uni013B" unicode="&#x13b;" horiz-adv-x="534" d="M131 -257 L164 -210 L161 -185 Q150 -178 143.5 -165.5 Q137 -153 137 -139 Q137 -108 160 -83 Q183 -58 222 -58 Q251 -58 268.5 -74.5 Q286 -91 286 -117 Q286 -134 279.5 -148.5 Q273 -163 263 -176 L178 -286 L131 -257 Z M189 123 L488 123 L462 0 L4 0 L152 700 L311 700 L189 123 Z " />
<glyph glyph-name="uni013C" unicode="&#x13c;" horiz-adv-x="259" d="M-40 -257 L-7 -210 L-10 -185 Q-21 -178 -27.5 -165.5 Q-34 -153 -34 -139 Q-34 -108 -11 -83 Q12 -58 51 -58 Q80 -58 97.5 -74.5 Q115 -91 115 -117 Q115 -134 108.5 -148.5 Q102 -163 92 -176 L7 -286 L-40 -257 Z M145 730 L295 730 L140 0 L-9 0 L145 730 Z " />
<glyph glyph-name="Lcaron" unicode="&#x13d;" horiz-adv-x="536" d="M435 582 L477 780 L586 780 L573 719 L525 582 L435 582 Z M188 123 L487 123 L461 0 L3 0 L151 700 L310 700 L188 123 Z " />
<glyph glyph-name="lcaron" unicode="&#x13e;" horiz-adv-x="288" d="M336 582 L378 780 L487 780 L474 719 L426 582 L336 582 Z M145 730 L295 730 L140 0 L-9 0 L145 730 Z " />
<glyph glyph-name="Ldot" unicode="&#x13f;" horiz-adv-x="557" d="M355 364 Q355 382 362.5 399 Q370 416 383.5 429 Q397 442 415.5 450 Q434 458 457 458 Q489 458 508 437.5 Q527 417 527 390 Q527 352 498 324.5 Q469 297 423 297 Q391 297 373 317 Q355 337 355 364 Z M189 123 L488 123 L462 0 L4 0 L152 700 L311 700 L189 123 Z " />
<glyph glyph-name="ldot" unicode="&#x140;" horiz-adv-x="436" d="M274 354 Q274 372 281.5 389 Q289 406 302.5 419 Q316 432 334.5 440 Q353 448 376 448 Q408 448 427 427.5 Q446 407 446 380 Q446 342 417 314.5 Q388 287 342 287 Q310 287 292 307 Q274 327 274 354 Z M145 730 L295 730 L140 0 L-9 0 L145 730 Z " />
<glyph glyph-name="Lslash" unicode="&#x141;" horiz-adv-x="542" d="M262 429 L394 485 L374 388 L242 332 L198 123 L497 123 L471 0 L13 0 L67 258 L-5 227 L15 324 L88 355 L161 700 L320 700 L262 429 Z " />
<glyph glyph-name="lslash" unicode="&#x142;" horiz-adv-x="331" d="M19 319 L102 359 L181 730 L331 730 L269 438 L357 480 L337 387 L249 345 L176 0 L27 0 L83 266 L-1 226 L19 319 Z " />
<glyph glyph-name="Nacute" unicode="&#x143;" horiz-adv-x="670" d="M417 747 L385 793 L542 926 L570 926 L621 838 L439 747 L417 747 Z M424 -3 L234 436 L142 0 L3 0 L151 700 L291 700 L463 300 L547 700 L687 700 L538 -3 L424 -3 Z " />
<glyph glyph-name="nacute" unicode="&#x144;" horiz-adv-x="558" d="M498 756 L549 668 L367 577 L345 577 L313 623 L470 756 L498 756 Z M322 407 Q293 407 264 384.5 Q235 362 213 333 L140 0 L-9 0 L103 530 L201 530 Q231 530 237 516 Q243 502 239 487 L232 457 L239 457 Q252 473 268 488 Q284 503 303 514.5 Q322 526 344.5 533 Q367 540 394 540 Q458 540 491.5 505 Q525 470 526 412 Q526 387 520 360 L443 0 L293 0 L365 336 Q368 348 368 361 Q368 381 358 394 Q348 407 322 407 Z " />
<glyph glyph-name="uni0145" unicode="&#x145;" horiz-adv-x="670" d="M170 -257 L203 -210 L200 -185 Q189 -178 182.5 -165.5 Q176 -153 176 -139 Q176 -108 199 -83 Q222 -58 261 -58 Q290 -58 307.5 -74.5 Q325 -91 325 -117 Q325 -134 318.5 -148.5 Q312 -163 302 -176 L217 -286 L170 -257 Z M424 -3 L234 436 L142 0 L3 0 L151 700 L291 700 L463 300 L547 700 L687 700 L538 -3 L424 -3 Z " />
<glyph glyph-name="uni0146" unicode="&#x146;" horiz-adv-x="558" d="M116 -257 L149 -210 L146 -185 Q135 -178 128.5 -165.5 Q122 -153 122 -139 Q122 -108 145 -83 Q168 -58 207 -58 Q236 -58 253.5 -74.5 Q271 -91 271 -117 Q271 -134 264.5 -148.5 Q258 -163 248 -176 L163 -286 L116 -257 Z M322 407 Q293 407 264 384.5 Q235 362 213 333 L140 0 L-9 0 L103 530 L201 530 Q231 530 237 516 Q243 502 239 487 L232 457 L239 457 Q252 473 268 488 Q284 503 303 514.5 Q322 526 344.5 533 Q367 540 394 540 Q458 540 491.5 505 Q525 470 526 412 Q526 387 520 360 L443 0 L293 0 L365 336 Q368 348 368 361 Q368 381 358 394 Q348 407 322 407 Z " />
<glyph glyph-name="Ncaron" unicode="&#x147;" horiz-adv-x="670" d="M424 -3 L234 436 L142 0 L3 0 L151 700 L291 700 L463 300 L547 700 L687 700 L538 -3 L424 -3 Z M407 747 L302 896 L337 930 L353 930 L449 855 L575 930 L602 930 L622 896 L454 747 L407 747 Z " />
<glyph glyph-name="ncaron" unicode="&#x148;" horiz-adv-x="558" d="M331 577 L226 726 L261 760 L277 760 L373 685 L499 760 L526 760 L546 726 L378 577 L331 577 Z M322 407 Q293 407 264 384.5 Q235 362 213 333 L140 0 L-9 0 L103 530 L201 530 Q231 530 237 516 Q243 502 239 487 L232 457 L239 457 Q252 473 268 488 Q284 503 303 514.5 Q322 526 344.5 533 Q367 540 394 540 Q458 540 491.5 505 Q525 470 526 412 Q526 387 520 360 L443 0 L293 0 L365 336 Q368 348 368 361 Q368 381 358 394 Q348 407 322 407 Z " />
<glyph glyph-name="napostrophe" unicode="&#x149;" horiz-adv-x="558" d="M62 600 L95 647 L92 672 Q81 679 74.5 691.5 Q68 704 68 718 Q68 749 91 774 Q114 799 153 799 Q182 799 199.5 782.5 Q217 766 217 740 Q217 723 210.5 708.5 Q204 694 194 681 L109 571 L62 600 Z M322 407 Q293 407 264 384.5 Q235 362 213 333 L140 0 L-9 0 L103 530 L201 530 Q231 530 237 516 Q243 502 239 487 L232 457 L239 457 Q252 473 268 488 Q284 503 303 514.5 Q322 526 344.5 533 Q367 540 394 540 Q458 540 491.5 505 Q525 470 526 412 Q526 387 520 360 L443 0 L293 0 L365 336 Q368 348 368 361 Q368 381 358 394 Q348 407 322 407 Z " />
<glyph glyph-name="Omacron" unicode="&#x14c;" horiz-adv-x="681" d="M404 710 Q472 710 521 689 Q570 668 602 632 Q634 596 649 547 Q664 498 664 443 Q664 391 654 337.5 Q644 284 623.5 234 Q603 184 573 139.5 Q543 95 502.5 61.5 Q462 28 411 9 Q360 -10 299 -10 Q231 -10 182 11 Q133 32 100.5 68 Q68 104 52.5 151.5 Q37 199 37 253 Q37 305 47 359 Q57 413 77 463.5 Q97 514 127 559 Q157 604 198 637.5 Q239 671 290.5 690.5 Q342 710 404 710 Z M395 584 Q361 584 333.5 565.5 Q306 547 284.5 517 Q263 487 248 448.5 Q233 410 223 369.5 Q213 329 208.5 290.5 Q204 252 204 222 Q204 172 226 144.5 Q248 117 305 117 Q338 117 365.5 134.5 Q393 152 414 181.5 Q435 211 451 248.5 Q467 286 477 325 Q487 364 492 402.5 Q497 441 497 471 Q497 527 475 555.5 Q453 584 395 584 Z M333 876 L591 876 L572 788 L314 788 L333 876 Z " />
<glyph glyph-name="omacron" unicode="&#x14d;" horiz-adv-x="546" d="M230 706 L488 706 L469 618 L211 618 L230 706 Z M17 207 Q17 289 41.5 351.5 Q66 414 106 456 Q146 498 197 519 Q248 540 301 540 Q346 540 385 527.5 Q424 515 453 489 Q482 463 498.5 424 Q515 385 515 331 Q515 247 490.5 183.5 Q466 120 426 77 Q386 34 335 12 Q284 -10 231 -10 Q187 -10 148 3 Q109 16 80 42.5 Q51 69 34 110 Q17 151 17 207 Z M171 201 Q171 150 186.5 126 Q202 102 236 102 Q271 102 295 126.5 Q319 151 333.5 188 Q348 225 354.5 266.5 Q361 308 361 343 Q361 384 345.5 406 Q330 428 295 428 Q260 428 236 403.5 Q212 379 197.5 344 Q183 309 177 270 Q171 231 171 201 Z " />
<glyph glyph-name="Obreve" unicode="&#x14e;" horiz-adv-x="681" d="M404 710 Q472 710 521 689 Q570 668 602 632 Q634 596 649 547 Q664 498 664 443 Q664 391 654 337.5 Q644 284 623.5 234 Q603 184 573 139.5 Q543 95 502.5 61.5 Q462 28 411 9 Q360 -10 299 -10 Q231 -10 182 11 Q133 32 100.5 68 Q68 104 52.5 151.5 Q37 199 37 253 Q37 305 47 359 Q57 413 77 463.5 Q97 514 127 559 Q157 604 198 637.5 Q239 671 290.5 690.5 Q342 710 404 710 Z M395 584 Q361 584 333.5 565.5 Q306 547 284.5 517 Q263 487 248 448.5 Q233 410 223 369.5 Q213 329 208.5 290.5 Q204 252 204 222 Q204 172 226 144.5 Q248 117 305 117 Q338 117 365.5 134.5 Q393 152 414 181.5 Q435 211 451 248.5 Q467 286 477 325 Q487 364 492 402.5 Q497 441 497 471 Q497 527 475 555.5 Q453 584 395 584 Z M579 876 Q571 853 558 832.5 Q545 812 525.5 795.5 Q506 779 481.5 769.5 Q457 760 427 760 Q400 760 380 769.5 Q360 779 347 795 Q334 811 327.5 832 Q321 853 321 876 L389 895 Q391 875 402.5 858.5 Q414 842 440 842 Q469 842 487.5 857.5 Q506 873 516 892 L579 876 L579 876 Z " />
<glyph glyph-name="obreve" unicode="&#x14f;" horiz-adv-x="546" d="M17 207 Q17 289 41.5 351.5 Q66 414 106 456 Q146 498 197 519 Q248 540 301 540 Q346 540 385 527.5 Q424 515 453 489 Q482 463 498.5 424 Q515 385 515 331 Q515 247 490.5 183.5 Q466 120 426 77 Q386 34 335 12 Q284 -10 231 -10 Q187 -10 148 3 Q109 16 80 42.5 Q51 69 34 110 Q17 151 17 207 Z M171 201 Q171 150 186.5 126 Q202 102 236 102 Q271 102 295 126.5 Q319 151 333.5 188 Q348 225 354.5 266.5 Q361 308 361 343 Q361 384 345.5 406 Q330 428 295 428 Q260 428 236 403.5 Q212 379 197.5 344 Q183 309 177 270 Q171 231 171 201 Z M490 706 Q482 683 469 662.5 Q456 642 436.5 625.5 Q417 609 392.5 599.5 Q368 590 338 590 Q311 590 291 599.5 Q271 609 258 625 Q245 641 238.5 662 Q232 683 232 706 L300 725 Q302 705 313.5 688.5 Q325 672 351 672 Q380 672 399.5 687 Q419 702 429 721 L490 706 L490 706 Z " />
<glyph glyph-name="Ohungarumlaut" unicode="&#x150;" horiz-adv-x="681" d="M338 747 L313 787 L459 926 L487 926 L529 867 L357 747 L338 747 Z M475 747 L456 784 L598 901 L626 901 L670 833 L495 747 L475 747 Z M404 710 Q472 710 521 689 Q570 668 602 632 Q634 596 649 547 Q664 498 664 443 Q664 391 654 337.5 Q644 284 623.5 234 Q603 184 573 139.5 Q543 95 502.5 61.5 Q462 28 411 9 Q360 -10 299 -10 Q231 -10 182 11 Q133 32 100.5 68 Q68 104 52.5 151.5 Q37 199 37 253 Q37 305 47 359 Q57 413 77 463.5 Q97 514 127 559 Q157 604 198 637.5 Q239 671 290.5 690.5 Q342 710 404 710 Z M395 584 Q361 584 333.5 565.5 Q306 547 284.5 517 Q263 487 248 448.5 Q233 410 223 369.5 Q213 329 208.5 290.5 Q204 252 204 222 Q204 172 226 144.5 Q248 117 305 117 Q338 117 365.5 134.5 Q393 152 414 181.5 Q435 211 451 248.5 Q467 286 477 325 Q487 364 492 402.5 Q497 441 497 471 Q497 527 475 555.5 Q453 584 395 584 Z " />
<glyph glyph-name="ohungarumlaut" unicode="&#x151;" horiz-adv-x="546" d="M247 577 L218 617 L364 756 L392 756 L434 697 L266 577 L247 577 Z M380 577 L361 614 L503 731 L531 731 L575 663 L400 577 L380 577 Z M17 207 Q17 289 41.5 351.5 Q66 414 106 456 Q146 498 197 519 Q248 540 301 540 Q346 540 385 527.5 Q424 515 453 489 Q482 463 498.5 424 Q515 385 515 331 Q515 247 490.5 183.5 Q466 120 426 77 Q386 34 335 12 Q284 -10 231 -10 Q187 -10 148 3 Q109 16 80 42.5 Q51 69 34 110 Q17 151 17 207 Z M171 201 Q171 150 186.5 126 Q202 102 236 102 Q271 102 295 126.5 Q319 151 333.5 188 Q348 225 354.5 266.5 Q361 308 361 343 Q361 384 345.5 406 Q330 428 295 428 Q260 428 236 403.5 Q212 379 197.5 344 Q183 309 177 270 Q171 231 171 201 Z " />
<glyph glyph-name="OE" unicode="&#x152;" horiz-adv-x="958" d="M320 117 Q349 117 376.5 120 Q404 123 426 132 L519 566 Q502 574 477.5 579 Q453 584 418 584 Q361 584 320.5 549.5 Q280 515 254.5 463 Q229 411 217 351.5 Q205 292 205 241 Q205 177 234 147 Q263 117 320 117 Z M415 0 Q388 -5 359 -7.5 Q330 -10 298 -10 Q230 -10 181 11 Q132 32 99.5 68 Q67 104 51.5 151.5 Q36 199 36 253 Q36 305 46.5 359 Q57 413 78 463.5 Q99 514 131 559 Q163 604 206.5 637.5 Q250 671 304 690.5 Q358 710 424 710 Q462 710 495.5 707.5 Q529 705 559 700 L1001 700 L975 576 L680 576 L647 418 L899 418 L873 296 L620 296 L583 124 L888 124 L862 0 L415 0 Z " />
<glyph glyph-name="oe" unicode="&#x153;" horiz-adv-x="839" d="M569 -10 Q514 -10 468 8 Q422 26 394 68 Q359 30 317.5 10 Q276 -10 231 -10 Q187 -10 148 3 Q109 16 80 42.5 Q51 69 34 110 Q17 151 17 207 Q17 289 41.5 351.5 Q66 414 106 456 Q146 498 197 519 Q248 540 301 540 Q352 540 391.5 519 Q431 498 453 453 Q494 495 545 517.5 Q596 540 651 540 Q731 540 778 505 Q825 470 825 406 Q825 347 794 306.5 Q763 266 717 239.5 Q671 213 616.5 199 Q562 185 516 179 Q526 116 608 116 Q640 116 666.5 127.5 Q693 139 719 159 L776 83 Q764 69 745.5 52.5 Q727 36 701 22 Q675 8 642 -1 Q609 -10 569 -10 Z M636 431 Q620 431 602 422 Q584 413 568 394.5 Q552 376 539 346.5 Q526 317 519 276 Q547 280 576.5 286.5 Q606 293 630 305 Q654 317 669.5 336 Q685 355 685 385 Q685 431 636 431 Z M171 201 Q171 148 185.5 125 Q200 102 236 102 Q271 102 295 126.5 Q319 151 333.5 188 Q348 225 354.5 266.5 Q361 308 361 343 Q361 385 346.5 406.5 Q332 428 295 428 Q260 428 236 403.5 Q212 379 197.5 344 Q183 309 177 270 Q171 231 171 201 Z " />
<glyph glyph-name="Racute" unicode="&#x154;" horiz-adv-x="622" d="M289 582 L247 388 L314 388 Q374 388 409.5 418 Q445 448 445 511 Q445 544 425.5 563 Q406 582 357 582 L289 582 Z M4 0 L152 700 L384 700 Q490 700 550.5 658.5 Q611 617 611 531 Q611 481 592.5 444.5 Q574 408 545.5 383.5 Q517 359 484 346 Q451 333 423 330 L423 326 Q461 321 481.5 297.5 Q502 274 510 223 L542 0 L364 0 L343 212 Q341 231 339 242.5 Q337 254 333.5 260 Q330 266 323.5 268 Q317 270 306 270 L224 270 L163 0 L4 0 Z M376 747 L344 793 L501 926 L529 926 L580 838 L398 747 L376 747 Z " />
<glyph glyph-name="racute" unicode="&#x155;" horiz-adv-x="397" d="M443 756 L494 668 L312 577 L290 577 L258 623 L415 756 L443 756 Z M337 399 Q302 399 269.5 377 Q237 355 210 320 L140 0 L-9 0 L103 530 L200 530 Q230 530 236 516 Q242 502 238 487 L229 447 L236 447 Q249 465 264.5 482 Q280 499 300 511.5 Q320 524 345 532 Q370 540 400 540 Q414 540 423 539 Q432 538 437 537 L406 387 L396 387 Q385 392 369.5 395.5 Q354 399 337 399 Z " />
<glyph glyph-name="uni0156" unicode="&#x156;" horiz-adv-x="622" d="M155 -257 L188 -210 L185 -185 Q174 -178 167.5 -165.5 Q161 -153 161 -139 Q161 -108 184 -83 Q207 -58 246 -58 Q275 -58 292.5 -74.5 Q310 -91 310 -117 Q310 -134 303.5 -148.5 Q297 -163 287 -176 L202 -286 L155 -257 Z M289 582 L247 388 L314 388 Q374 388 409.5 418 Q445 448 445 511 Q445 544 425.5 563 Q406 582 357 582 L289 582 Z M4 0 L152 700 L384 700 Q490 700 550.5 658.5 Q611 617 611 531 Q611 481 592.5 444.5 Q574 408 545.5 383.5 Q517 359 484 346 Q451 333 423 330 L423 326 Q461 321 481.5 297.5 Q502 274 510 223 L542 0 L364 0 L343 212 Q341 231 339 242.5 Q337 254 333.5 260 Q330 266 323.5 268 Q317 270 306 270 L224 270 L163 0 L4 0 Z " />
<glyph glyph-name="uni0157" unicode="&#x157;" horiz-adv-x="397" d="M-41 -257 L-8 -210 L-11 -185 Q-22 -178 -28.5 -165.5 Q-35 -153 -35 -139 Q-35 -108 -12 -83 Q11 -58 50 -58 Q79 -58 96.5 -74.5 Q114 -91 114 -117 Q114 -134 107.5 -148.5 Q101 -163 91 -176 L6 -286 L-41 -257 Z M337 399 Q302 399 269.5 377 Q237 355 210 320 L140 0 L-9 0 L103 530 L200 530 Q230 530 236 516 Q242 502 238 487 L229 447 L236 447 Q249 465 264.5 482 Q280 499 300 511.5 Q320 524 345 532 Q370 540 400 540 Q414 540 423 539 Q432 538 437 537 L406 387 L396 387 Q385 392 369.5 395.5 Q354 399 337 399 Z " />
<glyph glyph-name="Rcaron" unicode="&#x158;" horiz-adv-x="622" d="M289 582 L247 388 L314 388 Q374 388 409.5 418 Q445 448 445 511 Q445 544 425.5 563 Q406 582 357 582 L289 582 Z M4 0 L152 700 L384 700 Q490 700 550.5 658.5 Q611 617 611 531 Q611 481 592.5 444.5 Q574 408 545.5 383.5 Q517 359 484 346 Q451 333 423 330 L423 326 Q461 321 481.5 297.5 Q502 274 510 223 L542 0 L364 0 L343 212 Q341 231 339 242.5 Q337 254 333.5 260 Q330 266 323.5 268 Q317 270 306 270 L224 270 L163 0 L4 0 Z M366 747 L261 896 L296 930 L312 930 L408 855 L534 930 L561 930 L581 896 L413 747 L366 747 Z " />
<glyph glyph-name="rcaron" unicode="&#x159;" horiz-adv-x="397" d="M274 577 L169 726 L204 760 L220 760 L316 685 L442 760 L469 760 L489 726 L321 577 L274 577 Z M337 399 Q302 399 269.5 377 Q237 355 210 320 L140 0 L-9 0 L103 530 L200 530 Q230 530 236 516 Q242 502 238 487 L229 447 L236 447 Q249 465 264.5 482 Q280 499 300 511.5 Q320 524 345 532 Q370 540 400 540 Q414 540 423 539 Q432 538 437 537 L406 387 L396 387 Q385 392 369.5 395.5 Q354 399 337 399 Z " />
<glyph glyph-name="Sacute" unicode="&#x15a;" horiz-adv-x="535" d="M493 225 Q493 171 473 127.5 Q453 84 415 53.5 Q377 23 323 6.5 Q269 -10 200 -10 Q125 -10 73 5.5 Q21 21 1 33 L28 158 Q87 133 131 124 Q175 115 204 115 Q242 115 266.5 121.5 Q291 128 305 139 Q319 150 324 164 Q329 178 329 192 Q329 217 308.5 235 Q288 253 236 279 Q204 295 174.5 313.5 Q145 332 122.5 356.5 Q100 381 86.5 412 Q73 443 73 484 Q73 540 94.5 582 Q116 624 154 652.5 Q192 681 243.5 695.5 Q295 710 354 710 Q422 710 467.5 699 Q513 688 534 679 L507 552 Q460 567 420.5 576 Q381 585 345 585 Q290 585 258.5 568 Q227 551 227 516 Q227 501 231 489.5 Q235 478 246 467 Q257 456 277.5 443.5 Q298 431 330 415 Q407 376 450 332.5 Q493 289 493 225 Z M342 747 L310 793 L467 926 L495 926 L546 838 L364 747 L342 747 Z " />
<glyph glyph-name="sacute" unicode="&#x15b;" horiz-adv-x="445" d="M433 756 L484 668 L302 577 L280 577 L248 623 L405 756 L433 756 Z M394 176 Q394 132 376 97.5 Q358 63 326.5 39 Q295 15 251 2.5 Q207 -10 156 -10 Q123 -10 93.5 -4.5 Q64 1 41 7.5 Q18 14 3 21 Q-12 28 -17 31 L6 145 Q59 121 98 113.5 Q137 106 154 106 Q204 106 222.5 122.5 Q241 139 241 157 Q241 177 225 189.5 Q209 202 164 216 Q97 238 70 276 Q43 314 43 362 Q43 399 58.5 431.5 Q74 464 104.5 488 Q135 512 179.5 526 Q224 540 282 540 Q315 540 343.5 535 Q372 530 393 525 Q418 519 438 511 L412 400 Q393 407 372.5 412.5 Q352 418 333.5 421.5 Q315 425 300.5 426.5 Q286 428 279 428 Q241 428 216 416.5 Q191 405 191 381 Q191 364 204 353.5 Q217 343 255 330 Q321 307 357.5 271.5 Q394 236 394 176 Z " />
<glyph glyph-name="Scircumflex" unicode="&#x15c;" horiz-adv-x="535" d="M493 225 Q493 171 473 127.5 Q453 84 415 53.5 Q377 23 323 6.5 Q269 -10 200 -10 Q125 -10 73 5.5 Q21 21 1 33 L28 158 Q87 133 131 124 Q175 115 204 115 Q242 115 266.5 121.5 Q291 128 305 139 Q319 150 324 164 Q329 178 329 192 Q329 217 308.5 235 Q288 253 236 279 Q204 295 174.5 313.5 Q145 332 122.5 356.5 Q100 381 86.5 412 Q73 443 73 484 Q73 540 94.5 582 Q116 624 154 652.5 Q192 681 243.5 695.5 Q295 710 354 710 Q422 710 467.5 699 Q513 688 534 679 L507 552 Q460 567 420.5 576 Q381 585 345 585 Q290 585 258.5 568 Q227 551 227 516 Q227 501 231 489.5 Q235 478 246 467 Q257 456 277.5 443.5 Q298 431 330 415 Q407 376 450 332.5 Q493 289 493 225 Z M373 821 L247 746 L220 746 L200 780 L368 929 L415 929 L520 780 L485 746 L469 746 L373 821 Z " />
<glyph glyph-name="scircumflex" unicode="&#x15d;" horiz-adv-x="445" d="M305 648 L179 573 L152 573 L132 607 L300 756 L347 756 L452 607 L417 573 L401 573 L305 648 Z M394 176 Q394 132 376 97.5 Q358 63 326.5 39 Q295 15 251 2.5 Q207 -10 156 -10 Q123 -10 93.5 -4.5 Q64 1 41 7.5 Q18 14 3 21 Q-12 28 -17 31 L6 145 Q59 121 98 113.5 Q137 106 154 106 Q204 106 222.5 122.5 Q241 139 241 157 Q241 177 225 189.5 Q209 202 164 216 Q97 238 70 276 Q43 314 43 362 Q43 399 58.5 431.5 Q74 464 104.5 488 Q135 512 179.5 526 Q224 540 282 540 Q315 540 343.5 535 Q372 530 393 525 Q418 519 438 511 L412 400 Q393 407 372.5 412.5 Q352 418 333.5 421.5 Q315 425 300.5 426.5 Q286 428 279 428 Q241 428 216 416.5 Q191 405 191 381 Q191 364 204 353.5 Q217 343 255 330 Q321 307 357.5 271.5 Q394 236 394 176 Z " />
<glyph glyph-name="Scedilla" unicode="&#x15e;" horiz-adv-x="535" d="M153 -180 Q121 -180 94 -171.5 Q67 -163 53 -151 L82 -109 Q90 -114 110 -122 Q130 -130 150 -130 Q165 -130 176 -124.5 Q187 -119 187 -103 Q187 -89 167 -80 Q147 -71 114 -66 L118 -46 L157 -8 Q98 -3 58 9.5 Q18 22 1 33 L28 158 Q87 133 131 124 Q175 115 204 115 Q242 115 266.5 121.5 Q291 128 305 139 Q319 150 324 164 Q329 178 329 192 Q329 217 308.5 235 Q288 253 236 279 Q204 295 174.5 313.5 Q145 332 122.5 356.5 Q100 381 86.5 412 Q73 443 73 484 Q73 540 94.5 582 Q116 624 154 652.5 Q192 681 243.5 695.5 Q295 710 354 710 Q422 710 467.5 699 Q513 688 534 679 L507 552 Q460 567 420.5 576 Q381 585 345 585 Q290 585 258.5 568 Q227 551 227 516 Q227 501 231 489.5 Q235 478 246 467 Q257 456 277.5 443.5 Q298 431 330 415 Q407 376 450 332.5 Q493 289 493 225 Q493 174 475.5 133 Q458 92 425 61.5 Q392 31 344 13 Q296 -5 236 -9 L209 -36 Q247 -36 268.5 -50.5 Q290 -65 290 -95 Q290 -119 277.5 -135 Q265 -151 245.5 -161 Q226 -171 201.5 -175.5 Q177 -180 153 -180 Z " />
<glyph glyph-name="scedilla" unicode="&#x15f;" horiz-adv-x="445" d="M106 -180 Q74 -180 47 -171.5 Q20 -163 6 -151 L35 -109 Q43 -114 63 -122 Q83 -130 103 -130 Q118 -130 129 -124.5 Q140 -119 140 -103 Q140 -89 120 -80 Q100 -71 67 -66 L71 -46 L111 -7 Q86 -4 64.5 1 Q43 6 26 12 Q9 18 -2 23 Q-13 28 -17 31 L6 145 Q59 121 98 113.5 Q137 106 154 106 Q204 106 222.5 122.5 Q241 139 241 157 Q241 177 225 189.5 Q209 202 164 216 Q97 238 70 276 Q43 314 43 362 Q43 399 58.5 431.5 Q74 464 104.5 488 Q135 512 179.5 526 Q224 540 282 540 Q315 540 343.5 535 Q372 530 393 525 Q418 519 438 511 L412 400 Q393 407 372.5 412.5 Q352 418 333.5 421.5 Q315 425 300.5 426.5 Q286 428 279 428 Q241 428 216 416.5 Q191 405 191 381 Q191 364 204 353.5 Q217 343 255 330 Q321 307 357.5 271.5 Q394 236 394 176 Q394 135 379 103 Q364 71 336.5 47.5 Q309 24 271.5 10 Q234 -4 189 -8 L162 -36 Q200 -36 221.5 -50.5 Q243 -65 243 -95 Q243 -119 230.5 -135 Q218 -151 198.5 -161 Q179 -171 154.5 -175.5 Q130 -180 106 -180 Z " />
<glyph glyph-name="Scaron" unicode="&#x160;" horiz-adv-x="535" d="M493 225 Q493 171 473 127.5 Q453 84 415 53.5 Q377 23 323 6.5 Q269 -10 200 -10 Q125 -10 73 5.5 Q21 21 1 33 L28 158 Q87 133 131 124 Q175 115 204 115 Q242 115 266.5 121.5 Q291 128 305 139 Q319 150 324 164 Q329 178 329 192 Q329 217 308.5 235 Q288 253 236 279 Q204 295 174.5 313.5 Q145 332 122.5 356.5 Q100 381 86.5 412 Q73 443 73 484 Q73 540 94.5 582 Q116 624 154 652.5 Q192 681 243.5 695.5 Q295 710 354 710 Q422 710 467.5 699 Q513 688 534 679 L507 552 Q460 567 420.5 576 Q381 585 345 585 Q290 585 258.5 568 Q227 551 227 516 Q227 501 231 489.5 Q235 478 246 467 Q257 456 277.5 443.5 Q298 431 330 415 Q407 376 450 332.5 Q493 289 493 225 Z M338 747 L233 896 L268 930 L284 930 L380 855 L506 930 L533 930 L553 896 L385 747 L338 747 Z " />
<glyph glyph-name="scaron" unicode="&#x161;" horiz-adv-x="445" d="M271 577 L166 726 L201 760 L217 760 L313 685 L439 760 L466 760 L486 726 L318 577 L271 577 Z M394 176 Q394 132 376 97.5 Q358 63 326.5 39 Q295 15 251 2.5 Q207 -10 156 -10 Q123 -10 93.5 -4.5 Q64 1 41 7.5 Q18 14 3 21 Q-12 28 -17 31 L6 145 Q59 121 98 113.5 Q137 106 154 106 Q204 106 222.5 122.5 Q241 139 241 157 Q241 177 225 189.5 Q209 202 164 216 Q97 238 70 276 Q43 314 43 362 Q43 399 58.5 431.5 Q74 464 104.5 488 Q135 512 179.5 526 Q224 540 282 540 Q315 540 343.5 535 Q372 530 393 525 Q418 519 438 511 L412 400 Q393 407 372.5 412.5 Q352 418 333.5 421.5 Q315 425 300.5 426.5 Q286 428 279 428 Q241 428 216 416.5 Q191 405 191 381 Q191 364 204 353.5 Q217 343 255 330 Q321 307 357.5 271.5 Q394 236 394 176 Z " />
<glyph glyph-name="uni0162" unicode="&#x162;" horiz-adv-x="572" d="M171 -180 Q139 -180 112 -171.5 Q85 -163 71 -151 L100 -109 Q108 -114 128 -122 Q148 -130 168 -130 Q183 -130 194 -124.5 Q205 -119 205 -103 Q205 -89 185 -80 Q165 -71 132 -66 L136 -46 L184 0 L145 0 L266 576 L73 576 L100 700 L644 700 L617 576 L425 576 L304 0 L263 0 L227 -36 Q265 -36 286.5 -50.5 Q308 -65 308 -95 Q308 -119 295.5 -135 Q283 -151 263.5 -161 Q244 -171 219.5 -175.5 Q195 -180 171 -180 Z " />
<glyph glyph-name="uni0163" unicode="&#x163;" horiz-adv-x="362" d="M114 -180 Q82 -180 55 -171.5 Q28 -163 14 -151 L43 -109 Q51 -114 71 -122 Q91 -130 111 -130 Q126 -130 137 -124.5 Q148 -119 148 -103 Q148 -89 128 -80 Q108 -71 75 -66 L79 -46 L118 -9 Q66 -4 46.5 26 Q27 56 41 120 L105 423 L44 423 L66 528 L120 528 L210 670 L307 670 L277 528 L391 528 L369 423 L254 423 L188 100 L306 100 L283 0 Q279 0 255.5 -3 Q232 -6 197 -8 L170 -36 Q208 -36 229.5 -50.5 Q251 -65 251 -95 Q251 -119 238.5 -135 Q226 -151 206.5 -161 Q187 -171 162.5 -175.5 Q138 -180 114 -180 Z " />
<glyph glyph-name="Tcaron" unicode="&#x164;" horiz-adv-x="572" d="M644 700 L617 576 L425 576 L304 0 L145 0 L266 576 L73 576 L100 700 L644 700 Z M359 747 L254 896 L289 930 L305 930 L401 855 L527 930 L554 930 L574 896 L406 747 L359 747 Z " />
<glyph glyph-name="tcaron" unicode="&#x165;" horiz-adv-x="362" d="M347 582 L389 780 L498 780 L485 719 L437 582 L347 582 Z M143 -10 Q78 -10 52.5 19.5 Q27 49 42 120 L106 423 L45 423 L67 528 L121 528 L211 670 L308 670 L278 528 L392 528 L370 423 L255 423 L189 100 L307 100 L284 0 Q281 0 268.5 -2 Q256 -4 237 -5.5 Q218 -7 193.5 -8.5 Q169 -10 143 -10 Z " />
<glyph glyph-name="Tbar" unicode="&#x166;" horiz-adv-x="578" d="M646 700 L619 576 L427 576 L387 385 L489 385 L472 305 L370 305 L306 0 L147 0 L211 305 L110 305 L127 385 L228 385 L268 576 L75 576 L102 700 L646 700 Z " />
<glyph glyph-name="tbar" unicode="&#x167;" horiz-adv-x="364" d="M36 334 L87 334 L106 423 L45 423 L67 528 L121 528 L211 670 L308 670 L278 528 L392 528 L370 423 L255 423 L237 334 L349 334 L332 256 L221 256 L189 100 L307 100 L284 0 Q281 0 268.5 -2 Q256 -4 237 -5.5 Q218 -7 193.5 -8.5 Q169 -10 143 -10 Q78 -10 52.5 19.5 Q27 49 42 120 L70 256 L19 256 L36 334 Z " />
<glyph glyph-name="Utilde" unicode="&#x168;" horiz-adv-x="652" d="M524 700 L675 700 L575 230 Q561 165 534 119 Q507 73 469 44.5 Q431 16 382.5 3 Q334 -10 278 -10 Q169 -10 105 33.5 Q41 77 41 166 Q41 181 43.5 206 Q46 231 50 248 L146 700 L310 700 L215 250 Q212 234 210 220.5 Q208 207 208 195 Q208 164 229.5 141 Q251 118 300 118 Q330 118 351 126.5 Q372 135 387 151.5 Q402 168 412 192.5 Q422 217 429 250 L524 700 Z M617 898 L607 853 Q596 803 573 780 Q550 757 505 757 Q489 757 471.5 762.5 Q454 768 438 775 Q422 782 408.5 787.5 Q395 793 386 793 Q379 793 374.5 791.5 Q370 790 367 788 Q363 786 361 784 L352 746 L272 746 L281 787 Q294 845 315.5 868.5 Q337 892 377 892 Q393 892 410 885.5 Q427 879 444 871.5 Q461 864 476.5 857.5 Q492 851 504 851 Q520 851 527 858 Q531 861 532 865 L539 898 L617 898 Z " />
<glyph glyph-name="utilde" unicode="&#x169;" horiz-adv-x="548" d="M295 73 Q282 57 266 42 Q250 27 231.5 15.5 Q213 4 191 -3 Q169 -10 143 -10 Q81 -10 48.5 25 Q16 60 16 118 Q16 143 22 170 L99 530 L249 530 L177 194 Q174 180 174 169 Q174 149 183 136 Q192 123 215 123 Q244 123 271 145.5 Q298 168 320 196 L393 530 L542 530 L430 0 L333 0 Q303 0 297 14 Q291 28 295 43 L301 73 L295 73 Z M515 728 L505 683 Q494 633 471 610 Q448 587 403 587 Q387 587 371 592.5 Q355 598 339.5 605 Q324 612 310 617.5 Q296 623 284 623 Q277 623 272.5 621.5 Q268 620 265 618 Q261 616 259 614 L250 576 L170 576 L179 617 Q192 675 213.5 698.5 Q235 722 275 722 Q291 722 307.5 715.5 Q324 709 340.5 701.5 Q357 694 372.5 687.5 Q388 681 402 681 Q418 681 425 688 Q429 691 430 695 L437 728 L515 728 Z " />
<glyph glyph-name="Umacron" unicode="&#x16a;" horiz-adv-x="652" d="M524 700 L675 700 L575 230 Q561 165 534 119 Q507 73 469 44.5 Q431 16 382.5 3 Q334 -10 278 -10 Q169 -10 105 33.5 Q41 77 41 166 Q41 181 43.5 206 Q46 231 50 248 L146 700 L310 700 L215 250 Q212 234 210 220.5 Q208 207 208 195 Q208 164 229.5 141 Q251 118 300 118 Q330 118 351 126.5 Q372 135 387 151.5 Q402 168 412 192.5 Q422 217 429 250 L524 700 Z M328 876 L586 876 L567 788 L309 788 L328 876 Z " />
<glyph glyph-name="umacron" unicode="&#x16b;" horiz-adv-x="548" d="M295 73 Q282 57 266 42 Q250 27 231.5 15.5 Q213 4 191 -3 Q169 -10 143 -10 Q81 -10 48.5 25 Q16 60 16 118 Q16 143 22 170 L99 530 L249 530 L177 194 Q174 180 174 169 Q174 149 183 136 Q192 123 215 123 Q244 123 271 145.5 Q298 168 320 196 L393 530 L542 530 L430 0 L333 0 Q303 0 297 14 Q291 28 295 43 L301 73 L295 73 Z M226 706 L484 706 L465 618 L207 618 L226 706 Z " />
<glyph glyph-name="Ubreve" unicode="&#x16c;" horiz-adv-x="652" d="M524 700 L675 700 L575 230 Q561 165 534 119 Q507 73 469 44.5 Q431 16 382.5 3 Q334 -10 278 -10 Q169 -10 105 33.5 Q41 77 41 166 Q41 181 43.5 206 Q46 231 50 248 L146 700 L310 700 L215 250 Q212 234 210 220.5 Q208 207 208 195 Q208 164 229.5 141 Q251 118 300 118 Q330 118 351 126.5 Q372 135 387 151.5 Q402 168 412 192.5 Q422 217 429 250 L524 700 Z M585 876 Q577 853 564 832.5 Q551 812 531.5 795.5 Q512 779 487.5 769.5 Q463 760 433 760 Q406 760 386 769.5 Q366 779 353 795 Q340 811 333.5 832 Q327 853 327 876 L395 895 Q397 875 408.5 858.5 Q420 842 446 842 Q475 842 493.5 857.5 Q512 873 522 892 L585 876 L585 876 Z " />
<glyph glyph-name="ubreve" unicode="&#x16d;" horiz-adv-x="548" d="M295 73 Q282 57 266 42 Q250 27 231.5 15.5 Q213 4 191 -3 Q169 -10 143 -10 Q81 -10 48.5 25 Q16 60 16 118 Q16 143 22 170 L99 530 L249 530 L177 194 Q174 180 174 169 Q174 149 183 136 Q192 123 215 123 Q244 123 271 145.5 Q298 168 320 196 L393 530 L542 530 L430 0 L333 0 Q303 0 297 14 Q291 28 295 43 L301 73 L295 73 Z M486 706 Q478 683 465 662.5 Q452 642 432.5 625.5 Q413 609 388.5 599.5 Q364 590 334 590 Q307 590 287 599.5 Q267 609 254 625 Q241 641 234.5 662 Q228 683 228 706 L296 725 Q298 705 309.5 688.5 Q321 672 347 672 Q376 672 395.5 687 Q415 702 425 721 L486 706 L486 706 Z " />
<glyph glyph-name="Uring" unicode="&#x16e;" horiz-adv-x="652" d="M401 817 Q401 790 438 790 Q467 790 479 802.5 Q491 815 491 835 Q491 848 482.5 855 Q474 862 453 862 Q425 862 413 849.5 Q401 837 401 817 Z M459 914 Q510 914 540.5 893.5 Q571 873 571 834 Q571 809 559.5 791 Q548 773 529 761 Q510 749 485 743.5 Q460 738 432 738 Q383 738 352 757 Q321 776 321 812 Q321 839 331.5 858 Q342 877 361 889.5 Q380 902 405 908 Q430 914 459 914 Z M524 700 L675 700 L575 230 Q561 165 534 119 Q507 73 469 44.5 Q431 16 382.5 3 Q334 -10 278 -10 Q169 -10 105 33.5 Q41 77 41 166 Q41 181 43.5 206 Q46 231 50 248 L146 700 L310 700 L215 250 Q212 234 210 220.5 Q208 207 208 195 Q208 164 229.5 141 Q251 118 300 118 Q330 118 351 126.5 Q372 135 387 151.5 Q402 168 412 192.5 Q422 217 429 250 L524 700 Z " />
<glyph glyph-name="uring" unicode="&#x16f;" horiz-adv-x="548" d="M301 647 Q301 620 338 620 Q367 620 379 632.5 Q391 645 391 665 Q391 678 382.5 685 Q374 692 353 692 Q325 692 313 679.5 Q301 667 301 647 Z M359 744 Q410 744 440.5 723.5 Q471 703 471 664 Q471 639 459.5 621 Q448 603 429 591 Q410 579 385 573.5 Q360 568 332 568 Q283 568 252 587 Q221 606 221 642 Q221 669 231.5 688 Q242 707 261 719.5 Q280 732 305 738 Q330 744 359 744 Z M295 73 Q282 57 266 42 Q250 27 231.5 15.5 Q213 4 191 -3 Q169 -10 143 -10 Q81 -10 48.5 25 Q16 60 16 118 Q16 143 22 170 L99 530 L249 530 L177 194 Q174 180 174 169 Q174 149 183 136 Q192 123 215 123 Q244 123 271 145.5 Q298 168 320 196 L393 530 L542 530 L430 0 L333 0 Q303 0 297 14 Q291 28 295 43 L301 73 L295 73 Z " />
<glyph glyph-name="Uhungarumlaut" unicode="&#x170;" horiz-adv-x="652" d="M346 747 L321 787 L467 926 L495 926 L537 867 L365 747 L346 747 Z M483 747 L464 784 L606 901 L634 901 L678 833 L503 747 L483 747 Z M524 700 L675 700 L575 230 Q561 165 534 119 Q507 73 469 44.5 Q431 16 382.5 3 Q334 -10 278 -10 Q169 -10 105 33.5 Q41 77 41 166 Q41 181 43.5 206 Q46 231 50 248 L146 700 L310 700 L215 250 Q212 234 210 220.5 Q208 207 208 195 Q208 164 229.5 141 Q251 118 300 118 Q330 118 351 126.5 Q372 135 387 151.5 Q402 168 412 192.5 Q422 217 429 250 L524 700 Z " />
<glyph glyph-name="uhungarumlaut" unicode="&#x171;" horiz-adv-x="548" d="M295 73 Q282 57 266 42 Q250 27 231.5 15.5 Q213 4 191 -3 Q169 -10 143 -10 Q81 -10 48.5 25 Q16 60 16 118 Q16 143 22 170 L99 530 L249 530 L177 194 Q174 180 174 169 Q174 149 183 136 Q192 123 215 123 Q244 123 271 145.5 Q298 168 320 196 L393 530 L542 530 L430 0 L333 0 Q303 0 297 14 Q291 28 295 43 L301 73 L295 73 Z M242 577 L213 617 L359 756 L387 756 L429 697 L261 577 L242 577 Z M375 577 L356 614 L498 731 L526 731 L570 663 L395 577 L375 577 Z " />
<glyph glyph-name="Uogonek" unicode="&#x172;" horiz-adv-x="652" d="M524 700 L675 700 L575 230 Q564 177 545 137.5 Q526 98 498.5 70.5 Q471 43 435.5 25 Q400 7 356 -3 Q316 -12 292 -31.5 Q268 -51 268 -76 Q268 -93 278 -99.5 Q288 -106 306 -106 Q320 -106 338 -100 Q356 -94 363 -89 L378 -151 Q359 -163 328.5 -171.5 Q298 -180 266 -180 Q216 -180 189 -162.5 Q162 -145 162 -107 Q162 -75 180.5 -50.5 Q199 -26 229 -8 Q141 1 91 44.5 Q41 88 41 166 Q41 181 43.5 206 Q46 231 50 248 L146 700 L310 700 L215 250 Q212 234 210 220.5 Q208 207 208 195 Q208 164 229.5 141 Q251 118 300 118 Q330 118 351 126.5 Q372 135 387 151.5 Q402 168 412 192.5 Q422 217 429 250 L524 700 Z " />
<glyph glyph-name="uogonek" unicode="&#x173;" horiz-adv-x="548" d="M295 73 Q282 57 266 42 Q250 27 231.5 15.5 Q213 4 191 -3 Q169 -10 143 -10 Q81 -10 48.5 25 Q16 60 16 118 Q16 143 22 170 L99 530 L249 530 L177 194 Q174 180 174 169 Q174 149 183 136 Q192 123 215 123 Q244 123 271 145.5 Q298 168 320 196 L393 530 L542 530 L430 0 L429 0 Q402 0 380 -6.5 Q358 -13 342.5 -24 Q327 -35 318 -48.5 Q309 -62 309 -76 Q309 -93 319 -99.5 Q329 -106 347 -106 Q361 -106 379 -100 Q397 -94 404 -89 L419 -151 Q400 -163 369.5 -171.5 Q339 -180 307 -180 Q257 -180 230 -162.5 Q203 -145 203 -107 Q203 -67 232 -39 Q261 -11 305 6 Q294 12 293 22 Q292 32 295 43 L301 73 L295 73 Z " />
<glyph glyph-name="Wcircumflex" unicode="&#x174;" horiz-adv-x="961" d="M590 821 L464 746 L437 746 L417 780 L585 929 L632 929 L737 780 L702 746 L686 746 L590 821 Z M506 427 L300 -2 L138 -2 L91 700 L260 700 L275 222 L490 700 L650 700 L666 216 L882 700 L1035 700 L695 -2 L533 -2 L506 427 Z " />
<glyph glyph-name="wcircumflex" unicode="&#x175;" horiz-adv-x="781" d="M462 648 L336 573 L309 573 L289 607 L457 756 L504 756 L609 607 L574 573 L558 573 L462 648 Z M386 284 L254 -2 L111 -2 L53 530 L209 530 L225 201 L381 530 L500 530 L516 198 L672 530 L821 530 L544 -2 L398 -2 L386 284 Z " />
<glyph glyph-name="Ycircumflex" unicode="&#x176;" horiz-adv-x="623" d="M175 0 L230 259 L75 700 L241 700 L337 416 L529 700 L695 700 L393 275 L334 0 L175 0 Z M425 821 L299 746 L272 746 L252 780 L420 929 L467 929 L572 780 L537 746 L521 746 L425 821 Z " />
<glyph glyph-name="ycircumflex" unicode="&#x177;" horiz-adv-x="529" d="M52 -170 L140 -5 L47 530 L210 530 L249 199 L426 530 L573 530 L181 -170 L52 -170 Z M346 648 L220 573 L193 573 L173 607 L341 756 L388 756 L493 607 L458 573 L442 573 L346 648 Z " />
<glyph glyph-name="Ydieresis" unicode="&#x178;" horiz-adv-x="623" d="M175 0 L230 259 L75 700 L241 700 L337 416 L529 700 L695 700 L393 275 L334 0 L175 0 Z M276 830 Q276 859 298.5 882 Q321 905 358 905 Q384 905 399 888.5 Q414 872 414 850 Q414 820 390.5 798 Q367 776 331 776 Q305 776 290.5 792 Q276 808 276 830 Z M445 830 Q445 859 467.5 882 Q490 905 527 905 Q553 905 568 888.5 Q583 872 583 850 Q583 820 559.5 798 Q536 776 500 776 Q474 776 459.5 792 Q445 808 445 830 Z " />
<glyph glyph-name="Zacute" unicode="&#x179;" horiz-adv-x="580" d="M-35 0 L-17 86 L390 577 L98 577 L125 700 L620 700 L602 614 L199 124 L517 124 L490 0 L-35 0 Z M366 747 L334 793 L491 926 L519 926 L570 838 L388 747 L366 747 Z " />
<glyph glyph-name="zacute" unicode="&#x17a;" horiz-adv-x="493" d="M448 756 L499 668 L317 577 L295 577 L263 623 L420 756 L448 756 Z M-35 0 L-21 66 L277 412 L54 412 L79 530 L505 530 L491 464 L194 118 L430 118 L405 0 L-35 0 Z " />
<glyph glyph-name="Zdotaccent" unicode="&#x17b;" horiz-adv-x="580" d="M312 816 Q312 834 319.5 851 Q327 868 340.5 881 Q354 894 372.5 902 Q391 910 414 910 Q446 910 465 889.5 Q484 869 484 842 Q484 804 455 776.5 Q426 749 380 749 Q348 749 330 769 Q312 789 312 816 Z M-35 0 L-17 86 L390 577 L98 577 L125 700 L620 700 L602 614 L199 124 L517 124 L490 0 L-35 0 Z " />
<glyph glyph-name="zdotaccent" unicode="&#x17c;" horiz-adv-x="493" d="M-35 0 L-21 66 L277 412 L54 412 L79 530 L505 530 L491 464 L194 118 L430 118 L405 0 L-35 0 Z M233 646 Q233 664 240.5 681 Q248 698 261.5 711 Q275 724 293.5 732 Q312 740 335 740 Q367 740 386 719.5 Q405 699 405 672 Q405 634 376 606.5 Q347 579 301 579 Q269 579 251 599 Q233 619 233 646 Z " />
<glyph glyph-name="Zcaron" unicode="&#x17d;" horiz-adv-x="580" d="M-35 0 L-17 86 L390 577 L98 577 L125 700 L620 700 L602 614 L199 124 L517 124 L490 0 L-35 0 Z M358 747 L253 896 L288 930 L304 930 L400 855 L526 930 L553 930 L573 896 L405 747 L358 747 Z " />
<glyph glyph-name="zcaron" unicode="&#x17e;" horiz-adv-x="493" d="M280 577 L175 726 L210 760 L226 760 L322 685 L448 760 L475 760 L495 726 L327 577 L280 577 Z M-35 0 L-21 66 L277 412 L54 412 L79 530 L505 530 L491 464 L194 118 L430 118 L405 0 L-35 0 Z " />
<glyph glyph-name="longs" unicode="&#x17f;" horiz-adv-x="318" d="M171 2 Q163 -37 145.5 -70.5 Q128 -104 100.5 -128 Q73 -152 34.5 -166 Q-4 -180 -55 -180 Q-87 -180 -108 -178 Q-129 -176 -135 -174 L-114 -75 L-54 -75 Q-20 -75 -4 -58 Q12 -41 19 -7 L110 423 L49 423 L70 528 L133 528 L138 558 Q144 597 161.5 630.5 Q179 664 207.5 688 Q236 712 277 726 Q318 740 372 740 Q403 740 425.5 738 Q448 736 456 734 L434 628 L370 628 Q329 628 312.5 611 Q296 594 289 562 L171 2 L171 2 Z " />
<glyph glyph-name="florin" unicode="&#x192;" horiz-adv-x="382" d="M157 0 Q145 -38 127.5 -70.5 Q110 -103 83.5 -128 Q57 -153 19.5 -167 Q-18 -181 -69 -181 Q-99 -181 -119.5 -179 Q-140 -177 -146 -175 L-128 -76 L-68 -76 Q-33 -76 -18.5 -58.5 Q-4 -41 6 -9 L119 358 L33 358 L55 463 L152 463 L182 560 Q194 598 211.5 631 Q229 664 255.5 689 Q282 714 319.5 728 Q357 742 409 742 Q439 742 459.5 740 Q480 738 486 736 L468 637 L408 637 Q373 637 358.5 619.5 Q344 602 334 569 L302 463 L407 463 L385 358 L268 358 L157 0 L157 0 Z " />
<glyph glyph-name="uni0218" unicode="&#x218;" horiz-adv-x="535" d="M92 -257 L125 -210 L122 -185 Q111 -178 104.5 -165.5 Q98 -153 98 -139 Q98 -108 121 -83 Q144 -58 183 -58 Q212 -58 229.5 -74.5 Q247 -91 247 -117 Q247 -134 240.5 -148.5 Q234 -163 224 -176 L139 -286 L92 -257 Z M493 225 Q493 171 473 127.5 Q453 84 415 53.5 Q377 23 323 6.5 Q269 -10 200 -10 Q125 -10 73 5.5 Q21 21 1 33 L28 158 Q87 133 131 124 Q175 115 204 115 Q242 115 266.5 121.5 Q291 128 305 139 Q319 150 324 164 Q329 178 329 192 Q329 217 308.5 235 Q288 253 236 279 Q204 295 174.5 313.5 Q145 332 122.5 356.5 Q100 381 86.5 412 Q73 443 73 484 Q73 540 94.5 582 Q116 624 154 652.5 Q192 681 243.5 695.5 Q295 710 354 710 Q422 710 467.5 699 Q513 688 534 679 L507 552 Q460 567 420.5 576 Q381 585 345 585 Q290 585 258.5 568 Q227 551 227 516 Q227 501 231 489.5 Q235 478 246 467 Q257 456 277.5 443.5 Q298 431 330 415 Q407 376 450 332.5 Q493 289 493 225 Z " />
<glyph glyph-name="uni0219" unicode="&#x219;" horiz-adv-x="445" d="M45 -257 L78 -210 L75 -185 Q64 -178 57.5 -165.5 Q51 -153 51 -139 Q51 -108 74 -83 Q97 -58 136 -58 Q165 -58 182.5 -74.5 Q200 -91 200 -117 Q200 -134 193.5 -148.5 Q187 -163 177 -176 L92 -286 L45 -257 Z M394 176 Q394 132 376 97.5 Q358 63 326.5 39 Q295 15 251 2.5 Q207 -10 156 -10 Q123 -10 93.5 -4.5 Q64 1 41 7.5 Q18 14 3 21 Q-12 28 -17 31 L6 145 Q59 121 98 113.5 Q137 106 154 106 Q204 106 222.5 122.5 Q241 139 241 157 Q241 177 225 189.5 Q209 202 164 216 Q97 238 70 276 Q43 314 43 362 Q43 399 58.5 431.5 Q74 464 104.5 488 Q135 512 179.5 526 Q224 540 282 540 Q315 540 343.5 535 Q372 530 393 525 Q418 519 438 511 L412 400 Q393 407 372.5 412.5 Q352 418 333.5 421.5 Q315 425 300.5 426.5 Q286 428 279 428 Q241 428 216 416.5 Q191 405 191 381 Q191 364 204 353.5 Q217 343 255 330 Q321 307 357.5 271.5 Q394 236 394 176 Z " />
<glyph glyph-name="uni021A" unicode="&#x21a;" horiz-adv-x="572" d="M110 -257 L143 -210 L140 -185 Q129 -178 122.5 -165.5 Q116 -153 116 -139 Q116 -108 139 -83 Q162 -58 201 -58 Q230 -58 247.5 -74.5 Q265 -91 265 -117 Q265 -134 258.5 -148.5 Q252 -163 242 -176 L157 -286 L110 -257 Z M644 700 L617 576 L425 576 L304 0 L145 0 L266 576 L73 576 L100 700 L644 700 Z " />
<glyph glyph-name="uni021B" unicode="&#x21b;" horiz-adv-x="362" d="M54 -257 L87 -210 L84 -185 Q73 -178 66.5 -165.5 Q60 -153 60 -139 Q60 -108 83 -83 Q106 -58 145 -58 Q174 -58 191.5 -74.5 Q209 -91 209 -117 Q209 -134 202.5 -148.5 Q196 -163 186 -176 L101 -286 L54 -257 Z M143 -10 Q78 -10 52.5 19.5 Q27 49 42 120 L106 423 L45 423 L67 528 L121 528 L211 670 L308 670 L278 528 L392 528 L370 423 L255 423 L189 100 L307 100 L284 0 Q281 0 268.5 -2 Q256 -4 237 -5.5 Q218 -7 193.5 -8.5 Q169 -10 143 -10 Z " />
<glyph glyph-name="uni0237" unicode="&#x237;" horiz-adv-x="259" d="M104 530 L254 530 L142 10 Q133 -30 117 -64.5 Q101 -99 74 -124.5 Q47 -150 6.5 -165 Q-34 -180 -92 -180 Q-113 -180 -128 -178.5 Q-143 -177 -153 -175 Q-164 -172 -173 -169 L-152 -66 L-76 -66 Q-50 -66 -32.5 -44.5 Q-15 -23 -10 1 L104 530 Z " />
<glyph glyph-name="circumflex" unicode="&#x2c6;" horiz-adv-x="392" d="M279 648 L153 573 L126 573 L106 607 L274 756 L321 756 L426 607 L391 573 L375 573 L279 648 Z " />
<glyph glyph-name="caron" unicode="&#x2c7;" horiz-adv-x="392" d="M216 577 L111 726 L146 760 L162 760 L258 685 L384 760 L411 760 L431 726 L263 577 L216 577 Z " />
<glyph glyph-name="uni02C9" unicode="&#x2c9;" horiz-adv-x="392" d="M144 706 L402 706 L383 618 L125 618 L144 706 Z " />
<glyph glyph-name="breve" unicode="&#x2d8;" horiz-adv-x="392" d="M403 706 Q395 683 382 662.5 Q369 642 349.5 625.5 Q330 609 305.5 599.5 Q281 590 251 590 Q224 590 204 599.5 Q184 609 171 625 Q158 641 151.5 662 Q145 683 145 706 L213 725 Q215 705 226.5 688.5 Q238 672 264 672 Q293 672 312.5 687 Q332 702 342 721 L403 706 L403 706 Z " />
<glyph glyph-name="dotaccent" unicode="&#x2d9;" horiz-adv-x="230" d="M170 646 Q170 664 177.5 681 Q185 698 198.5 711 Q212 724 230.5 732 Q249 740 272 740 Q304 740 323 719.5 Q342 699 342 672 Q342 634 313 606.5 Q284 579 238 579 Q206 579 188 599 Q170 619 170 646 Z " />
<glyph glyph-name="ring" unicode="&#x2da;" horiz-adv-x="392" d="M210 647 Q210 620 247 620 Q276 620 288 632.5 Q300 645 300 665 Q300 678 291.5 685 Q283 692 262 692 Q234 692 222 679.5 Q210 667 210 647 Z M268 744 Q319 744 349.5 723.5 Q380 703 380 664 Q380 639 368.5 621 Q357 603 338 591 Q319 579 294 573.5 Q269 568 241 568 Q192 568 161 587 Q130 606 130 642 Q130 669 140.5 688 Q151 707 170 719.5 Q189 732 214 738 Q239 744 268 744 Z " />
<glyph glyph-name="ogonek" unicode="&#x2db;" horiz-adv-x="392" d="M197 -151 Q178 -163 147.5 -171.5 Q117 -180 85 -180 Q35 -180 8 -162.5 Q-19 -145 -19 -107 Q-19 -71 5.5 -45 Q30 -19 67.5 -1 Q105 17 149 26.5 Q193 36 233 39 L226 4 Q196 -2 171 -9.5 Q146 -17 127 -26.5 Q108 -36 97.5 -48.5 Q87 -61 87 -76 Q87 -93 97 -99.5 Q107 -106 125 -106 Q139 -106 157 -100 Q175 -94 182 -89 L197 -151 L197 -151 Z " />
<glyph glyph-name="tilde" unicode="&#x2dc;" horiz-adv-x="392" d="M437 728 L427 683 Q416 633 393 610 Q370 587 325 587 Q309 587 293 592.5 Q277 598 261.5 605 Q246 612 232 617.5 Q218 623 206 623 Q199 623 194.5 621.5 Q190 620 187 618 Q183 616 181 614 L172 576 L92 576 L101 617 Q114 675 135.5 698.5 Q157 722 197 722 Q213 722 229.5 715.5 Q246 709 262.5 701.5 Q279 694 294.5 687.5 Q310 681 324 681 Q340 681 347 688 Q351 691 352 695 L359 728 L437 728 Z " />
<glyph glyph-name="hungarumlaut" unicode="&#x2dd;" horiz-adv-x="392" d="M121 577 L92 617 L238 756 L266 756 L308 697 L140 577 L121 577 Z M254 577 L235 614 L377 731 L405 731 L449 663 L274 577 L254 577 Z " />
<glyph glyph-name="uni0394" unicode="&#x394;" horiz-adv-x="667" d="M-43 0 L-28 71 L344 702 L486 702 L599 69 L584 0 L-43 0 Z M372 491 L174 136 L428 136 L372 491 Z " />
<glyph glyph-name="uni03A9" unicode="&#x3a9;" horiz-adv-x="774" d="M351 0 L394 205 Q443 228 476 255 Q509 282 529 314 Q549 346 558 383 Q567 420 567 464 Q567 529 534 558 Q501 587 438 587 Q385 587 347 569.5 Q309 552 283.5 521 Q258 490 246 448 Q234 406 234 357 Q234 309 252.5 275 Q271 241 320 205 L277 0 L4 0 L28 114 L208 114 L213 139 Q176 165 150 190 Q124 215 108 242 Q92 269 84.5 300 Q77 331 77 369 Q77 447 105 510.5 Q133 574 183.5 619 Q234 664 303.5 689 Q373 714 457 714 Q516 714 565.5 699 Q615 684 650.5 654 Q686 624 706 578.5 Q726 533 726 471 Q726 352 659 270.5 Q592 189 471 134 L467 114 L649 114 L625 0 L351 0 Z " />
<glyph glyph-name="uni03BC" unicode="&#x3bc;" horiz-adv-x="591" d="M526 6 Q504 -1 478 -4.5 Q452 -8 432 -8 Q392 -8 371.5 13 Q351 34 345 66 Q322 24 291.5 6.5 Q261 -11 233 -11 Q201 -11 179 3.5 Q157 18 151 55 L129 -89 L114 -161 L-39 -177 L110 523 L264 539 L199 222 Q194 199 194 185 Q194 122 250 122 Q282 122 304.5 140.5 Q327 159 341 192 L410 523 L563 539 Q544 447 528.5 374 Q513 301 502.5 248.5 Q492 196 486 166.5 Q480 137 480 133 Q480 120 485.5 114 Q491 108 506 108 Q515 108 525 108.5 Q535 109 549 112 L526 6 Z " />
<glyph glyph-name="Wgrave" unicode="&#x1e80;" horiz-adv-x="961" d="M564 747 L420 838 L509 926 L532 926 L632 793 L581 747 L564 747 Z M506 427 L300 -2 L138 -2 L91 700 L260 700 L275 222 L490 700 L650 700 L666 216 L882 700 L1035 700 L695 -2 L533 -2 L506 427 Z " />
<glyph glyph-name="wgrave" unicode="&#x1e81;" horiz-adv-x="781" d="M386 284 L254 -2 L111 -2 L53 530 L209 530 L225 201 L381 530 L500 530 L516 198 L672 530 L821 530 L544 -2 L398 -2 L386 284 Z M295 668 L384 756 L407 756 L507 623 L456 577 L439 577 L295 668 Z " />
<glyph glyph-name="Wacute" unicode="&#x1e82;" horiz-adv-x="961" d="M564 747 L532 793 L689 926 L717 926 L768 838 L586 747 L564 747 Z M506 427 L300 -2 L138 -2 L91 700 L260 700 L275 222 L490 700 L650 700 L666 216 L882 700 L1035 700 L695 -2 L533 -2 L506 427 Z " />
<glyph glyph-name="wacute" unicode="&#x1e83;" horiz-adv-x="781" d="M590 756 L641 668 L459 577 L437 577 L405 623 L562 756 L590 756 Z M386 284 L254 -2 L111 -2 L53 530 L209 530 L225 201 L381 530 L500 530 L516 198 L672 530 L821 530 L544 -2 L398 -2 L386 284 Z " />
<glyph glyph-name="Wdieresis" unicode="&#x1e84;" horiz-adv-x="961" d="M506 427 L300 -2 L138 -2 L91 700 L260 700 L275 222 L490 700 L650 700 L666 216 L882 700 L1035 700 L695 -2 L533 -2 L506 427 Z M440 830 Q440 859 462.5 882 Q485 905 522 905 Q548 905 563 888.5 Q578 872 578 850 Q578 820 554.5 798 Q531 776 495 776 Q469 776 454.5 792 Q440 808 440 830 Z M609 830 Q609 859 631.5 882 Q654 905 691 905 Q717 905 732 888.5 Q747 872 747 850 Q747 820 723.5 798 Q700 776 664 776 Q638 776 623.5 792 Q609 808 609 830 Z " />
<glyph glyph-name="wdieresis" unicode="&#x1e85;" horiz-adv-x="781" d="M314 660 Q314 689 336.5 712 Q359 735 396 735 Q422 735 437 718.5 Q452 702 452 680 Q452 650 428.5 628 Q405 606 369 606 Q343 606 328.5 622 Q314 638 314 660 Z M483 660 Q483 689 505.5 712 Q528 735 565 735 Q591 735 606 718.5 Q621 702 621 680 Q621 650 597.5 628 Q574 606 538 606 Q512 606 497.5 622 Q483 638 483 660 Z M386 284 L254 -2 L111 -2 L53 530 L209 530 L225 201 L381 530 L500 530 L516 198 L672 530 L821 530 L544 -2 L398 -2 L386 284 Z " />
<glyph glyph-name="endash" unicode="&#x2013;" horiz-adv-x="556" d="M74 375 L513 375 L490 270 L51 270 L74 375 Z " />
<glyph glyph-name="emdash" unicode="&#x2014;" horiz-adv-x="839" d="M74 375 L796 375 L773 270 L51 270 L74 375 Z " />
<glyph glyph-name="quoteleft" unicode="&#x2018;" horiz-adv-x="232" d="M262.998 675.994 L211.001 603.999 L215.001 577 Q228 568.001 234.5 554.002 Q240.999 540.002 240.999 523.003 Q240.999 505.005 234.5 488.506 Q228 472.007 215.501 458.507 Q203.002 445.008 185.503 437.009 Q168.004 429.009 145.005 429.009 Q110.007 429.009 89.5085 448.508 Q69.0097 468.007 69.0097 497.005 Q69.0097 518.004 77.5092 534.003 Q86.0087 550.002 97.008 564.001 L208.001 709.992 L262.998 675.994 Z " />
<glyph glyph-name="quoteright" unicode="&#x2019;" horiz-adv-x="228" d="M80 463 L132 535 L128 562 Q115 571 108.5 585 Q102 599 102 616 Q102 634 108.5 650.5 Q115 667 127.5 680.5 Q140 694 157.5 702 Q175 710 198 710 Q233 710 253.5 690.5 Q274 671 274 642 Q274 621 265.5 605 Q257 589 246 575 L135 429 L80 463 Z " />
<glyph glyph-name="quotesinglbase" unicode="&#x201a;" horiz-adv-x="239" d="M-35 -96 L17 -24 L13 3 Q0 12 -6.5 26 Q-13 40 -13 57 Q-13 75 -6.5 91.5 Q0 108 12.5 121.5 Q25 135 42.5 143 Q60 151 83 151 Q118 151 138.5 131.5 Q159 112 159 83 Q159 62 150.5 46 Q142 30 131 16 L20 -130 L-35 -96 Z " />
<glyph glyph-name="quotedblleft" unicode="&#x201c;" horiz-adv-x="424" d="M262.998 675.994 L211.001 603.999 L215.001 577 Q228 568.001 234.5 554.002 Q240.999 540.002 240.999 523.003 Q240.999 505.005 234.5 488.506 Q228 472.007 215.501 458.507 Q203.002 445.008 185.503 437.009 Q168.004 429.009 145.005 429.009 Q110.007 429.009 89.5085 448.508 Q69.0097 468.007 69.0097 497.005 Q69.0097 518.004 77.5092 534.003 Q86.0087 550.002 97.008 564.001 L208.001 709.992 L262.998 675.994 Z M454.998 675.994 L403.001 603.999 L407.001 577 Q420 568.001 426.5 554.002 Q432.999 540.002 432.999 523.003 Q432.999 505.005 426.5 488.506 Q420 472.007 407.501 458.507 Q395.002 445.008 377.503 437.009 Q360.004 429.009 337.005 429.009 Q302.007 429.009 281.508 448.508 Q261.01 468.007 261.01 497.005 Q261.01 518.004 269.509 534.003 Q278.009 550.002 289.008 564.001 L400.001 709.992 L454.998 675.994 Z " />
<glyph glyph-name="quotedblright" unicode="&#x201d;" horiz-adv-x="419" d="M80 463 L132 535 L128 562 Q115 571 108.5 585 Q102 599 102 616 Q102 634 108.5 650.5 Q115 667 127.5 680.5 Q140 694 157.5 702 Q175 710 198 710 Q233 710 253.5 690.5 Q274 671 274 642 Q274 621 265.5 605 Q257 589 246 575 L135 429 L80 463 Z M271 463 L323 535 L319 562 Q306 571 299.5 585 Q293 599 293 616 Q293 634 299.5 650.5 Q306 667 318.5 680.5 Q331 694 348.5 702 Q366 710 389 710 Q424 710 444.5 690.5 Q465 671 465 642 Q465 621 456.5 605 Q448 589 437 575 L326 429 L271 463 Z " />
<glyph glyph-name="quotedblbase" unicode="&#x201e;" horiz-adv-x="430" d="M-35 -96 L17 -24 L13 3 Q0 12 -6.5 26 Q-13 40 -13 57 Q-13 75 -6.5 91.5 Q0 108 12.5 121.5 Q25 135 42.5 143 Q60 151 83 151 Q118 151 138.5 131.5 Q159 112 159 83 Q159 62 150.5 46 Q142 30 131 16 L20 -130 L-35 -96 Z M156 -96 L208 -24 L204 3 Q191 12 184.5 26 Q178 40 178 57 Q178 75 184.5 91.5 Q191 108 203.5 121.5 Q216 135 233.5 143 Q251 151 274 151 Q309 151 329.5 131.5 Q350 112 350 83 Q350 62 341.5 46 Q333 30 322 16 L211 -130 L156 -96 Z " />
<glyph glyph-name="dagger" unicode="&#x2020;" horiz-adv-x="466" d="M303 0 L210 0 L184 340 L202 439 L175 439 L45 417 L45 537 L175 516 L204 516 L184 700 L329 700 L307 516 L333 516 L463 537 L463 417 L333 439 L311 439 L329 340 L303 0 Z " />
<glyph glyph-name="daggerdbl" unicode="&#x2021;" horiz-adv-x="498" d="M309 184 L331 0 L186 0 L206 184 L177 184 L47 161 L47 285 L177 261 L203 261 L186 350 L203 439 L177 439 L47 415 L47 539 L177 516 L206 516 L186 700 L331 700 L309 516 L335 516 L465 539 L465 415 L335 439 L314 439 L331 350 L314 261 L335 261 L465 285 L465 161 L335 184 L309 184 Z " />
<glyph glyph-name="bullet" unicode="&#x2022;" horiz-adv-x="376" d="M73 354.5 Q73 381.5 84.25 407 Q95.5 432.5 115.75 452 Q136 471.5 163.75 483.5 Q191.5 495.5 226 495.5 Q274 495.5 302.5 464.75 Q331 434 331 393.5 Q331 336.5 287.5 295.25 Q244 254 175 254 Q127 254 100 284 Q73 314 73 354.5 Z " />
<glyph glyph-name="ellipsis" unicode="&#x2026;" horiz-adv-x="668" d="M417 57 Q417 75 424.5 92 Q432 109 445.5 122 Q459 135 477.5 143 Q496 151 519 151 Q551 151 570 130.5 Q589 110 589 83 Q589 45 560 17.5 Q531 -10 485 -10 Q453 -10 435 10 Q417 30 417 57 Z M-14 57 Q-14 75 -6.5 92 Q1 109 14.5 122 Q28 135 46.5 143 Q65 151 88 151 Q120 151 139 130.5 Q158 110 158 83 Q158 45 129 17.5 Q100 -10 54 -10 Q22 -10 4 10 Q-14 30 -14 57 Z M202 57 Q202 75 209.5 92 Q217 109 230.5 122 Q244 135 262.5 143 Q281 151 304 151 Q336 151 355 130.5 Q374 110 374 83 Q374 45 345 17.5 Q316 -10 270 -10 Q238 -10 220 10 Q202 30 202 57 Z " />
<glyph glyph-name="perthousand" unicode="&#x2030;" horiz-adv-x="1043" d="M168 501 Q168 476 174 464 Q180 452 197 452 Q214 452 227 465.5 Q240 479 249 498.5 Q258 518 262.5 539.5 Q267 561 267 576 Q267 600 261 612 Q255 624 238 624 Q221 624 208 611 Q195 598 186 579.5 Q177 561 172.5 539.5 Q168 518 168 501 Z M361 582 Q361 538 348.5 499.5 Q336 461 313.5 432.5 Q291 404 260.5 387.5 Q230 371 193 371 Q136 371 105.5 402.5 Q75 434 75 494 Q75 537 86.5 575.5 Q98 614 120 643 Q142 672 174 689.5 Q206 707 246 707 Q300 707 330.5 676 Q361 645 361 582 Z M475 125 Q475 100 481 88 Q487 76 504 76 Q521 76 534 89.5 Q547 103 556 122.5 Q565 142 569.5 163.5 Q574 185 574 200 Q574 224 568 236 Q562 248 545 248 Q528 248 515 235 Q502 222 493 203.5 Q484 185 479.5 163.5 Q475 142 475 125 Z M668 206 Q668 162 655.5 123.5 Q643 85 620.5 56.5 Q598 28 567.5 11.5 Q537 -5 500 -5 Q443 -5 412.5 26.5 Q382 58 382 118 Q382 161 393.5 199.5 Q405 238 427 267 Q449 296 481 313.5 Q513 331 553 331 Q607 331 637.5 300 Q668 269 668 206 Z M797 125 Q797 100 803 88 Q809 76 826 76 Q843 76 856 89.5 Q869 103 878 122.5 Q887 142 891.5 163.5 Q896 185 896 200 Q896 224 890 236 Q884 248 867 248 Q850 248 837 235 Q824 222 815 203.5 Q806 185 801.5 163.5 Q797 142 797 125 Z M990 206 Q990 162 977.5 123.5 Q965 85 942.5 56.5 Q920 28 889.5 11.5 Q859 -5 822 -5 Q765 -5 734.5 26.5 Q704 58 704 118 Q704 161 715.5 199.5 Q727 238 749 267 Q771 296 803 313.5 Q835 331 875 331 Q929 331 959.5 300 Q990 269 990 206 Z M577 700 L662 700 L166 0 L81 0 L577 700 Z " />
<glyph glyph-name="guilsinglleft" unicode="&#x2039;" horiz-adv-x="303" d="M304.999 463.003 L135.009 250.016 L217.004 46.0283 L105.011 46.0283 L13.0165 232.017 L23.0159 277.014 L188.006 463.003 L304.999 463.003 Z " />
<glyph glyph-name="guilsinglright" unicode="&#x203a;" horiz-adv-x="303" d="M-21 46 L149 259 L67 463 L179 463 L271 277 L261 232 L96 46 L-21 46 Z " />
<glyph glyph-name="fraction" unicode="&#x2044;" horiz-adv-x="90" d="M261 700 L346 700 L-150 0 L-235 0 L261 700 Z " />
<glyph glyph-name="franc" unicode="&#x20a3;" horiz-adv-x="603" d="M248 212 L203 0 L44 0 L89 212 L27 212 L46 300 L107 300 L116 342 L55 342 L73 430 L135 430 L192 700 L661 700 L635 576 L326 576 L295 430 L447 430 L429 342 L276 342 L267 300 L420 300 L401 212 L248 212 Z " />
<glyph glyph-name="lira" unicode="&#x20a4;" horiz-adv-x="592" d="M488 0 L-14 0 L12 124 L74 124 L97 230 L32 230 L51 318 L116 318 L125 360 L60 360 L78 448 L143 448 L149 474 Q158 518 181.5 560.5 Q205 603 243 636 Q281 669 335.5 689.5 Q390 710 461 710 Q499 710 529.5 706 Q560 702 581 697 Q606 692 625 685 L599 564 Q561 577 523.5 584 Q486 591 454 591 Q422 591 398.5 585.5 Q375 580 358 566.5 Q341 553 329.5 530.5 Q318 508 311 474 L305 448 L439 448 L421 360 L287 360 L278 318 L412 318 L393 230 L259 230 L236 124 L514 124 L488 0 Z " />
<glyph glyph-name="peseta" unicode="&#x20a7;" horiz-adv-x="1412" d="M145 700 L367 700 Q478 700 542.5 653.5 Q607 607 607 512 Q607 442 583.5 391 Q560 340 517 306.5 Q474 273 414 256.5 Q354 240 281 240 L207 240 L156 0 L-3 0 L145 700 Z M279 582 L232 358 L304 358 Q367 358 405 393.5 Q443 429 443 506 Q443 542 420.5 562 Q398 582 344 582 L279 582 Z M1352 176 Q1352 132 1334 97.5 Q1316 63 1284.5 39 Q1253 15 1209 2.5 Q1165 -10 1114 -10 Q1081 -10 1051.5 -4.5 Q1022 1 999 7.5 Q976 14 961 21 Q946 28 941 31 L964 145 Q1017 121 1056 113.5 Q1095 106 1112 106 Q1162 106 1180.5 122.5 Q1199 139 1199 157 Q1199 177 1183 189.5 Q1167 202 1122 216 Q1055 238 1028 276 Q1001 314 1001 362 Q1001 399 1016.5 431.5 Q1032 464 1062.5 488 Q1093 512 1137.5 526 Q1182 540 1240 540 Q1273 540 1301.5 535 Q1330 530 1351 525 Q1376 519 1396 511 L1370 400 Q1351 407 1330.5 412.5 Q1310 418 1291.5 421.5 Q1273 425 1258.5 426.5 Q1244 428 1237 428 Q1199 428 1174 416.5 Q1149 405 1149 381 Q1149 364 1162 353.5 Q1175 343 1213 330 Q1279 307 1315.5 271.5 Q1352 236 1352 176 Z M736 -10 Q671 -10 645.5 19.5 Q620 49 635 120 L699 423 L638 423 L660 528 L714 528 L804 670 L901 670 L871 528 L985 528 L963 423 L848 423 L782 100 L900 100 L877 0 Q874 0 861.5 -2 Q849 -4 830 -5.5 Q811 -7 786.5 -8.5 Q762 -10 736 -10 Z " />
<glyph glyph-name="Euro" unicode="&#x20ac;" horiz-adv-x="649" d="M64 458 L485 458 L467 370 L46 370 L64 458 Z M37 328 L458 328 L439 240 L18 240 L37 328 Z M551 16 Q522 5 481 -2.5 Q440 -10 386 -10 Q256 -10 185 59 Q114 128 114 256 Q114 290 117 323 Q119 338 121 352 Q123 366 126 380 Q133 412 144 445 Q166 507 203 556.5 Q240 606 288.5 640 Q337 674 397 692 Q457 710 525 710 Q579 710 618.5 702 Q658 694 678 687 L650 562 Q615 571 582.5 576 Q550 581 522 581 Q452 581 396 547 Q340 513 310 439 Q302 419 295 393 Q285 355 282 305 Q281 296 281 287 Q281 278 281 269 Q281 202 314 161 Q347 120 428 120 Q464 120 500.5 126.5 Q537 133 576 145 L551 16 Z " />
<glyph glyph-name="uni2113" unicode="&#x2113;" horiz-adv-x="425" d="M348 29 Q336 22 318 15 Q300 8 279 2.5 Q258 -3 237.5 -6.5 Q217 -10 201 -10 Q135 -10 96 9.5 Q57 29 55 77 Q55 82 55 88 Q55 94 56 100 L3 57 L-42 126 Q-7 157 24 184.5 Q55 212 84 238 L147 538 Q157 586 177 621 Q197 656 224 678.5 Q251 701 282.5 712 Q314 723 347 723 Q408 723 443.5 692 Q479 661 479 607 Q479 540 413 450 Q347 360 207 233 L185 129 Q184 124 184 113 Q184 99 195 93 Q206 87 232 87 Q244 87 258.5 89 Q273 91 287.5 94 Q302 97 314.5 101 Q327 105 336 109 L348 29 Z M243 400 Q300 468 327 520 Q354 572 354 604 Q354 622 348 629 Q342 636 332 636 Q293 636 269 521 L243 400 Z " />
<glyph glyph-name="trademark" unicode="&#x2122;" horiz-adv-x="840" d="M130 700 L413 700 L413 622 L318 622 L318 387 L225 387 L225 622 L130 622 L130 700 Z M548 387 L470 387 L470 700 L577 700 L639 564 L697 700 L811 700 L811 387 L719 387 L719 582 L673 473 L593 473 L548 576 L548 387 Z " />
<glyph glyph-name="estimated" unicode="&#x212e;" horiz-adv-x="787" d="M588 366 L598 379 L598 584 Q567 622 518.5 643.5 Q470 665 413 665 Q350 665 302 643.5 Q254 622 221 584 L221 379 L230 366 L588 366 Z M221 311 L221 138 Q254 87 306.5 59.5 Q359 32 422 32 Q491 32 546.5 60 Q602 88 640 138 L713 138 Q659 67 588 28.5 Q517 -10 422 -10 Q345 -10 278.5 18 Q212 46 162 95 Q112 144 83.5 209 Q55 274 55 349 Q55 424 83.5 489.5 Q112 555 161 603.5 Q210 652 275 679.5 Q340 707 413 707 Q485 707 548 680 Q611 653 659 606.5 Q707 560 737 497.5 Q767 435 772 365 L772 363 L740 324 L230 324 L221 311 Z " />
<glyph glyph-name="partialdiff" unicode="&#x2202;" horiz-adv-x="541" d="M162 201 Q162 148 176.5 125 Q191 102 227 102 Q262 102 286 126.5 Q310 151 324.5 188 Q339 225 345.5 266.5 Q352 308 352 343 Q352 385 337.5 406.5 Q323 428 286 428 Q251 428 227 403.5 Q203 379 188.5 344 Q174 309 168 270 Q162 231 162 201 Z M506 331 Q506 247 481.5 183.5 Q457 120 417 77 Q377 34 326 12 Q275 -10 222 -10 Q178 -10 139 3 Q100 16 71 42.5 Q42 69 25 110 Q8 151 8 207 Q8 289 32.5 351.5 Q57 414 97 456 Q137 498 188 519 Q239 540 292 540 Q320 540 340 536 Q322 586 294.5 621 Q267 656 237 690 L294 741 Q354 708 395 661.5 Q436 615 460.5 560.5 Q485 506 495.5 447 Q506 388 506 331 Z " />
<glyph glyph-name="product" unicode="&#x220f;" horiz-adv-x="710" d="M516 595 L319 595 L193 0 L34 0 L160 595 L98 595 L120 700 L759 700 L737 595 L675 595 L549 0 L390 0 L516 595 Z " />
<glyph glyph-name="summation" unicode="&#x2211;" horiz-adv-x="581" d="M-27 0 L-3 106 L295 356 L105 622 L122 700 L619 700 L595 591 L301 591 L453 385 L443 341 L176 110 L505 110 L482 0 L-27 0 Z " />
<glyph glyph-name="minus" unicode="&#x2212;" horiz-adv-x="564" d="M75 386 L503 386 L503 291 L75 291 L75 386 Z " />
<glyph glyph-name="uni2215" unicode="&#x2215;" horiz-adv-x="400" d="M416 700 L501 700 L5 0 L-80 0 L416 700 Z " />
<glyph glyph-name="uni2219" unicode="&#x2219;" horiz-adv-x="247" d="M52 364 Q52 382 59.5 399 Q67 416 80.5 429 Q94 442 112.5 450 Q131 458 154 458 Q186 458 205 437.5 Q224 417 224 390 Q224 352 195 324.5 Q166 297 120 297 Q88 297 70 317 Q52 337 52 364 Z " />
<glyph glyph-name="radical" unicode="&#x221a;" horiz-adv-x="576" d="M120 410 L35 377 L21 447 L245 543 L328 244 L630 971 L710 957 L281 -64 L120 410 Z " />
<glyph glyph-name="infinity" unicode="&#x221e;" horiz-adv-x="850" d="M623 418 Q603 418 584.5 410.5 Q566 403 548 390.5 Q530 378 513.5 362.5 Q497 347 483 331 Q497 316 513.5 300.5 Q530 285 547.5 272.5 Q565 260 584 252 Q603 244 623 244 Q665 244 688 266.5 Q711 289 711 331 Q711 373 688 395.5 Q665 418 623 418 Z M44 331 Q44 368 57 400.5 Q70 433 95 457.5 Q120 482 155 496 Q190 510 235 510 Q266 510 293.5 501 Q321 492 345 477 Q369 462 390 443.5 Q411 425 429 407 Q447 425 467.5 443.5 Q488 462 512 477 Q536 492 564 501 Q592 510 624 510 Q669 510 704 496 Q739 482 764 457.5 Q789 433 802 400.5 Q815 368 815 331 Q815 294 803.5 261.5 Q792 229 768 204.5 Q744 180 708 166 Q672 152 624 152 Q594 152 566.5 161.5 Q539 171 514.5 186 Q490 201 468.5 219 Q447 237 430 254 Q412 236 391 217.5 Q370 199 346 184.5 Q322 170 294.5 161 Q267 152 235 152 Q187 152 151 166 Q115 180 91 204.5 Q67 229 55.5 261.5 Q44 294 44 331 Z M236 418 Q194 418 171 395.5 Q148 373 148 331 Q148 289 171 266.5 Q194 244 236 244 Q255 244 274 251.5 Q293 259 311 271.5 Q329 284 345.5 299.5 Q362 315 376 331 Q362 346 345.5 361.5 Q329 377 311.5 389.5 Q294 402 275 410 Q256 418 236 418 Z " />
<glyph glyph-name="integral" unicode="&#x222b;" horiz-adv-x="604" d="M15 -137 Q-16 -137 -44.5 -132.5 Q-73 -128 -93 -123 L-54 -26 Q-34 -30 -13 -33 Q8 -36 23 -36 Q61 -36 89.5 -21 Q118 -6 132 34 L336 642 Q368 736 433.5 779 Q499 822 608 822 Q640 822 668 817.5 Q696 813 716 808 L676 711 Q658 715 637 718 Q616 721 599 721 Q563 721 533.5 706.5 Q504 692 490 651 L284 44 Q252 -49 189 -93 Q126 -137 15 -137 Z " />
<glyph glyph-name="approxequal" unicode="&#x2248;" horiz-adv-x="598" d="M224 516 Q255 516 284 503.5 Q313 491 338.5 476 Q364 461 386.5 448.5 Q409 436 426 436 Q440 436 450 446 L505 501 L559 451 Q532 406 489.5 376.5 Q447 347 391 347 Q360 347 330.5 359.5 Q301 372 275 387 Q249 402 226.5 414.5 Q204 427 187 427 Q173 427 165 419 L106 357 L53 406 Q80 456 123.5 486 Q167 516 224 516 Z M224 335 Q255 335 284 322.5 Q313 310 338.5 295 Q364 280 386.5 267.5 Q409 255 426 255 Q440 255 450 265 L505 320 L559 270 Q532 225 489.5 195.5 Q447 166 391 166 Q360 166 330.5 178.5 Q301 191 275 206 Q249 221 226.5 233.5 Q204 246 187 246 Q173 246 165 238 L106 176 L53 225 Q80 275 123.5 305 Q167 335 224 335 Z " />
<glyph glyph-name="notequal" unicode="&#x2260;" horiz-adv-x="549" d="M66 470 L325 470 L369 536 L446 536 L402 470 L494 470 L494 375 L339 375 L293 305 L491 305 L491 210 L231 210 L187 143 L109 143 L153 210 L63 210 L63 305 L216 305 L262 375 L66 375 L66 470 Z " />
<glyph glyph-name="lessequal" unicode="&#x2264;" horiz-adv-x="558" d="M59 182 L487 182 L487 87 L59 87 L59 182 Z M59 361 L59 446 L487 595 L487 485 L224 405 L487 320 L487 211 L59 361 Z " />
<glyph glyph-name="greaterequal" unicode="&#x2265;" horiz-adv-x="588" d="M83 87 L83 182 L511 182 L511 87 L83 87 Z M86 321 L349 401 L86 486 L86 595 L514 445 L514 360 L86 211 L86 321 Z " />
<glyph glyph-name="lozenge" unicode="&#x25ca;" horiz-adv-x="610" d="M153 -80 L31 340 L337 782 L479 782 L601 362 L295 -80 L153 -80 Z M477 349 L384 673 L156 352 L248 29 L477 349 Z " />
<glyph glyph-name="f_f" unicode="&#xfb00;" horiz-adv-x="703" d="M171 2 Q163 -37 146 -70.5 Q129 -104 101 -128 Q73 -152 34.5 -166 Q-4 -180 -55 -180 Q-87 -180 -108 -178 Q-129 -176 -135 -174 L-114 -75 L-54 -75 Q-20 -75 -4 -58 Q12 -41 19 -7 L110 423 L49 423 L70 528 L133 528 L138 558 Q144 597 161.5 630.5 Q179 664 207.5 688 Q236 712 277 726 Q318 740 372 740 Q403 740 425.5 738 Q448 736 456 734 L434 628 L370 628 Q329 628 312.5 611 Q296 594 289 562 L282 528 L391 528 L370 423 L259 423 L171 2 L171 2 Z M523 2 Q515 -37 498 -70.5 Q481 -104 453 -128 Q425 -152 386.5 -166 Q348 -180 297 -180 Q265 -180 244 -178 Q223 -176 217 -174 L238 -75 L298 -75 Q332 -75 348 -58 Q364 -41 371 -7 L462 423 L401 423 L422 528 L485 528 L490 558 Q496 597 513.5 630.5 Q531 664 559.5 688 Q588 712 629 726 Q670 740 724 740 Q755 740 777.5 738 Q800 736 808 734 L786 628 L722 628 Q681 628 664.5 611 Q648 594 641 562 L634 528 L743 528 L722 423 L611 423 L523 2 L523 2 Z " />
<glyph glyph-name="fi" unicode="&#xfb01;" horiz-adv-x="615" d="M462 530 L612 530 L499 0 L349 0 L462 530 Z M472 648 Q472 692 496.5 718.5 Q521 745 572 745 Q607 745 625.5 727 Q644 709 644 682 Q644 638 620 611.5 Q596 585 544 585 Q509 585 490.5 603 Q472 621 472 648 Z M171 2 Q163 -37 146 -70.5 Q129 -104 101 -128 Q73 -152 34.5 -166 Q-4 -180 -55 -180 Q-87 -180 -108 -178 Q-129 -176 -135 -174 L-114 -75 L-54 -75 Q-20 -75 -4 -58 Q12 -41 19 -7 L110 423 L49 423 L70 528 L133 528 L138 558 Q144 597 161.5 630.5 Q179 664 207.5 688 Q236 712 277 726 Q318 740 372 740 Q403 740 425.5 738 Q448 736 456 734 L434 628 L370 628 Q329 628 312.5 611 Q296 594 289 562 L282 528 L391 528 L370 423 L259 423 L171 2 L171 2 Z " />
<glyph glyph-name="fl" unicode="&#xfb02;" horiz-adv-x="617" d="M504 730 L654 730 L499 0 L350 0 L504 730 Z M171 2 Q163 -37 146 -70.5 Q129 -104 101 -128 Q73 -152 34.5 -166 Q-4 -180 -55 -180 Q-87 -180 -108 -178 Q-129 -176 -135 -174 L-114 -75 L-54 -75 Q-20 -75 -4 -58 Q12 -41 19 -7 L110 423 L49 423 L70 528 L133 528 L138 558 Q144 597 161.5 630.5 Q179 664 207.5 688 Q236 712 277 726 Q318 740 372 740 Q403 740 425.5 738 Q448 736 456 734 L434 628 L370 628 Q329 628 312.5 611 Q296 594 289 562 L282 528 L391 528 L370 423 L259 423 L171 2 L171 2 Z " />
<glyph glyph-name="f_f_i" unicode="&#xfb03;" horiz-adv-x="967" d="M814 530 L964 530 L851 0 L701 0 L814 530 Z M824 648 Q824 692 848.5 718.5 Q873 745 924 745 Q959 745 977.5 727 Q996 709 996 682 Q996 638 972 611.5 Q948 585 896 585 Q861 585 842.5 603 Q824 621 824 648 Z M171 2 Q163 -37 146 -70.5 Q129 -104 101 -128 Q73 -152 34.5 -166 Q-4 -180 -55 -180 Q-87 -180 -108 -178 Q-129 -176 -135 -174 L-114 -75 L-54 -75 Q-20 -75 -4 -58 Q12 -41 19 -7 L110 423 L49 423 L70 528 L133 528 L138 558 Q144 597 161.5 630.5 Q179 664 207.5 688 Q236 712 277 726 Q318 740 372 740 Q403 740 425.5 738 Q448 736 456 734 L434 628 L370 628 Q329 628 312.5 611 Q296 594 289 562 L282 528 L391 528 L370 423 L259 423 L171 2 L171 2 Z M523 2 Q515 -37 498 -70.5 Q481 -104 453 -128 Q425 -152 386.5 -166 Q348 -180 297 -180 Q265 -180 244 -178 Q223 -176 217 -174 L238 -75 L298 -75 Q332 -75 348 -58 Q364 -41 371 -7 L462 423 L401 423 L422 528 L485 528 L490 558 Q496 597 513.5 630.5 Q531 664 559.5 688 Q588 712 629 726 Q670 740 724 740 Q755 740 777.5 738 Q800 736 808 734 L786 628 L722 628 Q681 628 664.5 611 Q648 594 641 562 L634 528 L743 528 L722 423 L611 423 L523 2 L523 2 Z " />
<glyph glyph-name="f_f_l" unicode="&#xfb04;" horiz-adv-x="972" d="M859 730 L1009 730 L854 0 L705 0 L859 730 Z M171 2 Q163 -37 146 -70.5 Q129 -104 101 -128 Q73 -152 34.5 -166 Q-4 -180 -55 -180 Q-87 -180 -108 -178 Q-129 -176 -135 -174 L-114 -75 L-54 -75 Q-20 -75 -4 -58 Q12 -41 19 -7 L110 423 L49 423 L70 528 L133 528 L138 558 Q144 597 161.5 630.5 Q179 664 207.5 688 Q236 712 277 726 Q318 740 372 740 Q403 740 425.5 738 Q448 736 456 734 L434 628 L370 628 Q329 628 312.5 611 Q296 594 289 562 L282 528 L391 528 L370 423 L259 423 L171 2 L171 2 Z M523 2 Q515 -37 498 -70.5 Q481 -104 453 -128 Q425 -152 386.5 -166 Q348 -180 297 -180 Q265 -180 244 -178 Q223 -176 217 -174 L238 -75 L298 -75 Q332 -75 348 -58 Q364 -41 371 -7 L462 423 L401 423 L422 528 L485 528 L490 558 Q496 597 513.5 630.5 Q531 664 559.5 688 Q588 712 629 726 Q670 740 724 740 Q755 740 777.5 738 Q800 736 808 734 L786 628 L722 628 Q681 628 664.5 611 Q648 594 641 562 L634 528 L743 528 L722 423 L611 423 L523 2 L523 2 Z " />
<glyph glyph-name="longs_t" unicode="&#xfb05;" horiz-adv-x="683" d="M171 2 Q163 -37 145.5 -70.5 Q128 -104 100.5 -128 Q73 -152 34.5 -166 Q-4 -180 -55 -180 Q-87 -180 -108 -178 Q-129 -176 -135 -174 L-114 -75 L-54 -75 Q-20 -75 -4 -58 Q12 -41 19 -7 L110 423 L49 423 L70 528 L133 528 L138 558 Q144 597 161.5 630.5 Q179 664 207.5 688 Q236 712 277 726 Q318 740 372 740 Q403 740 425.5 738 Q448 736 456 734 L434 628 L370 628 Q329 628 312.5 611 Q296 594 289 562 L171 2 L171 2 Z M463 -10 Q398 -10 372.5 19.5 Q347 49 362 120 L426 423 L365 423 L387 528 L441 528 L531 670 L628 670 L598 528 L712 528 L690 423 L575 423 L509 100 L627 100 L604 0 Q601 0 588.5 -2 Q576 -4 557 -5.5 Q538 -7 513.5 -8.5 Q489 -10 463 -10 Z " />
<glyph glyph-name="commaaccent" unicode="&#xf6c3;" horiz-adv-x="228" d="M24 -257 L57 -210 L54 -185 Q43 -178 36.5 -165.5 Q30 -153 30 -139 Q30 -108 53 -83 Q76 -58 115 -58 Q144 -58 161.5 -74.5 Q179 -91 179 -117 Q179 -134 172.5 -148.5 Q166 -163 156 -176 L71 -286 L24 -257 Z " />
<glyph glyph-name="uniF8FF" unicode="&#xf8ff;" horiz-adv-x="1420" d="M368 488 Q379 488 379 477 L379 471 Q388 478 401.5 485 Q415 492 437 492 Q455 492 467.5 484.5 Q480 477 488 466 Q496 473 511 482.5 Q526 492 552 492 Q578 492 593.5 476.5 Q609 461 609 438 L609 306 Q609 295 597 295 L559 295 Q546 295 546 306 L546 422 Q546 431 543.5 434.5 Q541 438 532 438 Q521 438 510.5 433 Q500 428 494 423 L494 306 Q494 295 483 295 L445 295 Q433 295 433 306 L433 422 Q433 431 430.5 434.5 Q428 438 418 438 Q407 438 396.5 433 Q386 428 381 423 L381 306 Q381 295 371 295 L330 295 Q319 295 319 306 L319 477 Q319 488 330 488 L368 488 Z M1033 488 Q1045 488 1045 477 L1046 470 Q1054 477 1068 484.5 Q1082 492 1106 492 Q1135 492 1149 476 Q1163 460 1163 432 L1163 352 Q1163 323 1149 306.5 Q1135 290 1106 290 Q1083 290 1069.5 297.5 Q1056 305 1048 311 L1048 228 Q1048 217 1037 217 L997 217 Q986 217 986 228 L986 477 Q986 488 997 488 L1033 488 Z M286 388 Q286 377 274 377 L181 377 L181 354 Q181 336 204 336 Q229 336 229 354 L229 355 Q229 366 240 366 L272 366 Q284 366 284 355 L284 352 Q284 324 266.5 307 Q249 290 204 290 Q159 290 139 307 Q119 324 119 352 L119 431 Q119 460 139 476 Q159 492 204 492 Q249 492 267.5 476 Q286 460 286 431 L286 388 Z M1360 388 Q1360 377 1349 377 L1255 377 L1255 354 Q1255 336 1278 336 Q1302 336 1302 354 L1302 355 Q1302 366 1314 366 L1346 366 Q1357 366 1357 355 L1357 352 Q1357 324 1340 307 Q1323 290 1278 290 Q1233 290 1213.5 307 Q1194 324 1194 352 L1194 431 Q1194 460 1213.5 476 Q1233 492 1278 492 Q1323 492 1341.5 476 Q1360 460 1360 431 L1360 388 Z M862 407 Q866 393 867.5 382 Q869 371 869 370 Q870 371 873.5 383.5 Q877 396 879 405 L903 477 Q905 482 907 485 Q909 488 915 488 L952 488 Q963 488 963 480 L963 477 L879 228 Q875 217 865 217 L837 217 Q826 217 826 225 L826 228 L842 287 L777 477 Q776 479 776 481 Q776 488 788 488 L828 488 Q834 488 836 485 Q838 482 840 477 L862 407 Z M752 487 Q763 487 763 477 L763 450 Q763 439 752 439 L721 439 L721 362 Q721 344 745 344 L755 344 Q767 344 767 333 L767 306 Q767 295 755 295 L736 295 Q691 295 674.5 309.5 Q658 324 658 355 L658 439 L641 439 Q630 439 630 450 L630 475 Q630 483 641 486 L657 487 L658 487 L658 523 Q658 535 670 535 L709 535 Q721 535 721 523 L721 487 L752 487 Z M462 98 Q462 94 458 94 L344 94 L344 46 Q344 32 354.5 22.5 Q365 13 394 13 Q423 13 432.5 22.5 Q442 32 442 46 L442 54 Q442 58 448 58 L457 58 Q462 58 462 54 L462 45 Q462 24 447.5 10.5 Q433 -3 393 -3 Q354 -3 339 10.5 Q324 24 324 45 L324 147 Q324 168 339 181.5 Q354 195 394 195 Q433 195 447.5 181.5 Q462 168 462 147 L462 98 Z M144 171 Q152 177 169.5 186 Q187 195 211 195 Q239 195 252 182 Q265 169 265 149 L265 5 Q265 0 261 0 L250 0 Q246 0 246 5 L246 145 Q246 159 236.5 167.5 Q227 176 207 176 Q184 176 167.5 167.5 Q151 159 145 153 L145 5 Q145 0 141 0 L130 0 Q125 0 125 5 L125 188 Q125 192 130 192 L139 192 Q144 192 144 188 L144 171 Z M593 191 Q597 191 597 187 L597 179 Q597 174 593 174 L546 174 L546 50 Q546 36 557 26.5 Q568 17 596 17 L602 17 Q607 17 607 12 L607 5 Q607 0 602 0 L593 0 Q554 0 540.5 12.5 Q527 25 527 48 L527 174 L502 174 Q498 174 498 179 L498 186 Q498 190 502 191 L527 191 L527 232 Q527 237 531 237 L542 237 Q546 237 546 232 L546 191 L593 191 Z M344 110 L442 110 L442 146 Q442 160 432 169 Q422 178 394 178 Q365 178 354.5 169 Q344 160 344 146 L344 110 Z M1102 423 Q1102 428 1099.5 433 Q1097 438 1085 438 Q1074 438 1064 432.5 Q1054 427 1048 423 L1048 360 Q1054 356 1064 350 Q1074 344 1085 344 Q1097 344 1099.5 350 Q1102 356 1102 361 L1102 423 Z M181 417 L229 417 L229 428 Q229 446 204 446 Q181 446 181 428 L181 417 Z M1255 417 L1302 417 L1302 428 Q1302 446 1278 446 Q1255 446 1255 428 L1255 417 Z M60 5 Q60 0 55 0 L44 0 Q40 0 40 5 L40 35 Q40 40 44 40 L55 40 Q60 40 60 35 L60 5 Z " />
<glyph glyph-name="zero.tab" unicode="&#xff10;" horiz-adv-x="600" d="M257 -10 Q198 -10 153.5 10 Q109 30 80 65 Q51 100 36.5 147 Q22 194 22 247 Q22 325 42.5 407 Q63 489 105.5 556.5 Q148 624 212.5 667 Q277 710 365 710 Q424 710 468 690 Q512 670 541 634.5 Q570 599 584 551.5 Q598 504 598 450 Q598 373 577 292 Q556 211 513.5 143.5 Q471 76 407 33 Q343 -10 257 -10 Z M263 114 Q294 114 319 133 Q344 152 363.5 183.5 Q383 215 396.5 254.5 Q410 294 419 335 Q428 376 432.5 415 Q437 454 437 484 Q437 531 418.5 558 Q400 585 357 585 Q326 585 300.5 566 Q275 547 255.5 516 Q236 485 222 445.5 Q208 406 199 365 Q190 324 186 285 Q182 246 182 216 Q182 168 200 141 Q218 114 263 114 Z " />
<glyph glyph-name="one.tab" unicode="&#xff11;" horiz-adv-x="600" d="M48 0 L70 105 L193 105 L288 553 L165 553 L187 661 L278 661 Q325 661 357.5 675 Q390 689 401 710 L481 710 L352 105 L476 105 L454 0 L48 0 Z " />
<glyph glyph-name="two.tab" unicode="&#xff12;" horiz-adv-x="600" d="M148 662 Q157 666 176 674 Q195 682 223 690 Q251 698 286 704 Q321 710 362 710 Q422 710 463.5 694.5 Q505 679 531 654 Q557 629 568.5 597.5 Q580 566 580 535 Q580 490 565 456 Q550 422 519 391 Q488 360 440 329 Q392 298 325 260 Q285 237 260.5 222.5 Q236 208 222 196 Q208 184 201 172 Q194 160 190 143 L187 131 L505 131 L478 0 L1 0 L27 129 Q34 165 47.5 193.5 Q61 222 86 247.5 Q111 273 149.5 299 Q188 325 246 358 Q287 381 318 400 Q349 419 370 437 Q391 455 401.5 474.5 Q412 494 412 518 Q412 548 390.5 565 Q369 582 320 582 Q282 582 228.5 569.5 Q175 557 125 534 L148 662 Z " />
<glyph glyph-name="three.tab" unicode="&#xff13;" horiz-adv-x="600" d="M161 674 Q189 687 237.5 698.5 Q286 710 347 710 Q404 710 444.5 696 Q485 682 510.5 659.5 Q536 637 548 608.5 Q560 580 560 551 Q560 470 515 421.5 Q470 373 395 359 L395 355 Q443 338 474 307 Q505 276 505 220 Q505 178 489 136.5 Q473 95 439 62.5 Q405 30 351.5 10 Q298 -10 223 -10 Q146 -10 91 4 Q36 18 14 27 L37 141 Q94 122 137 117 Q180 112 206 112 Q242 112 268 121 Q294 130 310.5 145.5 Q327 161 335 182 Q343 203 343 226 Q343 265 323 283.5 Q303 302 253 302 L189 302 L211 415 L281 415 Q332 415 364.5 441.5 Q397 468 397 516 Q397 530 393 543 Q389 556 378.5 565.5 Q368 575 350.5 581 Q333 587 306 587 Q271 587 232.5 581.5 Q194 576 140 558 L161 674 Z " />
<glyph glyph-name="four.tab" unicode="&#xff14;" horiz-adv-x="600" d="M382 524 L152 284 L330 284 L382 524 Z M463 162 L428 0 L270 0 L304 162 L-9 162 L15 284 L421 710 L577 710 L488 284 L569 284 L545 162 L463 162 Z " />
<glyph glyph-name="five.tab" unicode="&#xff15;" horiz-adv-x="600" d="M224 -10 Q177 -10 139 -3 Q101 4 73 12 Q40 22 15 35 L41 158 Q90 136 132.5 125.5 Q175 115 223 115 Q259 115 285.5 124.5 Q312 134 329.5 149.5 Q347 165 355 185.5 Q363 206 363 228 Q363 276 333 296.5 Q303 317 247 317 L97 317 L178 700 L584 700 L556 568 L284 568 L257 442 L290 442 Q338 442 381.5 431.5 Q425 421 457 397 Q489 373 508 334.5 Q527 296 527 241 Q527 196 509.5 151 Q492 106 455 70 Q418 34 360.5 12 Q303 -10 224 -10 Z " />
<glyph glyph-name="six.tab" unicode="&#xff16;" horiz-adv-x="600" d="M548 253 Q548 188 524 138.5 Q500 89 461 56 Q422 23 371.5 6.5 Q321 -10 268 -10 Q164 -10 103 48 Q42 106 42 228 Q42 268 50.5 319 Q59 370 78 423.5 Q97 477 127.5 528.5 Q158 580 202.5 620.5 Q247 661 306 685.5 Q365 710 442 710 Q497 710 537 702 Q577 694 596 687 L568 569 Q532 580 497.5 584 Q463 588 435 588 Q358 588 301 531.5 Q244 475 216 376 Q245 399 280.5 412.5 Q316 426 361 426 Q396 426 429.5 415.5 Q463 405 489.5 384 Q516 363 532 330.5 Q548 298 548 253 Z M282 103 Q303 103 324 110.5 Q345 118 361 134.5 Q377 151 387 175.5 Q397 200 397 235 Q397 273 374.5 293.5 Q352 314 317 314 Q287 314 256.5 301 Q226 288 195 259 Q194 245 193.5 229.5 Q193 214 193 198 Q193 178 197.5 161 Q202 144 212.5 131 Q223 118 240 110.5 Q257 103 282 103 Z " />
<glyph glyph-name="seven.tab" unicode="&#xff17;" horiz-adv-x="600" d="M83 0 L424 568 L123 568 L151 700 L618 700 L600 618 L258 0 L83 0 Z " />
<glyph glyph-name="eight.tab" unicode="&#xff18;" horiz-adv-x="600" d="M247 -10 Q181 -10 138 4 Q95 18 69 41 Q43 64 32.5 93.5 Q22 123 22 154 Q22 201 38.5 234.5 Q55 268 78.5 291 Q102 314 128.5 328 Q155 342 176 349 Q147 373 128.5 407 Q110 441 110 489 Q110 538 130 578.5 Q150 619 185 648 Q220 677 268 693.5 Q316 710 372 710 Q430 710 469.5 696 Q509 682 533 660.5 Q557 639 567.5 612 Q578 585 578 559 Q578 488 543 441.5 Q508 395 455 371 Q492 345 511.5 310.5 Q531 276 531 228 Q531 172 509 128 Q487 84 449 53 Q411 22 359 6 Q307 -10 247 -10 Z M253 524 Q253 510 259 497.5 Q265 485 278.5 472 Q292 459 314.5 445.5 Q337 432 371 416 Q385 425 398.5 436 Q412 447 423 461 Q434 475 440.5 493 Q447 511 447 532 Q447 564 421.5 581.5 Q396 599 354 599 Q307 599 280 578.5 Q253 558 253 524 Z M260 101 Q289 101 311 110 Q333 119 347.5 133 Q362 147 369 164 Q376 181 376 198 Q376 217 367.5 231 Q359 245 343 257 Q327 269 305 280 Q283 291 256 302 Q245 297 228 287 Q211 277 195 262 Q179 247 167 225.5 Q155 204 155 176 Q155 147 179.5 124 Q204 101 260 101 Z " />
<glyph glyph-name="nine.tab" unicode="&#xff19;" horiz-adv-x="600" d="M304 386 Q334 386 364.5 399 Q395 412 426 441 Q427 455 427.5 470.5 Q428 486 428 502 Q428 541 408 569 Q388 597 339 597 Q318 597 297 589.5 Q276 582 260 565.5 Q244 549 234 524 Q224 499 224 465 Q224 427 246.5 406.5 Q269 386 304 386 Z M179 -10 Q124 -10 84 -2 Q44 6 25 13 L53 131 Q89 120 123.5 116 Q158 112 186 112 Q262 112 319 168 Q376 224 405 323 Q377 301 342 287.5 Q307 274 260 274 Q225 274 191 284.5 Q157 295 131 316 Q105 337 89 369.5 Q73 402 73 447 Q73 512 97 561.5 Q121 611 160 644 Q199 677 249.5 693.5 Q300 710 353 710 Q457 710 518 652 Q579 594 579 472 Q579 432 570.5 381 Q562 330 543 276.5 Q524 223 493.5 171.5 Q463 120 418.5 79.5 Q374 39 314.5 14.5 Q255 -10 179 -10 Z " />
<glyph glyph-name="uni215F" unicode="&#x215f;" horiz-adv-x="363" d="M61 376 L75 442 L131 442 L166 607 L111 607 L125 675 L175 675 Q191 675 205.5 683.5 Q220 692 225 703 L282 703 L226 442 L285 442 L271 376 L61 376 Z M534 700 L619 700 L123 0 L38 0 L534 700 Z " />
<glyph glyph-name="uni2153" unicode="&#x2153;" horiz-adv-x="656" d="M53 376 L67 442 L123 442 L158 607 L103 607 L117 675 L167 675 Q183 675 197.5 683.5 Q212 692 217 703 L274 703 L218 442 L277 442 L263 376 L53 376 Z M533 700 L618 700 L122 0 L37 0 L533 700 Z M353 85 Q378 77 404 73.5 Q430 70 448 70 Q488 70 488 102 Q488 127 461 127 L419 127 L433 199 L475 199 Q492 199 502 207.5 Q512 216 512 230 Q512 239 505.5 245 Q499 251 482 251 Q468 251 444 249 Q420 247 390 241 L406 314 Q421 317 439 321 Q454 324 473 326.5 Q492 329 512 329 Q539 329 557.5 323 Q576 317 587 306.5 Q598 296 603 282.5 Q608 269 608 254 Q608 222 590.5 199 Q573 176 539 166 L539 163 Q584 147 584 104 Q584 84 576.5 64.5 Q569 45 552.5 29.5 Q536 14 510.5 4.5 Q485 -5 448 -5 Q425 -5 405.5 -2.5 Q386 0 371 4 Q353 8 339 14 L353 85 Z " />
<glyph glyph-name="uni2154" unicode="&#x2154;" horiz-adv-x="686" d="M50 376 L63 435 Q67 456 74 470 Q81 484 93 496 Q105 508 123 520 Q141 532 168 548 Q203 568 218.5 581.5 Q234 595 234 607 Q234 613 228 618 Q222 623 205 623 Q182 623 154.5 618 Q127 613 102 603 L119 683 Q134 689 152 694 Q167 698 187 701.5 Q207 705 230 705 Q258 705 277 698.5 Q296 692 308 681.5 Q320 671 325 657 Q330 643 330 629 Q330 607 324.5 590 Q319 573 306 557.5 Q293 542 271.5 526.5 Q250 511 218 493 Q191 477 180 470.5 Q169 464 166 456 L304 456 L287 376 L50 376 Z M563 700 L648 700 L152 0 L67 0 L563 700 Z M383 85 Q408 77 434 73.5 Q460 70 478 70 Q518 70 518 102 Q518 127 491 127 L449 127 L463 199 L505 199 Q522 199 532 207.5 Q542 216 542 230 Q542 239 535.5 245 Q529 251 512 251 Q498 251 474 249 Q450 247 420 241 L436 314 Q451 317 469 321 Q484 324 503 326.5 Q522 329 542 329 Q569 329 587.5 323 Q606 317 617 306.5 Q628 296 633 282.5 Q638 269 638 254 Q638 222 620.5 199 Q603 176 569 166 L569 163 Q614 147 614 104 Q614 84 606.5 64.5 Q599 45 582.5 29.5 Q566 14 540.5 4.5 Q515 -5 478 -5 Q455 -5 435.5 -2.5 Q416 0 401 4 Q383 8 369 14 L383 85 Z " />
<glyph glyph-name="uni2155" unicode="&#x2155;" horiz-adv-x="667" d="M533 700 L618 700 L122 0 L37 0 L533 700 Z M53 376 L67 442 L123 442 L158 607 L103 607 L117 675 L167 675 Q183 675 197.5 683.5 Q212 692 217 703 L274 703 L218 442 L277 442 L263 376 L53 376 Z M439 -5 Q418 -5 401 -2 Q384 1 371 6 Q356 10 345 17 L360 90 Q384 79 403 76 Q422 73 445 73 Q477 73 488 85 Q499 97 499 108 Q499 133 448 133 L375 133 L416 324 L629 324 L612 244 L469 244 L461 208 L478 208 Q534 208 566 187 Q598 166 598 121 Q598 97 589.5 74.5 Q581 52 562 34 Q543 16 512.5 5.5 Q482 -5 439 -5 Z " />
</font>
</svg>
