<?xml version="1.0" encoding="UTF-8"?>
<svg xmlns="http://www.w3.org/2000/svg" xmlns:xlink="http://www.w3.org/1999/xlink" version="1.2" >
<font id="CO Md">
<font-face  font-family="CO" units-per-em="1000" ascent="1000" descent="-300" font-style="normal" font-weight="500" font-stretch="normal" cap-height="700" x-height="526" underline-position="-109" underline-thickness="73" />
<missing-glyph  horiz-adv-x="836" d="M56 349 Q56 424 84.5 490 Q113 556 162 604.5 Q211 653 277 681.5 Q343 710 418 710 Q493 710 559 681.5 Q625 653 673.5 604.5 Q722 556 750.5 490 Q779 424 779 349 Q779 274 750.5 209 Q722 144 672.5 95 Q623 46 557.5 18 Q492 -10 417 -10 Q342 -10 276 18 Q210 46 161.5 95 Q113 144 84.5 209 Q56 274 56 349 Z M117 349 Q117 287 140.5 232 Q164 177 204.5 136 Q245 95 299.5 71.5 Q354 48 417 48 Q480 48 534.5 71.5 Q589 95 630 136 Q671 177 694.5 232 Q718 287 718 349 Q718 412 694.5 467 Q671 522 630.5 563 Q590 604 535.5 627.5 Q481 651 418 651 Q355 651 300.5 627.5 Q246 604 205 563 Q164 522 140.5 467 Q117 412 117 349 Z M297 509 Q315 520 335 529 Q352 537 375.5 543 Q399 549 425 549 Q464 549 490.5 540 Q517 531 533.5 516 Q550 501 557.5 482.5 Q565 464 565 445 Q565 407 547.5 382.5 Q530 358 488 338 Q459 325 449 316.5 Q439 308 439 294 L439 282 L425 246 L388 246 L373 282 L373 294 Q373 328 390 344 Q407 360 439 376 Q471 392 479 408.5 Q487 425 487 441 Q487 464 471 482 Q455 500 417 500 Q397 500 381 495 Q365 490 352 485 L344 476 L344 425 L297 425 L297 509 Z M361 160 Q361 178 373.5 191 Q386 204 407 204 Q427 204 440 191 Q453 178 453 160 Q453 142 440 129 Q427 116 407 116 Q386 116 373.5 129 Q361 142 361 160 Z " />
<glyph glyph-name="NULL" d="" />
<glyph glyph-name="nonmarkingreturn" unicode="&#xd;" d="" />
<glyph glyph-name="space" unicode="&#x20;" horiz-adv-x="222" d="" />
<glyph glyph-name="exclam" unicode="&#x21;" horiz-adv-x="257" d="M55 60 Q55 89 76 110 Q97 131 129 131 Q161 131 182 110 Q203 89 203 60 Q203 31 182 10.5 Q161 -10 129 -10 Q97 -10 76 10.5 Q55 31 55 60 Z M104 206 L79 245 L60 510 L60 700 L196 700 L196 510 L177 245 L153 206 L104 206 Z " />
<glyph glyph-name="quotedbl" unicode="&#x22;" horiz-adv-x="373" d="M72 452 L55 620 L55 700 L160 700 L160 620 L143 452 L72 452 Z M230 452 L213 620 L213 700 L318 700 L318 620 L301 452 L230 452 Z " />
<glyph glyph-name="numbersign" unicode="&#x23;" horiz-adv-x="556" d="M481 152 L370 152 L320 0 L247 0 L297 152 L186 152 L136 0 L63 0 L113 152 L35 152 L35 214 L133 214 L167 315 L75 315 L75 377 L187 377 L237 528 L311 528 L261 377 L371 377 L421 528 L495 528 L445 377 L521 377 L521 315 L424 315 L391 214 L481 214 L481 152 Z M207 214 L317 214 L351 315 L240 315 L207 214 Z " />
<glyph glyph-name="dollar" unicode="&#x24;" horiz-adv-x="564" d="M313 710 Q354 709 387.5 705.5 Q421 702 447 697 Q476 692 501 685 L501 525 L424 525 L424 614 L408 629 Q372 636 313 638 L313 412 Q363 398 402.5 380.5 Q442 363 470 339 Q498 315 512.5 283 Q527 251 527 207 Q527 158 511.5 120.5 Q496 83 467.5 56.5 Q439 30 400 14 Q361 -2 313 -7 L313 -102 L260 -102 L260 -10 L259 -10 Q212 -10 173.5 -6 Q135 -2 107 3 Q74 9 48 17 L48 185 L125 185 L125 89 L141 73 Q163 68 192 65 Q221 62 259 62 L260 62 L260 303 Q208 318 169 336.5 Q130 355 103.5 380 Q77 405 64 437.5 Q51 470 51 513 Q51 556 66 589.5 Q81 623 109 647.5 Q137 672 175 687 Q213 702 260 707 L260 787 L313 787 L313 710 Z M405 178 Q405 219 384.5 243.5 Q364 268 313 287 L313 67 Q361 77 383 105.5 Q405 134 405 178 Z M165 535 Q165 517 168.5 502.5 Q172 488 182.5 475 Q193 462 211.5 451 Q230 440 260 429 L260 633 Q215 624 190 598.5 Q165 573 165 535 Z " />
<glyph glyph-name="percent" unicode="&#x25;" horiz-adv-x="668" d="M299 539 Q299 452 263.5 412 Q228 372 167 372 Q106 372 70 412 Q34 452 34 540 Q34 627 70 666.5 Q106 706 167 706 Q228 706 263.5 666.5 Q299 627 299 539 Z M223 539 Q223 598 210.5 625.5 Q198 653 167 653 Q136 653 123.5 625.5 Q111 598 111 540 Q111 482 123.5 453.5 Q136 425 167 425 Q198 425 210.5 453.5 Q223 482 223 539 Z M633 162 Q633 75 597.5 35 Q562 -5 501 -5 Q440 -5 404 35 Q368 75 368 163 Q368 250 404 289.5 Q440 329 501 329 Q562 329 597.5 289.5 Q633 250 633 162 Z M557 162 Q557 221 544.5 248.5 Q532 276 501 276 Q470 276 457.5 248.5 Q445 221 445 163 Q445 105 457.5 76.5 Q470 48 501 48 Q532 48 544.5 76.5 Q557 105 557 162 Z M71 0 L540 700 L601 700 L132 0 L71 0 Z " />
<glyph glyph-name="ampersand" unicode="&#x26;" horiz-adv-x="726" d="M690 396 L690 329 L633 329 L618 313 Q605 278 587.5 239 Q570 200 546 162 L613 82 L633 67 L699 67 L699 0 L566 0 Q538 0 522 12.5 Q506 25 493 41 L467 71 Q425 35 371 12.5 Q317 -10 248 -10 Q194 -10 153.5 5 Q113 20 86.5 45 Q60 70 47 102 Q34 134 34 168 Q34 220 55 256 Q76 292 106 315 Q136 338 167.5 350 Q199 362 220 368 L213 377 Q168 432 155.5 472 Q143 512 143 541 Q143 573 155.5 603.5 Q168 634 193 657.5 Q218 681 254 695.5 Q290 710 337 710 Q383 710 416.5 698.5 Q450 687 471.5 667.5 Q493 648 503 621.5 Q513 595 513 565 Q513 532 500.5 504.5 Q488 477 467.5 454.5 Q447 432 420 414 Q393 396 364 381 L499 218 Q512 239 522.5 263 Q533 287 543 313 L527 329 L489 329 L489 396 L690 396 Z M282 72 Q360 72 422 125 L251 329 Q240 323 224 313.5 Q208 304 193.5 287.5 Q179 271 169 247 Q159 223 159 189 Q159 166 166.5 144.5 Q174 123 189.5 107 Q205 91 228 81.5 Q251 72 282 72 Z M253 565 Q253 542 265.5 513 Q278 484 308 449 L332 419 Q348 430 364 444.5 Q380 459 393 477.5 Q406 496 414 518.5 Q422 541 422 568 Q422 610 399.5 631 Q377 652 343 652 Q300 652 276.5 627.5 Q253 603 253 565 Z " />
<glyph glyph-name="quotesingle" unicode="&#x27;" horiz-adv-x="217" d="M72 452 L55 620 L55 700 L162 700 L162 620 L145 452 L72 452 Z " />
<glyph glyph-name="parenleft" unicode="&#x28;" horiz-adv-x="343" d="M300 -113 Q246 -80 199.5 -42 Q153 -4 118.5 40.5 Q84 85 64.5 137 Q45 189 45 250 L45 431 Q45 492 64.5 544 Q84 596 118.5 641 Q153 686 199.5 724.5 Q246 763 300 796 L326 763 Q248 696 204 615 Q160 534 160 431 L160 250 Q160 148 204 67 Q248 -14 325 -80 L300 -113 Z " />
<glyph glyph-name="parenright" unicode="&#x29;" horiz-adv-x="343" d="M18 -80 Q94 -14 139 67 Q184 148 184 250 L184 431 Q184 533 139 614.5 Q94 696 17 763 L43 796 Q97 763 143.5 724.5 Q190 686 224.5 641 Q259 596 278.5 544 Q298 492 298 431 L298 250 Q298 189 278.5 137 Q259 85 224.5 40.5 Q190 -4 143.5 -42 Q97 -80 43 -113 L18 -80 Z " />
<glyph glyph-name="asterisk" unicode="&#x2a;" horiz-adv-x="447" d="M247 554 L318 613 L370 640 L409 563 L358 537 L258 511 L332 449 L366 403 L298 351 L263 397 L223 484 L184 397 L149 351 L80 403 L115 449 L188 511 L88 537 L37 563 L76 640 L128 613 L199 554 L180 643 L180 700 L266 700 L266 643 L247 554 Z " />
<glyph glyph-name="plus" unicode="&#x2b;" horiz-adv-x="494" d="M40 375 L208 375 L208 544 L286 544 L286 375 L454 375 L454 300 L286 300 L286 130 L208 130 L208 300 L40 300 L40 375 Z " />
<glyph glyph-name="comma" unicode="&#x2c;" horiz-adv-x="241" d="M50 57 Q50 88 67.5 106 Q85 124 120 124 Q155 124 173 106 Q191 88 191 57 Q191 44 186 32.5 Q181 21 176 10 L104 -124 L53 -96 L92 -23 L84 -3 Q50 13 50 57 Z " />
<glyph glyph-name="hyphen" unicode="&#x2d;" horiz-adv-x="360" d="M59 333 L300 333 L300 250 L59 250 L59 333 Z " />
<glyph glyph-name="period" unicode="&#x2e;" horiz-adv-x="238" d="M49 57 Q49 83 69.5 103.5 Q90 124 119 124 Q148 124 169 103.5 Q190 83 190 57 Q190 30 169 10 Q148 -10 119 -10 Q90 -10 69.5 10 Q49 30 49 57 Z " />
<glyph glyph-name="slash" unicode="&#x2f;" horiz-adv-x="430" d="M21 -102 L332 787 L409 787 L98 -102 L21 -102 Z " />
<glyph glyph-name="zero" unicode="0" horiz-adv-x="631" d="M583 350 Q583 258 563.5 190.5 Q544 123 509 78.5 Q474 34 424.5 12 Q375 -10 315 -10 Q255 -10 206 12 Q157 34 121.5 78.5 Q86 123 66.5 190.5 Q47 258 47 350 Q47 442 66.5 509.5 Q86 577 121.5 621.5 Q157 666 206.5 688 Q256 710 315 710 Q375 710 424.5 688 Q474 666 509 621.5 Q544 577 563.5 509.5 Q583 442 583 350 Z M451 350 Q451 491 419.5 559.5 Q388 628 315 628 Q242 628 210.5 559.5 Q179 491 179 350 Q179 209 210.5 140.5 Q242 72 315 72 Q388 72 419.5 140.5 Q451 209 451 350 Z " />
<glyph glyph-name="one" unicode="1" horiz-adv-x="413" d="M123 657 Q161 657 187 674.5 Q213 692 220 710 L284 710 L284 83 L299 67 L396 67 L396 0 L45 0 L45 67 L141 67 L157 83 L157 572 L141 588 L45 588 L45 657 L123 657 Z " />
<glyph glyph-name="two" unicode="2" horiz-adv-x="576" d="M59 654 Q87 670 122 682 Q151 693 191.5 701.5 Q232 710 279 710 Q343 710 387 694.5 Q431 679 458.5 653.5 Q486 628 498.5 594.5 Q511 561 511 525 Q511 487 499.5 456 Q488 425 463.5 396.5 Q439 368 401.5 339.5 Q364 311 312 277 Q271 250 245 230.5 Q219 211 204.5 195 Q190 179 184.5 164 Q179 149 179 132 L179 98 L437 98 L453 113 L453 196 L528 196 L528 0 L51 0 L51 126 Q51 154 60.5 179 Q70 204 92 230 Q114 256 150 284 Q186 312 238 346 Q280 373 307 394.5 Q334 416 350.5 436 Q367 456 373.5 476 Q380 496 380 521 Q380 566 352.5 596.5 Q325 627 262 627 Q230 627 202 621 Q174 615 154 607 L138 591 L138 509 L59 509 L59 654 Z " />
<glyph glyph-name="three" unicode="3" horiz-adv-x="563" d="M61 662 Q88 675 121 686 Q149 695 186 702.5 Q223 710 266 710 Q331 710 376.5 694.5 Q422 679 450 654 Q478 629 490.5 596.5 Q503 564 503 530 Q503 491 493.5 462 Q484 433 467 413 Q450 393 427 379.5 Q404 366 376 359 L376 356 Q408 348 434 335.5 Q460 323 478 303 Q496 283 505.5 254.5 Q515 226 515 188 Q515 150 501.5 114.5 Q488 79 458 50.5 Q428 22 380 5 Q332 -12 263 -12 Q218 -12 180 -5 Q142 2 113 11 Q80 22 51 35 L51 184 L129 184 L129 100 L143 86 Q163 78 190 73 Q217 68 249 68 Q320 68 352 103.5 Q384 139 384 191 Q384 228 375 253 Q366 278 349.5 293.5 Q333 309 310 315.5 Q287 322 259 322 L186 322 L186 396 L258 396 Q282 396 303 402 Q324 408 340 422.5 Q356 437 365 460 Q374 483 374 517 Q374 540 367.5 561 Q361 582 347 597.5 Q333 613 309.5 622 Q286 631 252 631 Q223 631 197.5 625.5 Q172 620 154 613 L139 599 L139 515 L61 515 L61 662 Z " />
<glyph glyph-name="four" unicode="4" horiz-adv-x="595" d="M22 271 L351 710 L465 710 L465 271 L555 271 L555 197 L465 197 L465 83 L481 67 L555 67 L555 0 L241 0 L241 67 L322 67 L338 83 L338 197 L22 197 L22 271 Z M338 271 L338 578 L106 271 L338 271 Z " />
<glyph glyph-name="five" unicode="5" horiz-adv-x="561" d="M162 602 L162 419 L255 419 Q380 419 451 368 Q522 317 522 212 Q522 171 506.5 131 Q491 91 459 59.5 Q427 28 378 8.5 Q329 -11 261 -11 Q216 -11 178.5 -4 Q141 3 112 11 Q79 21 51 34 L51 184 L129 184 L129 106 L145 90 Q164 83 191 78 Q218 73 252 73 Q289 73 316 84 Q343 95 359.5 113.5 Q376 132 384 155.5 Q392 179 392 204 Q392 240 380.5 264.5 Q369 289 349 304 Q329 319 300 325 Q271 331 237 331 L72 331 L72 700 L483 700 L483 517 L407 517 L407 587 L391 602 L162 602 Z " />
<glyph glyph-name="six" unicode="6" horiz-adv-x="582" d="M335 424 Q377 424 415 411.5 Q453 399 482 373.5 Q511 348 528 308 Q545 268 545 214 Q545 157 525.5 115 Q506 73 473 45 Q440 17 395.5 3.5 Q351 -10 302 -10 Q243 -10 195.5 8.5 Q148 27 115 65.5 Q82 104 64.5 163 Q47 222 47 304 Q47 386 61.5 459.5 Q76 533 111.5 588.5 Q147 644 205 677 Q263 710 350 710 Q379 710 405 706.5 Q431 703 451 698 Q471 693 484 688.5 Q497 684 500 683 L500 530 L423 530 L423 610 L407 627 Q380 635 349 635 Q299 635 265.5 612.5 Q232 590 212 551 Q192 512 183 461 Q174 410 172 353 Q201 382 242.5 403 Q284 424 335 424 Z M308 346 Q266 346 232 327 Q198 308 172 282 Q174 170 204 118.5 Q234 67 303 67 Q365 67 394.5 102 Q424 137 424 211 Q424 279 393 312.5 Q362 346 308 346 Z " />
<glyph glyph-name="seven" unicode="7" horiz-adv-x="511" d="M496 700 L496 635 L255 0 L122 0 L399 604 L123 604 L107 589 L107 515 L31 515 L31 700 L496 700 Z " />
<glyph glyph-name="eight" unicode="8" horiz-adv-x="588" d="M520 543 Q520 514 511 489.5 Q502 465 487 445.5 Q472 426 452 410.5 Q432 395 409 383 Q439 370 463.5 353.5 Q488 337 505.5 315.5 Q523 294 533 266.5 Q543 239 543 203 Q543 151 524.5 111 Q506 71 472 44 Q438 17 391.5 3.5 Q345 -10 289 -10 Q221 -10 174 5 Q127 20 98.5 45 Q70 70 57.5 101 Q45 132 45 165 Q45 208 59 239.5 Q73 271 94 292 Q115 313 138.5 326 Q162 339 182 347 Q132 373 99.5 413 Q67 453 67 516 Q67 560 83.5 596 Q100 632 131 657.5 Q162 683 205 696.5 Q248 710 302 710 Q364 710 406 694.5 Q448 679 473.5 654.5 Q499 630 509.5 600.5 Q520 571 520 543 Z M239 321 Q231 316 216 304.5 Q201 293 187 276 Q173 259 162.5 235 Q152 211 152 181 Q152 158 159 137.5 Q166 117 182.5 101.5 Q199 86 225.5 76.5 Q252 67 291 67 Q354 67 387.5 100 Q421 133 421 182 Q421 229 388.5 256 Q356 283 285 306 L239 321 Z M175 541 Q175 521 181.5 504.5 Q188 488 204.5 474 Q221 460 249 446 Q277 432 320 417 L345 408 Q373 425 395.5 455 Q418 485 418 523 Q418 572 387.5 603 Q357 634 295 634 Q238 634 206.5 608.5 Q175 583 175 541 Z " />
<glyph glyph-name="nine" unicode="9" horiz-adv-x="582" d="M246 276 Q205 276 167 288.5 Q129 301 100 326.5 Q71 352 54 392 Q37 432 37 486 Q37 543 57 585 Q77 627 110.5 654.5 Q144 682 188 696 Q232 710 280 710 Q398 710 466 634.5 Q534 559 534 396 Q534 315 520 241.5 Q506 168 471.5 112 Q437 56 379 23 Q321 -10 232 -10 Q203 -10 177 -6.5 Q151 -3 131 2 Q111 7 98 11.5 Q85 16 82 18 L82 170 L159 170 L159 90 L175 74 Q187 70 201 67.5 Q215 65 232 65 Q282 65 315.5 87.5 Q349 110 369 148.5 Q389 187 398 237.5 Q407 288 409 345 Q380 316 339 296 Q298 276 246 276 Z M272 354 Q314 354 348.5 373 Q383 392 409 418 Q406 530 377 581.5 Q348 633 280 633 Q158 633 158 489 Q158 421 188 387.5 Q218 354 272 354 Z " />
<glyph glyph-name="colon" unicode="&#x3a;" horiz-adv-x="260" d="M59 57 Q59 83 80 103.5 Q101 124 130 124 Q159 124 180 103.5 Q201 83 201 57 Q201 30 180 10 Q159 -10 130 -10 Q101 -10 80 10 Q59 30 59 57 Z M59 471 Q59 497 80 517.5 Q101 538 130 538 Q159 538 180 517.5 Q201 497 201 471 Q201 444 180 424 Q159 404 130 404 Q101 404 80 424 Q59 444 59 471 Z " />
<glyph glyph-name="semicolon" unicode="&#x3b;" horiz-adv-x="264" d="M63 471 Q63 497 83.5 517.5 Q104 538 133 538 Q147 538 160 532.5 Q173 527 182.5 517.5 Q192 508 198 496 Q204 484 204 471 Q204 444 183 424 Q162 404 133 404 Q104 404 83.5 424 Q63 444 63 471 Z M62 57 Q62 88 80 106 Q98 124 133 124 Q168 124 186 106 Q204 88 204 57 Q204 44 198.5 32.5 Q193 21 188 10 L117 -124 Q116 -124 108.5 -119.5 Q101 -115 91 -110 L65 -96 L104 -23 L97 -3 Q62 13 62 57 Z " />
<glyph glyph-name="less" unicode="&#x3c;" horiz-adv-x="519" d="M36 308 L36 363 L457 537 L457 455 L157 337 L457 215 L457 133 L36 308 Z " />
<glyph glyph-name="equal" unicode="&#x3d;" horiz-adv-x="538" d="M62 454 L476 454 L476 379 L62 379 L62 454 Z M62 293 L476 293 L476 218 L62 218 L62 293 Z " />
<glyph glyph-name="greater" unicode="&#x3e;" horiz-adv-x="519" d="M62 215 L362 337 L62 455 L62 537 L483 363 L483 308 L62 133 L62 215 Z " />
<glyph glyph-name="question" unicode="&#x3f;" horiz-adv-x="507" d="M34 644 Q63 662 96 677 Q125 689 163.5 699.5 Q202 710 247 710 Q311 710 355 695 Q399 680 426.5 655.5 Q454 631 466 600 Q478 569 478 536 Q478 474 448.5 433 Q419 392 350 360 Q326 349 310.5 340 Q295 331 286 323 Q277 315 273 306 Q269 297 269 285 L269 264 L245 206 L186 206 L161 264 L161 285 Q161 313 168 333 Q175 353 189 368 Q203 383 223.5 395.5 Q244 408 270 421 Q297 434 312.5 448 Q328 462 336 475.5 Q344 489 346 503 Q348 517 348 530 Q348 550 342 568 Q336 586 322.5 600 Q309 614 287 622 Q265 630 233 630 Q200 630 172.5 622 Q145 614 125 603 L109 587 L109 505 L34 505 L34 644 Z M140 61 Q140 91 160.5 112 Q181 133 215 133 Q250 133 270.5 112 Q291 91 291 61 Q291 32 270.5 11 Q250 -10 215 -10 Q181 -10 160.5 11 Q140 32 140 61 Z " />
<glyph glyph-name="at" unicode="&#x40;" horiz-adv-x="870" d="M651 -51 Q609 -70 553.5 -82.5 Q498 -95 432 -95 Q407 -95 368.5 -91 Q330 -87 287 -74.5 Q244 -62 200 -38.5 Q156 -15 121 25 Q86 65 64 123 Q42 181 42 263 Q42 359 73.5 441 Q105 523 162.5 583 Q220 643 300 676.5 Q380 710 478 710 Q566 710 632.5 682.5 Q699 655 743 609 Q787 563 809.5 503 Q832 443 832 378 Q832 298 810 243 Q788 188 754.5 154 Q721 120 681 105 Q641 90 604 90 Q551 90 520.5 108 Q490 126 478 164 Q469 153 455.5 141.5 Q442 130 426.5 121 Q411 112 393.5 106.5 Q376 101 359 101 Q299 101 261 139.5 Q223 178 223 264 Q223 331 242 381 Q261 431 290 464 Q319 497 353.5 513.5 Q388 530 420 530 Q452 530 479 514 Q506 498 518 479 L533 507 Q538 516 544 519 Q550 522 564 522 L623 522 L573 249 Q570 232 570 216 Q570 204 573 192.5 Q576 181 583.5 172 Q591 163 603 157.5 Q615 152 634 152 Q656 152 678.5 165 Q701 178 719 205 Q737 232 748.5 275 Q760 318 760 378 Q760 432 742.5 482 Q725 532 689.5 570 Q654 608 601 630.5 Q548 653 478 653 Q397 653 330 623.5 Q263 594 215 542 Q167 490 140.5 418.5 Q114 347 114 263 Q114 194 132.5 145 Q151 96 180.5 62.5 Q210 29 246.5 9 Q283 -11 319.5 -21.5 Q356 -32 388 -35 Q420 -38 440 -38 Q502 -38 550 -29.5 Q598 -21 638 -7 L651 -51 Z M393 176 Q410 176 430.5 185 Q451 194 471 209 L471 223 Q471 231 472 242 Q473 253 475 263 L504 430 Q491 443 473 448.5 Q455 454 439 454 Q412 454 391 436 Q370 418 356 389.5 Q342 361 334.5 326.5 Q327 292 327 259 Q327 215 344.5 195.5 Q362 176 393 176 Z " />
<glyph glyph-name="A" unicode="A" horiz-adv-x="667" d="M439 193 L193 193 L157 81 L171 67 L227 67 L227 0 L-6 0 L-6 67 L44 67 L60 83 L276 702 L388 702 L611 81 L626 67 L676 67 L676 0 L415 0 L415 67 L465 67 L478 81 L439 193 Z M218 269 L413 269 L313 561 L218 269 Z " />
<glyph glyph-name="B" unicode="B" horiz-adv-x="657" d="M42 67 L98 67 L114 83 L114 617 L98 633 L42 633 L42 700 L341 700 Q397 700 442.5 689 Q488 678 520 656.5 Q552 635 569.5 602 Q587 569 587 524 Q587 461 557.5 424 Q528 387 474 367 L474 364 Q542 346 580 303.5 Q618 261 618 189 Q618 141 600.5 105 Q583 69 550.5 46 Q518 23 471.5 11.5 Q425 0 367 0 L42 0 L42 67 Z M240 623 L240 398 L332 398 Q396 398 428.5 425 Q461 452 461 509 Q461 623 332 623 L240 623 Z M240 321 L240 77 L361 77 Q488 77 488 201 Q488 263 456.5 292 Q425 321 361 321 L240 321 Z " />
<glyph glyph-name="C" unicode="C" horiz-adv-x="593" d="M554 29 Q522 15 476.5 2.5 Q431 -10 362 -10 Q211 -10 127.5 76.5 Q44 163 44 349 Q44 440 68 508 Q92 576 135.5 621 Q179 666 240 688 Q301 710 376 710 Q409 710 438 707 Q467 704 489.5 700 Q512 696 526 692 Q540 688 544 686 L544 516 L465 516 L465 603 L451 618 Q434 623 416 625.5 Q398 628 376 628 Q323 628 285 609.5 Q247 591 223 556.5 Q199 522 188 471.5 Q177 421 177 358 Q177 218 224.5 146.5 Q272 75 382 75 Q405 75 424 76.5 Q443 78 460 83 L475 99 L475 192 L554 192 L554 29 Z " />
<glyph glyph-name="D" unicode="D" horiz-adv-x="703" d="M42 67 L98 67 L114 83 L114 617 L98 633 L42 633 L42 700 L339 700 Q412 700 471 679.5 Q530 659 572 616.5 Q614 574 636.5 509 Q659 444 659 356 Q659 265 636.5 198 Q614 131 572 87 Q530 43 471 21.5 Q412 0 339 0 L42 0 L42 67 Z M241 81 L339 81 Q440 81 482.5 148.5 Q525 216 525 356 Q525 491 482.5 555 Q440 619 339 619 L241 619 L241 81 Z " />
<glyph glyph-name="E" unicode="E" horiz-adv-x="627" d="M241 622 L241 395 L390 395 L406 410 L406 464 L475 464 L475 252 L406 252 L406 306 L391 320 L241 320 L241 78 L494 78 L510 93 L510 178 L585 178 L585 0 L42 0 L42 67 L98 67 L114 83 L114 617 L98 633 L42 633 L42 700 L575 700 L575 523 L500 523 L500 607 L484 622 L241 622 Z " />
<glyph glyph-name="F" unicode="F" horiz-adv-x="614" d="M241 620 L241 383 L404 383 L419 398 L419 451 L488 451 L488 240 L419 240 L419 293 L405 307 L241 307 L241 83 L256 67 L331 67 L331 0 L42 0 L42 67 L98 67 L114 83 L114 617 L98 633 L42 633 L42 700 L588 700 L588 523 L513 523 L513 605 L497 620 L241 620 Z " />
<glyph glyph-name="G" unicode="G" horiz-adv-x="642" d="M559 260 L559 29 Q527 15 479.5 2.5 Q432 -10 362 -10 Q287 -10 228 10.5 Q169 31 128 75 Q87 119 65.5 187 Q44 255 44 350 Q44 441 67.5 508.5 Q91 576 134.5 621 Q178 666 239.5 688 Q301 710 376 710 Q411 710 442 707 Q473 704 497 700 Q521 696 536 692 Q551 688 555 686 L555 516 L478 516 L478 605 L465 618 Q445 623 423.5 626.5 Q402 630 376 630 Q322 630 284.5 612 Q247 594 223 559.5 Q199 525 188 475 Q177 425 177 361 Q177 216 224 142 Q271 68 383 68 Q389 68 398 68.5 Q407 69 416.5 70 Q426 71 434 72 Q442 73 446 75 L446 260 L430 276 L381 276 L381 343 L614 343 L614 276 L574 276 L559 260 Z " />
<glyph glyph-name="H" unicode="H" horiz-adv-x="740" d="M500 317 L241 317 L241 83 L256 67 L313 67 L313 0 L42 0 L42 67 L98 67 L114 83 L114 617 L98 633 L42 633 L42 700 L313 700 L313 633 L256 633 L241 617 L241 398 L500 398 L500 617 L484 633 L428 633 L428 700 L699 700 L699 633 L642 633 L626 617 L626 83 L642 67 L699 67 L699 0 L428 0 L428 67 L484 67 L500 83 L500 317 Z " />
<glyph glyph-name="I" unicode="I" horiz-adv-x="355" d="M114 617 L98 633 L42 633 L42 700 L313 700 L313 633 L256 633 L241 617 L241 83 L256 67 L313 67 L313 0 L42 0 L42 67 L98 67 L114 83 L114 617 Z " />
<glyph glyph-name="J" unicode="J" horiz-adv-x="528" d="M300 617 L284 633 L228 633 L228 700 L499 700 L499 633 L443 633 L427 617 L427 195 Q427 152 413.5 114.5 Q400 77 373 49.5 Q346 22 304.5 6 Q263 -10 206 -10 Q161 -10 128 -2 Q95 6 73 16 Q51 26 39 35 Q27 44 23 46 L23 190 L106 190 L106 101 L119 87 Q150 71 187 71 Q246 71 273 97 Q300 123 300 188 L300 617 Z " />
<glyph glyph-name="K" unicode="K" horiz-adv-x="706" d="M414 384 L627 80 L644 67 L695 67 L695 0 L426 0 L426 67 L478 67 L487 77 L317 324 L241 324 L241 83 L256 67 L313 67 L313 0 L42 0 L42 67 L98 67 L114 83 L114 617 L98 633 L42 633 L42 700 L313 700 L313 633 L256 633 L241 617 L241 393 L316 393 L509 623 L501 633 L450 633 L450 700 L682 700 L682 633 L636 633 L616 620 L414 384 Z " />
<glyph glyph-name="L" unicode="L" horiz-adv-x="576" d="M241 80 L459 80 L475 96 L475 188 L551 188 L551 0 L42 0 L42 67 L98 67 L114 83 L114 617 L98 633 L42 633 L42 700 L313 700 L313 633 L256 633 L241 617 L241 80 Z " />
<glyph glyph-name="M" unicode="M" horiz-adv-x="838" d="M42 67 L98 67 L114 83 L114 617 L98 633 L42 633 L42 700 L232 700 L422 339 L614 700 L796 700 L796 633 L739 633 L723 617 L723 83 L738 67 L796 67 L796 0 L534 0 L534 67 L590 67 L606 83 L606 509 L444 214 L365 214 L212 496 L212 83 L228 67 L285 67 L285 0 L42 0 L42 67 Z " />
<glyph glyph-name="N" unicode="N" horiz-adv-x="732" d="M41 0 L41 67 L98 67 L114 83 L114 617 L98 633 L41 633 L41 700 L224 700 L531 216 L531 617 L515 633 L459 633 L459 700 L698 700 L698 633 L641 633 L626 617 L626 -3 L536 -3 L208 511 L208 83 L224 67 L281 67 L281 0 L41 0 Z " />
<glyph glyph-name="O" unicode="O" horiz-adv-x="670" d="M43 350 Q43 440 64.5 507.5 Q86 575 125 620 Q164 665 217.5 687.5 Q271 710 335 710 Q399 710 453 687.5 Q507 665 545.5 620 Q584 575 605.5 507.5 Q627 440 627 350 Q627 260 605.5 192.5 Q584 125 545.5 80 Q507 35 453 12.5 Q399 -10 335 -10 Q271 -10 217.5 12.5 Q164 35 125 80 Q86 125 64.5 192.5 Q43 260 43 350 Z M177 350 Q177 209 214.5 141.5 Q252 74 335 74 Q418 74 455.5 141.5 Q493 209 493 350 Q493 491 455.5 558.5 Q418 626 335 626 Q252 626 214.5 558.5 Q177 491 177 350 Z " />
<glyph glyph-name="P" unicode="P" horiz-adv-x="641" d="M114 617 L98 633 L42 633 L42 700 L351 700 Q474 700 544 648.5 Q614 597 614 485 Q614 369 543 313.5 Q472 258 349 258 L241 258 L241 83 L256 67 L322 67 L322 0 L42 0 L42 67 L98 67 L114 83 L114 617 Z M241 622 L241 336 L349 336 Q423 336 453.5 371 Q484 406 484 479 Q484 552 453.5 587 Q423 622 351 622 L241 622 Z " />
<glyph glyph-name="Q" unicode="Q" horiz-adv-x="670" d="M43 350 Q43 440 64.5 507.5 Q86 575 125 620 Q164 665 217.5 687.5 Q271 710 335 710 Q399 710 453 687.5 Q507 665 545.5 620 Q584 575 605.5 507.5 Q627 440 627 350 Q627 217 582 133.5 Q537 50 460 15 L538 -62 L567 -75 L626 -75 L626 -142 L494 -142 Q469 -142 446.5 -132 Q424 -122 411 -106 L330 -10 Q267 -9 214.5 13.5 Q162 36 123.5 81 Q85 126 64 193.5 Q43 261 43 350 Z M177 350 Q177 209 214.5 141.5 Q252 74 335 74 Q418 74 455.5 141.5 Q493 209 493 350 Q493 491 455.5 558.5 Q418 626 335 626 Q252 626 214.5 558.5 Q177 491 177 350 Z " />
<glyph glyph-name="R" unicode="R" horiz-adv-x="680" d="M114 617 L98 633 L42 633 L42 700 L348 700 Q408 700 455.5 689 Q503 678 537 654.5 Q571 631 589 594.5 Q607 558 607 507 Q607 466 593 434 Q579 402 556.5 380 Q534 358 505.5 345.5 Q477 333 447 330 L447 329 Q484 324 510 302.5 Q536 281 554 225 L602 82 L620 67 L663 67 L663 0 L532 0 Q506 0 492.5 13 Q479 26 473 46 L420 224 Q406 268 389.5 279.5 Q373 291 350 291 L241 291 L241 83 L256 67 L319 67 L319 0 L42 0 L42 67 L98 67 L114 83 L114 617 Z M241 622 L241 369 L344 369 Q412 369 444 401 Q476 433 476 501 Q476 622 345 622 L241 622 Z " />
<glyph glyph-name="S" unicode="S" horiz-adv-x="558" d="M518 209 Q518 153 498.5 112 Q479 71 444 44 Q409 17 361 3.5 Q313 -10 255 -10 Q210 -10 172 -6 Q134 -2 107 3 Q74 9 49 17 L49 194 L128 194 L128 98 L145 81 Q165 77 192.5 74 Q220 71 255 71 Q327 71 361.5 100.5 Q396 130 396 181 Q396 227 366 253.5 Q336 280 260 301 Q157 331 105 379 Q53 427 53 514 Q53 561 71.5 597.5 Q90 634 123.5 659 Q157 684 203.5 697 Q250 710 305 710 Q346 710 380 706 Q414 702 440 697 Q470 692 494 685 L494 516 L415 516 L415 605 L399 621 Q381 624 357.5 627 Q334 630 306 630 Q242 630 206 604 Q170 578 170 533 Q170 515 175 499 Q180 483 195 468 Q210 453 237.5 439.5 Q265 426 310 412 Q359 397 397.5 379.5 Q436 362 463 338 Q490 314 504 282.5 Q518 251 518 209 Z " />
<glyph glyph-name="T" unicode="T" horiz-adv-x="589" d="M26 700 L563 700 L563 520 L490 520 L490 603 L474 619 L358 619 L358 83 L374 67 L438 67 L438 0 L151 0 L151 67 L215 67 L231 83 L231 619 L115 619 L99 603 L99 520 L26 520 L26 700 Z " />
<glyph glyph-name="U" unicode="U" horiz-adv-x="690" d="M490 617 L474 633 L418 633 L418 700 L662 700 L662 633 L606 633 L590 617 L590 233 Q590 171 573 125 Q556 79 524.5 49 Q493 19 448.5 4.5 Q404 -10 348 -10 Q291 -10 245.5 4.5 Q200 19 167.5 49 Q135 79 117.5 125 Q100 171 100 233 L100 617 L84 633 L28 633 L28 700 L301 700 L301 633 L244 633 L229 617 L229 232 Q229 152 259.5 112.5 Q290 73 357 73 Q431 73 460.5 112.5 Q490 152 490 232 L490 617 Z " />
<glyph glyph-name="V" unicode="V" horiz-adv-x="652" d="M479 633 L421 633 L421 700 L654 700 L654 633 L606 633 L591 617 L384 -2 L273 -2 L58 619 L44 633 L-4 633 L-4 700 L258 700 L258 633 L205 633 L191 617 L344 144 L492 617 L479 633 Z " />
<glyph glyph-name="W" unicode="W" horiz-adv-x="962" d="M963 633 L913 633 L898 617 L720 -2 L615 -2 L484 469 L351 -2 L245 -2 L60 620 L48 633 L-2 633 L-2 700 L258 700 L258 633 L208 633 L193 617 L315 163 L458 700 L539 700 L683 166 L802 617 L789 633 L732 633 L732 700 L963 700 L963 633 Z " />
<glyph glyph-name="X" unicode="X" horiz-adv-x="680" d="M60 67 L71 75 L271 352 L92 621 L78 633 L23 633 L23 700 L303 700 L303 633 L247 633 L237 622 L353 441 L486 625 L479 633 L429 633 L429 700 L654 700 L654 633 L605 633 L590 621 L403 375 L603 76 L615 67 L670 67 L670 0 L388 0 L388 67 L443 67 L454 79 L323 280 L182 77 L191 67 L238 67 L238 0 L13 0 L13 67 L60 67 Z " />
<glyph glyph-name="Y" unicode="Y" horiz-adv-x="627" d="M255 271 L55 618 L40 633 L-5 633 L-5 700 L259 700 L259 633 L207 633 L195 619 L334 372 L466 618 L454 633 L397 633 L397 700 L623 700 L623 633 L579 633 L563 617 L382 293 L382 83 L398 67 L454 67 L454 0 L183 0 L183 67 L239 67 L255 83 L255 271 Z " />
<glyph glyph-name="Z" unicode="Z" horiz-adv-x="599" d="M560 0 L37 0 L37 67 L397 620 L144 620 L129 606 L129 521 L50 521 L50 700 L543 700 L543 633 L186 81 L466 81 L481 95 L481 180 L560 180 L560 0 Z " />
<glyph glyph-name="bracketleft" unicode="&#x5b;" horiz-adv-x="307" d="M63 -102 L63 786 L278 786 L278 729 L174 729 L174 -46 L278 -46 L278 -102 L63 -102 Z " />
<glyph glyph-name="backslash" unicode="&#x5c;" horiz-adv-x="430" d="M20 787 L98 787 L409 -102 L332 -102 L20 787 Z " />
<glyph glyph-name="bracketright" unicode="&#x5d;" horiz-adv-x="307" d="M244.004 -102 L244.004 786 L29.017 786 L29.017 729 L133.011 729 L133.011 -46 L29.017 -46 L29.017 -102 L244.004 -102 Z " />
<glyph glyph-name="asciicircum" unicode="&#x5e;" horiz-adv-x="432" d="M310 385 L214 614 L121 385 L42 385 L175 700 L253 700 L390 385 L310 385 Z " />
<glyph glyph-name="underscore" unicode="&#x5f;" horiz-adv-x="504" d="M0 -80 L504 -80 L504 -143 L0 -143 L0 -80 Z " />
<glyph glyph-name="grave" unicode="&#x60;" horiz-adv-x="386" d="M259 579 L243 579 L93 684 L148 751 L170 751 L292 615 L259 579 Z " />
<glyph glyph-name="a" unicode="a" horiz-adv-x="534" d="M522 0 L383 0 Q355 0 347 12.5 Q339 25 339 42 L339 66 L335 66 Q326 55 312.5 42 Q299 29 280.5 17.5 Q262 6 238.5 -2 Q215 -10 187 -10 Q148 -10 119 2 Q90 14 71 34.5 Q52 55 42.5 82.5 Q33 110 33 142 Q33 218 80.5 258.5 Q128 299 204 299 L332 299 L332 349 Q332 373 329 394 Q326 415 315.5 430 Q305 445 285 454 Q265 463 231 463 Q214 463 197 460.5 Q180 458 165 454 L150 440 L150 364 L71 364 L71 504 Q103 515 153 526.5 Q203 538 268 538 Q320 538 355 524.5 Q390 511 411 488 Q432 465 441 434 Q450 403 450 368 L450 80 L466 63 L522 63 L522 0 Z M231 80 Q260 80 286 94 Q312 108 332 127 L332 228 L235 228 Q195 228 173 210.5 Q151 193 151 151 Q151 118 167.5 99 Q184 80 231 80 Z " />
<glyph glyph-name="b" unicode="b" horiz-adv-x="581" d="M166 730 Q193 730 201 717.5 Q209 705 209 688 L209 467 Q231 493 267 515.5 Q303 538 352 538 Q392 538 427 521.5 Q462 505 488 471.5 Q514 438 529 387.5 Q544 337 544 269 Q544 202 527.5 150 Q511 98 482 62.5 Q453 27 414 8.5 Q375 -10 330 -10 Q288 -10 257 7 Q226 24 205 46 L203 46 L203 42 Q203 25 194.5 12.5 Q186 0 159 0 L18 0 L18 63 L74 63 L90 80 L90 647 L74 663 L18 663 L18 730 L166 730 Z M311 449 Q286 449 260 438 Q234 427 209 401 L209 119 Q226 101 251 87 Q276 73 308 72 Q361 72 390.5 118.5 Q420 165 420 268 Q420 367 392 408 Q364 449 311 449 Z " />
<glyph glyph-name="c" unicode="c" horiz-adv-x="465" d="M426 28 Q404 9 364.5 -0.5 Q325 -10 283 -10 Q233 -10 188 6 Q143 22 109.5 55 Q76 88 56 138 Q36 188 36 256 Q36 325 56.5 378 Q77 431 111.5 466.5 Q146 502 192.5 520 Q239 538 292 538 Q346 538 382.5 528 Q419 518 427 515 L427 364 L348 364 L348 444 L333 458 Q316 463 300 463 Q160 463 160 261 Q160 160 200.5 114 Q241 68 314 68 Q348 68 380 75.5 Q412 83 426 90 L426 28 Z " />
<glyph glyph-name="d" unicode="d" horiz-adv-x="582" d="M424 0 Q397 0 388.5 12.5 Q380 25 380 42 L380 66 L378 66 Q367 52 352.5 38.5 Q338 25 319.5 14 Q301 3 278.5 -4 Q256 -11 231 -11 Q190 -11 155 5.5 Q120 22 93.5 55.5 Q67 89 52 139.5 Q37 190 37 258 Q37 325 53.5 377 Q70 429 99 465 Q128 501 167.5 519.5 Q207 538 252 538 Q291 538 321 524 Q351 510 373 490 L373 647 L357 663 L301 663 L301 730 L449 730 Q476 730 484 717.5 Q492 705 492 688 L492 80 L508 63 L564 63 L564 0 L424 0 Z M271 78 Q296 78 321.5 89 Q347 100 373 125 L373 413 Q356 430 331.5 442.5 Q307 455 275 455 Q221 455 191.5 408.5 Q162 362 162 259 Q162 159 189.5 118.5 Q217 78 271 78 Z " />
<glyph glyph-name="e" unicode="e" horiz-adv-x="503" d="M454 232 L159 232 Q166 143 207.5 105.5 Q249 68 318 68 Q360 68 392.5 76 Q425 84 442 91 L442 26 Q419 12 379.5 1 Q340 -10 279 -10 Q229 -10 184.5 5.5 Q140 21 107 53 Q74 85 55 135.5 Q36 186 36 256 Q36 326 53.5 379 Q71 432 102 467 Q133 502 175 520 Q217 538 265 538 Q311 538 348.5 523.5 Q386 509 413 481 Q440 453 455 413.5 Q470 374 470 323 L470 248 L454 232 Z M263 463 Q169 463 160 303 L352 303 L352 335 Q352 401 329 432 Q306 463 263 463 Z " />
<glyph glyph-name="f" unicode="f" horiz-adv-x="361" d="M220 461 L220 80 L235 63 L306 63 L306 0 L28 0 L28 63 L85 63 L101 80 L101 461 L28 461 L28 526 L85 526 L101 542 L101 560 Q101 599 110 632 Q119 665 140 689 Q161 713 195 726.5 Q229 740 279 740 Q323 740 349.5 735.5 Q376 731 381 729 L381 620 L309 620 L309 665 L296 678 Q292 679 288 679 L282 679 Q245 679 232.5 648.5 Q220 618 220 567 L220 526 L342 526 L342 461 L220 461 Z " />
<glyph glyph-name="g" unicode="g" horiz-adv-x="541" d="M464 369 Q464 326 447 294 Q430 262 401.5 241 Q373 220 335.5 209.5 Q298 199 256 199 Q235 199 215 201.5 Q195 204 177 209 Q147 190 147 166 Q147 149 159 139.5 Q171 130 200 130 L347 130 Q383 130 414 122.5 Q445 115 467.5 99 Q490 83 503 59 Q516 35 516 1 Q516 -45 494.5 -79 Q473 -113 435.5 -135.5 Q398 -158 348 -169 Q298 -180 241 -180 Q191 -180 150.5 -174 Q110 -168 81.5 -155 Q53 -142 38 -121 Q23 -100 23 -70 Q23 -50 30.5 -33.5 Q38 -17 49.5 -4 Q61 9 75.5 18.5 Q90 28 105 35 Q76 46 59 69 Q42 92 42 123 Q42 153 61.5 181 Q81 209 123 232 Q89 252 69 286.5 Q49 321 49 369 Q49 412 65.5 444 Q82 476 110.5 497 Q139 518 176.5 528 Q214 538 256 538 Q277 538 297 535.5 Q317 533 335 528 L513 528 L513 461 L440 461 L437 457 Q450 440 457 417.5 Q464 395 464 369 Z M349 369 Q349 423 323.5 449 Q298 475 256 475 Q214 475 189 449 Q164 423 164 369 Q164 315 189 288 Q214 261 256 261 Q298 261 323.5 288 Q349 315 349 369 Z M166 25 Q155 18 141.5 0 Q128 -18 128 -47 Q128 -82 158 -100 Q188 -118 254 -118 Q285 -118 312 -113 Q339 -108 359.5 -97.5 Q380 -87 392 -70.5 Q404 -54 404 -31 Q404 1 384 13 Q364 25 322 25 L166 25 Z " />
<glyph glyph-name="h" unicode="h" horiz-adv-x="603" d="M335 0 L335 63 L382 63 L398 80 L398 359 Q398 375 395 390.5 Q392 406 384 418.5 Q376 431 361 439 Q346 447 321 447 Q287 447 260 435 Q233 423 210 400 L210 80 L226 63 L273 63 L273 0 L19 0 L19 63 L75 63 L91 80 L91 647 L75 663 L19 663 L19 730 L167 730 Q194 730 202 717.5 Q210 705 210 688 L210 467 Q220 477 234.5 489.5 Q249 502 268.5 513 Q288 524 312 531 Q336 538 363 538 Q406 538 435.5 525.5 Q465 513 483 491 Q501 469 509 440 Q517 411 517 378 L517 80 L533 63 L589 63 L589 0 L335 0 Z " />
<glyph glyph-name="i" unicode="i" horiz-adv-x="312" d="M177 528 Q204 528 212.5 515.5 Q221 503 221 486 L221 80 L236 63 L293 63 L293 0 L29 0 L29 63 L86 63 L102 80 L102 444 L86 461 L29 461 L29 528 L177 528 Z M82 671 Q82 701 99.5 719 Q117 737 152 737 Q186 737 203.5 719 Q221 701 221 671 Q221 642 203.5 623.5 Q186 605 152 605 Q117 605 99.5 623.5 Q82 642 82 671 Z " />
<glyph glyph-name="j" unicode="j" horiz-adv-x="286" d="M-56 -59 L16 -59 L16 -107 L28 -120 L34 -120 Q51 -120 62.5 -110 Q74 -100 80.5 -83.5 Q87 -67 90 -46 Q93 -25 93 -2 L93 444 L77 461 L21 461 L21 528 L169 528 Q196 528 204 515.5 Q212 503 212 486 L212 5 Q212 -33 203 -66.5 Q194 -100 173 -125.5 Q152 -151 118.5 -165.5 Q85 -180 36 -180 Q-7 -180 -30.5 -175.5 Q-54 -171 -56 -171 L-56 -59 Z M74 671 Q74 701 91 719 Q108 737 143 737 Q178 737 195.5 719 Q213 701 213 671 Q213 642 195.5 623.5 Q178 605 143 605 Q108 605 91 623.5 Q74 642 74 671 Z " />
<glyph glyph-name="k" unicode="k" horiz-adv-x="600" d="M364 313 L527 76 L543 63 L588 63 L588 0 L339 0 L339 63 L383 63 L392 74 L272 258 L210 258 L210 80 L226 63 L273 63 L273 0 L19 0 L19 63 L75 63 L91 80 L91 647 L75 663 L19 663 L19 730 L167 730 Q194 730 202 717.5 Q210 705 210 688 L210 317 L268 317 L409 454 L404 461 L359 461 L359 528 L577 528 L577 461 L524 461 L505 448 L364 313 Z " />
<glyph glyph-name="l" unicode="l" horiz-adv-x="302" d="M167 730 Q194 730 202.5 717.5 Q211 705 211 688 L211 80 L226 63 L283 63 L283 0 L19 0 L19 63 L76 63 L92 80 L92 647 L76 663 L19 663 L19 730 L167 730 Z " />
<glyph glyph-name="m" unicode="m" horiz-adv-x="907" d="M28 0 L28 63 L85 63 L101 80 L101 444 L85 461 L28 461 L28 528 L169 528 Q196 528 204.5 515.5 Q213 503 213 486 L213 463 L216 463 Q224 472 238.5 485 Q253 498 272.5 509.5 Q292 521 316.5 529.5 Q341 538 371 538 Q429 538 461.5 515 Q494 492 508 454 Q515 463 529.5 477 Q544 491 565 504.5 Q586 518 612.5 528 Q639 538 671 538 Q713 538 742 525.5 Q771 513 788 491 Q805 469 812.5 440 Q820 411 820 378 L820 80 L836 63 L892 63 L892 0 L638 0 L638 63 L686 63 L701 80 L701 359 Q701 375 698.5 390.5 Q696 406 688.5 418.5 Q681 431 666.5 439 Q652 447 628 447 Q593 447 565 432.5 Q537 418 519 400 Q519 395 519.5 389 Q520 383 520 378 L520 80 L536 63 L590 63 L590 0 L340 0 L340 63 L385 63 L401 80 L401 359 Q401 375 398.5 390.5 Q396 406 388.5 418.5 Q381 431 366.5 439 Q352 447 328 447 Q296 447 269.5 434.5 Q243 422 220 400 L220 80 L235 63 L283 63 L283 0 L28 0 Z " />
<glyph glyph-name="n" unicode="n" horiz-adv-x="614" d="M28 0 L28 63 L85 63 L101 80 L101 444 L85 461 L28 461 L28 528 L169 528 Q196 528 204.5 515.5 Q213 503 213 486 L213 463 L216 463 Q225 473 239.5 486 Q254 499 274 510.5 Q294 522 318.5 530 Q343 538 372 538 Q415 538 444.5 525.5 Q474 513 492 491 Q510 469 518 440 Q526 411 526 378 L526 80 L542 63 L599 63 L599 0 L344 0 L344 63 L392 63 L407 80 L407 359 Q407 375 404.5 390.5 Q402 406 394 418.5 Q386 431 370.5 439 Q355 447 330 447 Q297 447 270 435 Q243 423 220 400 L220 80 L235 63 L283 63 L283 0 L28 0 Z " />
<glyph glyph-name="o" unicode="o" horiz-adv-x="542" d="M506 264 Q506 194 487 142.5 Q468 91 436 57 Q404 23 361.5 6.5 Q319 -10 271 -10 Q223 -10 180.5 6.5 Q138 23 106 57 Q74 91 55 142.5 Q36 194 36 264 Q36 334 55 385.5 Q74 437 106 471 Q138 505 180.5 521.5 Q223 538 271 538 Q319 538 361.5 521.5 Q404 505 436 471 Q468 437 487 385.5 Q506 334 506 264 Z M382 264 Q382 461 271 461 Q160 461 160 264 Q160 67 271 67 Q382 67 382 264 Z " />
<glyph glyph-name="p" unicode="p" horiz-adv-x="582" d="M18 528 L159 528 Q186 528 194.5 515.5 Q203 503 203 486 L203 463 L205 463 Q227 490 264 514 Q301 538 352 538 Q392 538 427 521.5 Q462 505 488 471.5 Q514 438 529 387.5 Q544 337 544 270 Q544 203 527.5 151 Q511 99 482.5 63 Q454 27 414.5 8.5 Q375 -10 330 -10 Q291 -10 261 4 Q231 18 209 37 L209 -90 L225 -107 L287 -107 L287 -170 L18 -170 L18 -107 L74 -107 L90 -90 L90 444 L74 461 L18 461 L18 528 Z M311 449 Q286 449 260 438 Q234 427 209 401 L209 115 Q227 97 251 84.5 Q275 72 307 72 Q361 72 390.5 119 Q420 166 420 269 Q420 368 392 408.5 Q364 449 311 449 Z " />
<glyph glyph-name="q" unicode="q" horiz-adv-x="582" d="M295 -170 L295 -107 L358 -107 L373 -90 L373 60 Q351 34 315 11.5 Q279 -11 231 -11 Q190 -11 155 5.5 Q120 22 93.5 55.5 Q67 89 52 139.5 Q37 190 37 258 Q37 325 53.5 377 Q70 429 99.5 465 Q129 501 168.5 519.5 Q208 538 253 538 Q294 538 325 520.5 Q356 503 378 482 L380 482 L380 486 Q380 503 388.5 515.5 Q397 528 424 528 L564 528 L564 461 L508 461 L492 445 L492 -90 L508 -107 L564 -107 L564 -170 L295 -170 Z M271 78 Q296 78 321.5 89 Q347 100 373 125 L373 408 Q356 426 331 440.5 Q306 455 274 455 Q221 456 191.5 409.5 Q162 363 162 260 Q162 160 189.5 119 Q217 78 271 78 Z " />
<glyph glyph-name="r" unicode="r" horiz-adv-x="428" d="M235 63 L303 63 L303 0 L28 0 L28 63 L85 63 L101 80 L101 444 L85 461 L28 461 L28 528 L169 528 Q196 528 204.5 515.5 Q213 503 213 486 L213 457 L216 457 Q222 465 235.5 478.5 Q249 492 268.5 505.5 Q288 519 313.5 528.5 Q339 538 370 538 Q383 538 393.5 537 Q404 536 407 535 L407 349 L334 349 L334 422 L318 437 Q285 433 259.5 420 Q234 407 220 393 L220 80 L235 63 Z " />
<glyph glyph-name="s" unicode="s" horiz-adv-x="462" d="M427 161 Q427 120 411 88 Q395 56 366.5 34.5 Q338 13 298.5 1.5 Q259 -10 213 -10 Q173 -10 141.5 -7 Q110 -4 88 1 Q62 6 42 13 L42 148 L115 148 L115 85 L130 69 Q146 66 166.5 64 Q187 62 213 62 Q261 62 286.5 83 Q312 104 312 136 Q312 152 307.5 164.5 Q303 177 290.5 187 Q278 197 256.5 205 Q235 213 202 222 Q155 234 125 250.5 Q95 267 77 287.5 Q59 308 52 332 Q45 356 45 383 Q45 417 59 446 Q73 475 100 495 Q127 515 166 526.5 Q205 538 254 538 Q286 538 314 535 Q342 532 362 529 Q386 525 406 521 L406 387 L333 387 L333 447 L319 461 Q305 463 288 465 Q271 467 251 467 Q205 467 180 449 Q155 431 155 401 Q155 388 158.5 377 Q162 366 172 356 Q182 346 201 337.5 Q220 329 251 321 Q298 308 331.5 293.5 Q365 279 386 260 Q407 241 417 217 Q427 193 427 161 Z " />
<glyph glyph-name="t" unicode="t" horiz-adv-x="346" d="M209 461 L209 80 L225 63 L336 63 L336 0 Q312 -3 287 -5 Q266 -7 242.5 -8.5 Q219 -10 199 -10 Q145 -10 117.5 13 Q90 36 90 95 L90 461 L22 461 L22 526 L74 526 L90 542 L134 670 L209 670 L209 526 L324 526 L324 461 L209 461 Z " />
<glyph glyph-name="u" unicode="u" horiz-adv-x="597" d="M463 528 Q490 528 498.5 515.5 Q507 503 507 486 L507 80 L523 63 L579 63 L579 0 L439 0 Q411 0 403 12.5 Q395 25 395 42 L395 65 L393 65 Q383 54 368.5 41 Q354 28 335 17 Q316 6 292 -2 Q268 -10 240 -10 Q195 -10 165.5 2.5 Q136 15 118.5 37 Q101 59 94 88 Q87 117 87 150 L87 444 L71 461 L15 461 L15 528 L162 528 Q189 528 197.5 513.5 Q206 499 206 481 L206 168 Q206 153 208.5 137 Q211 121 219 108.5 Q227 96 243 88 Q259 80 285 80 Q314 80 339.5 92 Q365 104 388 126 L388 444 L372 461 L316 461 L316 528 L463 528 Z " />
<glyph glyph-name="v" unicode="v" horiz-adv-x="565" d="M514 461 L498 444 L333 -2 L238 -2 L65 444 L48 461 L1 461 L1 528 L250 528 L250 461 L206 461 L191 444 L301 139 L408 444 L394 461 L343 461 L343 528 L559 528 L559 461 L514 461 Z " />
<glyph glyph-name="w" unicode="w" horiz-adv-x="813" d="M460 528 L571 153 L660 444 L646 461 L596 461 L596 528 L805 528 L805 461 L759 461 L744 446 L599 -2 L511 -2 L409 324 L309 -2 L220 -2 L64 446 L51 461 L2 461 L2 528 L245 528 L245 461 L198 461 L184 444 L278 148 L390 528 L460 528 Z " />
<glyph glyph-name="x" unicode="x" horiz-adv-x="599" d="M60 63 L72 73 L236 259 L89 445 L70 461 L22 461 L22 528 L278 528 L278 461 L231 461 L224 453 L314 335 L420 452 L412 461 L368 461 L368 528 L576 528 L576 461 L532 461 L518 450 L361 284 L523 78 L542 63 L586 63 L586 0 L329 0 L329 63 L378 63 L385 71 L282 205 L170 73 L179 63 L221 63 L221 0 L14 0 L14 63 L60 63 Z " />
<glyph glyph-name="y" unicode="y" horiz-adv-x="567" d="M516 461 L500 444 L302 -90 L317 -107 L369 -107 L369 -170 L129 -170 L129 -107 L202 -107 L218 -90 L246 -14 L66 445 L51 461 L3 461 L3 528 L252 528 L252 461 L206 461 L191 444 L301 141 L411 444 L396 461 L347 461 L347 528 L561 528 L561 461 L516 461 Z " />
<glyph glyph-name="z" unicode="z" horiz-adv-x="514" d="M325 459 L135 459 L120 444 L120 370 L42 370 L42 528 L467 528 L467 470 L179 69 L387 69 L401 84 L401 158 L479 158 L479 0 L33 0 L33 54 L325 459 Z " />
<glyph glyph-name="braceleft" unicode="&#x7b;" horiz-adv-x="352" d="M326 -103 Q311 -105 297.5 -106 Q284 -107 270 -107 Q183 -107 141.5 -68.5 Q100 -30 100 59 L100 221 Q100 249 98 267 Q96 285 88.5 295.5 Q81 306 66.5 311 Q52 316 28 318 L28 379 Q52 381 66 386 Q80 391 87.5 401.5 Q95 412 97.5 429.5 Q100 447 100 476 L100 624 Q100 712 141.5 751 Q183 790 270 790 Q284 790 297.5 789 Q311 788 326 786 L326 741 Q322 742 309 741 Q296 740 293 740 Q257 738 236 718.5 Q215 699 215 646 L215 509 Q215 464 210.5 436 Q206 408 196 391 Q186 374 169.5 365 Q153 356 128 350 L128 347 Q153 341 170 332.5 Q187 324 197 307 Q207 290 211 262 Q215 234 215 189 L215 37 Q215 -16 236 -35.5 Q257 -55 292 -57 Q295 -57 308.5 -58 Q322 -59 326 -58 L326 -103 Z " />
<glyph glyph-name="bar" unicode="&#x7c;" horiz-adv-x="199" d="M63 -102 L63 787 L136 787 L136 -102 L63 -102 Z " />
<glyph glyph-name="braceright" unicode="&#x7d;" horiz-adv-x="352" d="M26.0199 -103 Q41.019 -105 54.5182 -106 Q68.0173 -107 82.0165 -107 Q169.011 -107 210.509 -68.5 Q252.006 -30 252.006 59 L252.006 221 Q252.006 249 254.006 267 Q256.006 285 263.505 295.5 Q271.005 306 285.504 311 Q300.003 316 324.002 318 L324.002 379 Q300.003 381 286.004 386 Q272.005 391 264.505 401.5 Q257.006 412 254.506 429.5 Q252.006 447 252.006 476 L252.006 624 Q252.006 712 210.509 751 Q169.011 790 82.0165 790 Q68.0173 790 54.5182 789 Q41.019 788 26.0199 786 L26.0199 741 Q30.0197 742 43.0189 741 Q56.0181 740 59.0179 740 Q95.0157 738 116.014 718.5 Q137.013 699 137.013 646 L137.013 509 Q137.013 464 141.513 436 Q146.013 408 156.012 391 Q166.011 374 182.51 365 Q199.009 356 224.008 350 L224.008 347 Q199.009 341 182.01 332.5 Q165.011 324 155.012 307 Q145.013 290 141.013 262 Q137.013 234 137.013 189 L137.013 37 Q137.013 -16 116.014 -35.5 Q95.0157 -55 60.0178 -57 Q57.018 -57 43.5188 -58 Q30.0197 -59 26.0199 -58 L26.0199 -103 Z " />
<glyph glyph-name="asciitilde" unicode="&#x7e;" horiz-adv-x="636" d="M58 286 Q85 335 125 364.5 Q165 394 215 394 Q251 394 281.5 382 Q312 370 339 355 Q366 340 390.5 328 Q415 316 439 316 Q457 316 474 325 L536 389 Q539 387 543 383 Q550 376 559 370 Q569 361 581 351 Q552 302 512 273 Q472 244 422 244 Q387 244 357 256 Q327 268 300 283 Q273 298 248.5 310 Q224 322 200 322 Q182 322 164 313 L102 249 L58 286 Z " />
<glyph glyph-name="uni00A0" unicode="&#xa0;" horiz-adv-x="222" d="" />
<glyph glyph-name="exclamdown" unicode="&#xa1;" horiz-adv-x="249" d="M51 470.004 Q51 441.005 72 420.007 Q93 399.008 125 399.008 Q157 399.008 178 420.007 Q199 441.005 199 470.004 Q199 499.002 178 519.501 Q157 539.999 125 539.999 Q93 539.999 72 519.501 Q51 499.002 51 470.004 Z M100 324.013 L75 285.015 L56 20.0311 L56 -169.957 L192 -169.957 L192 20.0311 L173 285.015 L149 324.013 L100 324.013 Z " />
<glyph glyph-name="cent" unicode="&#xa2;" horiz-adv-x="491" d="M309 625 Q335 625 357.5 622 Q380 619 397 615 Q414 611 425.5 607.5 Q437 604 440 603 L440 456 L370 456 L370 534 L355 548 Q346 550 336.5 552 Q327 554 316 554 L309 554 L309 149 L327 149 Q361 149 393 157 Q425 165 439 172 L439 115 Q419 98 383.5 88 Q348 78 309 77 L309 -10 L257 -10 L257 79 Q212 85 173 103 Q134 121 104.5 153.5 Q75 186 58.5 233 Q42 280 42 344 Q42 407 58.5 455 Q75 503 104 537.5 Q133 572 172 592.5 Q211 613 257 621 L257 710 L309 710 L309 625 Z M159 348 Q159 267 184 221.5 Q209 176 257 159 L257 544 Q159 509 159 348 Z " />
<glyph glyph-name="sterling" unicode="&#xa3;" horiz-adv-x="611" d="M42 67 L96 67 L112 83 L112 315 L42 315 L42 374 L112 374 L112 486 Q112 530 125.5 570.5 Q139 611 168 642 Q197 673 242.5 691.5 Q288 710 352 710 Q396 710 432 704 Q468 698 494 690 Q525 681 549 670 L549 523 L474 523 L474 606 L461 618 Q443 623 419.5 627 Q396 631 366 631 Q300 631 269.5 599 Q239 567 239 486 L239 374 L393 374 L393 315 L239 315 L239 205 Q239 170 232 137 Q225 104 216 84 L469 84 L485 100 L485 189 L558 189 L558 0 L42 0 L42 67 Z " />
<glyph glyph-name="currency" unicode="&#xa4;" horiz-adv-x="507" d="M106 533 L187 451 Q201 459 218 464 Q235 469 254 469 Q272 469 289 464 Q306 459 321 451 L402 533 L459 476 L377 395 Q396 362 396 326 Q396 291 377 259 L459 178 L402 122 L321 203 Q290 186 254 186 Q217 186 186 203 L105 122 L48 178 L129 260 Q113 290 113 326 Q113 363 130 394 L49 476 L106 533 Z M179 326 Q179 310 185 295.5 Q191 281 201.5 270.5 Q212 260 226 254 Q240 248 255 248 Q285 248 307 271 Q329 294 329 326 Q329 359 307 382 Q285 405 255 405 Q224 405 201.5 382 Q179 359 179 326 Z " />
<glyph glyph-name="yen" unicode="&#xa5;" horiz-adv-x="682" d="M112 368 L232 368 L87 618 L72 633 L27 633 L27 700 L290 700 L290 633 L238 633 L226 619 L366 371 L499 618 L486 633 L429 633 L429 700 L654 700 L654 633 L610 633 L594 617 L456 368 L573 368 L573 309 L423 309 L414 293 L414 246 L573 246 L573 187 L414 187 L414 83 L430 67 L486 67 L486 0 L215 0 L215 67 L272 67 L288 83 L288 187 L112 187 L112 246 L288 246 L288 272 L266 309 L112 309 L112 368 Z " />
<glyph glyph-name="brokenbar" unicode="&#xa6;" horiz-adv-x="209" d="M68 -102 L68 271 L141 271 L141 -102 L68 -102 Z M68 415 L68 787 L141 787 L141 415 L68 415 Z " />
<glyph glyph-name="section" unicode="&#xa7;" horiz-adv-x="566" d="M44 274 Q44 319 64 350 Q84 381 119 400 Q89 423 75.5 453 Q62 483 62 526 Q62 569 81 603 Q100 637 134 661 Q168 685 214.5 697.5 Q261 710 317 710 Q356 710 389 706.5 Q422 703 447 698 Q476 693 500 687 L500 528 L428 528 L428 616 L413 631 Q395 634 367 636.5 Q339 639 310 639 Q244 639 206 615.5 Q168 592 168 548 Q168 529 173 514.5 Q178 500 193.5 488 Q209 476 237 465 Q265 454 311 442 Q360 429 399.5 415 Q439 401 466 380 Q493 359 507.5 329.5 Q522 300 522 256 Q522 210 501 179.5 Q480 149 445 130 Q475 107 489.5 76.5 Q504 46 504 4 Q504 -39 485 -73 Q466 -107 432 -131 Q398 -155 351 -167.5 Q304 -180 249 -180 Q210 -180 176.5 -177 Q143 -174 118 -169 Q89 -164 65 -157 L65 2 L138 2 L138 -86 L153 -101 Q171 -104 199 -106.5 Q227 -109 256 -109 Q322 -109 360 -85.5 Q398 -62 398 -18 Q398 1 393 15.5 Q388 30 372.5 42 Q357 54 329 65 Q301 76 255 88 Q205 101 166 115 Q127 129 100 150 Q73 171 58.5 200.5 Q44 230 44 274 Z M292 193 Q324 184 351.5 175 Q379 166 401 155 Q414 169 421 186 Q428 203 428 226 Q428 250 420.5 266 Q413 282 395.5 294 Q378 306 348.5 316 Q319 326 274 337 Q206 354 164 374 Q138 346 138 304 Q138 280 145 264 Q152 248 170 236 Q188 224 217.5 214.5 Q247 205 292 193 Z " />
<glyph glyph-name="dieresis" unicode="&#xa8;" horiz-adv-x="337" d="M40 664 Q40 686 55 702 Q70 718 94 718 Q118 718 133 702 Q148 686 148 664 Q148 641 133 625.5 Q118 610 94 610 Q70 610 55 625.5 Q40 641 40 664 Z M189 664 Q189 686 204.5 702 Q220 718 243 718 Q267 718 282.5 702 Q298 686 298 664 Q298 641 282.5 625.5 Q267 610 243 610 Q220 610 204.5 625.5 Q189 641 189 664 Z " />
<glyph glyph-name="copyright" unicode="&#xa9;" horiz-adv-x="804" d="M546 147 Q523 136 491.5 127.5 Q460 119 411 119 Q307 119 249.5 177.5 Q192 236 192 350 Q192 459 252.5 519 Q313 579 421 579 Q468 579 500.5 571.5 Q533 564 539 560 L539 438 L484 438 L484 499 L474 509 Q452 517 421 517 Q357 516 326.5 475 Q296 434 296 358 Q296 183 425 183 Q439 183 453.5 184.5 Q468 186 480 190 L491 201 L491 266 L546 266 L546 147 Z M42 349 Q42 423 70 488.5 Q98 554 147 603 Q196 652 261 680.5 Q326 709 401 709 Q475 709 540.5 680.5 Q606 652 655 603 Q704 554 732.5 488.5 Q761 423 761 349 Q761 274 732.5 209 Q704 144 655 95 Q606 46 540.5 18 Q475 -10 401 -10 Q326 -10 261 18 Q196 46 147 95 Q98 144 70 209 Q42 274 42 349 Z M90 349 Q90 283 114.5 225.5 Q139 168 181.5 125.5 Q224 83 280.5 58 Q337 33 401 33 Q465 33 522 58 Q579 83 621.5 125.5 Q664 168 688.5 225.5 Q713 283 713 349 Q713 415 688.5 472.5 Q664 530 621.5 573 Q579 616 522 641 Q465 666 401 666 Q337 666 280.5 641 Q224 616 181.5 573 Q139 530 114.5 472.5 Q90 415 90 349 Z " />
<glyph glyph-name="ordfeminine" unicode="&#xaa;" horiz-adv-x="399" d="M354 432 L354 386 L258 386 Q241 386 236 393.5 Q231 401 231 411 L231 425 L229 425 Q225 420 217 412.5 Q209 405 198 397.5 Q187 390 172 385 Q157 380 139 380 Q88 380 66 408.5 Q44 437 44 475 Q44 518 73.5 541 Q103 564 151 564 L226 564 L226 596 Q226 610 224.5 622 Q223 634 217 643 Q211 652 199.5 657 Q188 662 168 662 Q160 662 152.5 661 Q145 660 138 658 L130 648 L130 603 L69 603 L69 692 Q74 694 109 702 Q144 710 198 710 Q231 710 252.5 702 Q274 694 287.5 680 Q301 666 306.5 647.5 Q312 629 312 608 L312 442 L321 432 L354 432 Z M174 438 Q191 438 204.5 446 Q218 454 226 461 L226 521 L176 521 Q156 521 142.5 511.5 Q129 502 129 482 Q129 460 138.5 449 Q148 438 174 438 Z " />
<glyph glyph-name="guillemotleft" unicode="&#xab;" horiz-adv-x="507" d="M34.0167 236 L200.007 46 L263.003 46 L136.01 256 L263.003 463 L200.007 463 L34.0167 274 L34.0167 236 Z M234.017 236 L400.007 46 L463.003 46 L336.01 256 L463.003 463 L400.007 463 L234.017 274 L234.017 236 Z " />
<glyph glyph-name="logicalnot" unicode="&#xac;" horiz-adv-x="540" d="M62 375 L476 375 L476 155 L401 155 L401 300 L62 300 L62 375 Z " />
<glyph glyph-name="uni00AD" unicode="&#xad;" horiz-adv-x="360" d="M59 333 L300 333 L300 250 L59 250 L59 333 Z " />
<glyph glyph-name="registered" unicode="&#xae;" horiz-adv-x="663" d="M87 421 Q87 369 106.5 323 Q126 277 159 243 Q192 209 236.5 189 Q281 169 332 169 Q383 169 427.5 189 Q472 209 505 243.5 Q538 278 557.5 324 Q577 370 577 421 Q577 473 557.5 519 Q538 565 505 599 Q472 633 427.5 653 Q383 673 332 673 Q281 673 236.5 653 Q192 633 159 599 Q126 565 106.5 519 Q87 473 87 421 Z M292 527 L292 439 L340 439 Q367 439 378.5 450 Q390 461 390 484 Q390 504 378.5 515.5 Q367 527 340 527 L292 527 Z M212 308 L219 315 L219 529 L212 535 L187 535 L187 578 L341 578 Q399 578 432.5 557.5 Q466 537 466 491 Q466 472 459.5 458.5 Q453 445 443 435.5 Q433 426 420.5 420.5 Q408 415 396 413 L396 412 Q411 408 420 397.5 Q429 387 438 366 L459 315 L468 308 L486 308 L486 265 L414 265 Q401 265 395 270.5 Q389 276 387 285 L364 357 Q359 377 352 381.5 Q345 386 334 386 L292 386 L292 315 L299 308 L327 308 L327 265 L187 265 L187 308 L212 308 Z M45 421 Q45 481 67.5 533.5 Q90 586 129 625 Q168 664 220 687 Q272 710 331 710 Q391 710 443 687 Q495 664 534 625 Q573 586 595.5 533.5 Q618 481 618 421 Q618 361 595.5 308.5 Q573 256 534 217 Q495 178 443 155 Q391 132 331 132 Q272 132 220 155 Q168 178 129 217 Q90 256 67.5 308.5 Q45 361 45 421 Z " />
<glyph glyph-name="macron" unicode="&#xaf;" horiz-adv-x="396" d="M68 692 L327 692 L327 622 L68 622 L68 692 Z " />
<glyph glyph-name="degree" unicode="&#xb0;" horiz-adv-x="379" d="M39 559 Q39 590 51 617.5 Q63 645 83.5 665.5 Q104 686 131 698 Q158 710 189 710 Q220 710 247.5 698 Q275 686 295.5 665.5 Q316 645 328 617.5 Q340 590 340 559 Q340 528 328 501 Q316 474 295.5 453.5 Q275 433 247.5 421 Q220 409 189 409 Q158 409 131 421 Q104 433 83.5 453.5 Q63 474 51 501 Q39 528 39 559 Z M105 559 Q105 541 112 525 Q119 509 130.5 497.5 Q142 486 157 479 Q172 472 189 472 Q206 472 221 479 Q236 486 247.5 497.5 Q259 509 266 525 Q273 541 273 559 Q273 577 266 593 Q259 609 247.5 621 Q236 633 221 640 Q206 647 189 647 Q172 647 157 640 Q142 633 130.5 621 Q119 609 112 593 Q105 577 105 559 Z " />
<glyph glyph-name="plusminus" unicode="&#xb1;" horiz-adv-x="540" d="M63 443 L232 443 L232 594 L307 594 L307 443 L477 443 L477 368 L307 368 L307 217 L232 217 L232 368 L63 368 L63 443 Z M63 162 L477 162 L477 88 L63 88 L63 162 Z " />
<glyph glyph-name="twosuperior" unicode="&#xb2;" horiz-adv-x="292" d="M34 809 Q47 816 65 822 Q79 827 99 831 Q119 835 142 835 Q174 835 195.5 827.5 Q217 820 230.5 808 Q244 796 250 780 Q256 764 256 746 Q256 712 234 687.5 Q212 663 162 632 Q127 611 115.5 601.5 Q104 592 104 578 L104 560 L207 560 L214 567 L214 604 L263 604 L263 506 L30 506 L30 564 Q30 583 34 596.5 Q38 610 48.5 622 Q59 634 75.5 646 Q92 658 118 674 Q154 696 167 711 Q180 726 180 746 Q180 763 170 774 Q160 785 134 785 Q120 785 110.5 782.5 Q101 780 93 778 L85 770 L85 735 L34 735 L34 809 Z " />
<glyph glyph-name="threesuperior" unicode="&#xb3;" horiz-adv-x="285" d="M35 814 Q49 820 65 824 Q79 828 97 831.5 Q115 835 136 835 Q168 835 190 827.5 Q212 820 225.5 808 Q239 796 245 781 Q251 766 251 751 Q251 719 236.5 699.5 Q222 680 198 672 L198 669 Q225 663 241 645.5 Q257 628 257 597 Q257 579 250.5 562 Q244 545 229.5 531.5 Q215 518 191.5 509.5 Q168 501 135 501 Q114 501 94.5 504 Q75 507 61 511 Q44 515 30 522 L30 597 L82 597 L82 563 L88 555 Q102 548 126 548 Q155 548 167 563 Q179 578 179 598 Q179 627 165.5 638.5 Q152 650 130 650 L91 650 L91 695 L130 695 Q149 695 161.5 706 Q174 717 174 744 Q174 761 162.5 774 Q151 787 125 787 Q114 787 106.5 785.5 Q99 784 94 782 L86 774 L86 739 L35 739 L35 814 Z " />
<glyph glyph-name="acute" unicode="&#xb4;" horiz-adv-x="386" d="M126 579 L93 615 L215 751 L237 751 L292 684 L143 579 L126 579 Z " />
<glyph glyph-name="paragraph" unicode="&#xb6;" horiz-adv-x="628" d="M365 700 L365 -170 L301 -170 L301 250 Q238 250 187.5 264 Q137 278 101.5 306.5 Q66 335 46.5 377.5 Q27 420 27 478 Q27 536 46.5 578 Q66 620 102.5 647 Q139 674 190.5 687 Q242 700 305 700 L365 700 Z M526 617 L526 -170 L461 -170 L461 700 L588 700 L588 633 L542 633 L526 617 Z " />
<glyph glyph-name="periodcentered" unicode="&#xb7;" horiz-adv-x="250" d="M54 375 Q54 401 74.5 421.5 Q95 442 124 442 Q153 442 174 421.5 Q195 401 195 375 Q195 348 174 328 Q153 308 124 308 Q95 308 74.5 328 Q54 348 54 375 Z " />
<glyph glyph-name="cedilla" unicode="&#xb8;" horiz-adv-x="400" d="M173 -180 Q142 -180 114.5 -172 Q87 -164 70 -153 L87 -119 Q97 -124 119.5 -131.5 Q142 -139 163 -139 Q180 -139 193 -132.5 Q206 -126 206 -108 Q206 -90 181.5 -79.5 Q157 -69 116 -65 L116 -48 L166 13 L231 12 L191 -39 Q233 -41 260.5 -56 Q288 -71 288 -104 Q288 -125 278 -139.5 Q268 -154 252 -163 Q236 -172 215.5 -176 Q195 -180 173 -180 Z " />
<glyph glyph-name="onesuperior" unicode="&#xb9;" horiz-adv-x="224" d="M72 808 Q87 808 98 816.5 Q109 825 112 833 L157 833 L157 553 L165 546 L209 546 L209 506 L29 506 L29 546 L73 546 L80 553 L80 761 L73 769 L29 769 L29 808 L72 808 Z " />
<glyph glyph-name="ordmasculine" unicode="&#xba;" horiz-adv-x="377" d="M334 545 Q334 502 322.5 471 Q311 440 291.5 419.5 Q272 399 245.5 389.5 Q219 380 188 380 Q157 380 130 389.5 Q103 399 83.5 419.5 Q64 440 53 471 Q42 502 42 545 Q42 588 53 619 Q64 650 83.5 670 Q103 690 130 700 Q157 710 188 710 Q219 710 245.5 700 Q272 690 291.5 670 Q311 650 322.5 619 Q334 588 334 545 Z M253 545 Q253 660 188 660 Q124 660 124 545 Q124 486 139.5 458.5 Q155 431 188 431 Q222 431 237.5 458.5 Q253 486 253 545 Z " />
<glyph glyph-name="guillemotright" unicode="&#xbb;" horiz-adv-x="507" d="M273 236 L107 46 L44 46 L171 256 L44 463 L107 463 L273 274 L273 236 Z M473 236 L307 46 L244 46 L371 256 L244 463 L307 463 L473 274 L473 236 Z " />
<glyph glyph-name="onequarter" unicode="&#xbc;" horiz-adv-x="603" d="M443 327 L514 327 L514 132 L554 132 L554 89 L514 89 L514 47 L521 40 L554 40 L554 0 L394 0 L394 40 L431 40 L439 47 L439 89 L294 89 L294 128 L443 327 Z M439 132 L439 245 L351 132 L439 132 Z M103 678 Q118 678 129 686.5 Q140 695 143 703 L188 703 L188 423 L196 416 L240 416 L240 376 L60 376 L60 416 L104 416 L111 423 L111 631 L104 639 L60 639 L60 678 L103 678 Z M35 0 L504 700 L565 700 L96 0 L35 0 Z " />
<glyph glyph-name="onehalf" unicode="&#xbd;" horiz-adv-x="622" d="M349 303 Q362 310 380 316 Q394 321 414 325 Q434 329 457 329 Q489 329 510.5 321.5 Q532 314 545.5 302 Q559 290 565 274 Q571 258 571 240 Q571 206 549 181.5 Q527 157 477 126 Q442 105 430.5 95.5 Q419 86 419 72 L419 54 L522 54 L529 61 L529 98 L578 98 L578 0 L345 0 L345 58 Q345 77 349 90.5 Q353 104 363.5 116 Q374 128 390.5 140 Q407 152 433 168 Q469 190 482 205 Q495 220 495 240 Q495 257 485 268 Q475 279 449 279 Q435 279 425.5 276.5 Q416 274 408 272 L400 264 L400 229 L349 229 L349 303 Z M102 678 Q117 678 128 686.5 Q139 695 142 703 L187 703 L187 423 L195 416 L239 416 L239 376 L59 376 L59 416 L103 416 L110 423 L110 631 L103 639 L59 639 L59 678 L102 678 Z M34 0 L503 700 L564 700 L95 0 L34 0 Z " />
<glyph glyph-name="threequarters" unicode="&#xbe;" horiz-adv-x="630" d="M470 327 L541 327 L541 132 L581 132 L581 89 L541 89 L541 47 L548 40 L581 40 L581 0 L421 0 L421 40 L458 40 L466 47 L466 89 L321 89 L321 128 L470 327 Z M466 132 L466 245 L378 132 L466 132 Z M62 0 L531 700 L592 700 L123 0 L62 0 Z M55 684 Q69 690 85 694 Q99 698 117 701.5 Q135 705 156 705 Q188 705 210 697.5 Q232 690 245.5 678 Q259 666 265 651 Q271 636 271 621 Q271 589 256.5 569.5 Q242 550 218 542 L218 539 Q245 533 261 515.5 Q277 498 277 467 Q277 449 270.5 432 Q264 415 249.5 401.5 Q235 388 211.5 379.5 Q188 371 155 371 Q134 371 114.5 374 Q95 377 81 381 Q64 385 50 392 L50 467 L102 467 L102 433 L108 425 Q122 418 146 418 Q175 418 187 433 Q199 448 199 468 Q199 497 185.5 508.5 Q172 520 150 520 L111 520 L111 565 L150 565 Q169 565 181.5 576 Q194 587 194 614 Q194 631 182.5 644 Q171 657 145 657 Q134 657 126.5 655.5 Q119 654 114 652 L106 644 L106 609 L55 609 L55 684 Z " />
<glyph glyph-name="questiondown" unicode="&#xbf;" horiz-adv-x="502" d="M470.002 -113.961 Q441.004 -131.96 408.006 -146.959 Q379.008 -158.958 340.51 -169.457 Q302.012 -179.957 257.015 -179.957 Q193.019 -179.957 149.022 -164.958 Q105.024 -149.958 77.526 -125.46 Q50.0277 -100.961 38.0284 -69.9634 Q26.0292 -38.9653 26.0292 -5.96729 Q26.0292 56.0289 55.5274 97.0264 Q85.0256 138.024 154.021 170.022 Q178.02 181.021 193.519 190.021 Q209.018 199.02 218.017 207.02 Q227.017 215.019 231.017 224.019 Q235.016 233.018 235.016 245.017 L235.016 266.016 L259.015 324.013 L318.011 324.013 L343.01 266.016 L343.01 245.017 Q343.01 217.019 336.01 197.02 Q329.011 177.022 315.012 162.022 Q301.012 147.023 280.514 134.524 Q260.015 122.025 234.016 109.026 Q207.018 96.0265 191.519 82.0273 Q176.02 68.0282 168.021 54.529 Q160.021 41.0298 158.021 27.0307 Q156.021 13.0316 156.021 0.0323486 Q156.021 -19.9664 162.021 -37.9653 Q168.021 -55.9642 181.52 -69.9634 Q195.019 -83.9625 217.018 -91.962 Q239.016 -99.9615 271.014 -99.9615 Q304.012 -99.9615 331.511 -91.962 Q359.009 -83.9625 379.008 -72.9632 L395.007 -56.9642 L395.007 25.0308 L470.002 25.0308 L470.002 -113.961 Z M364.009 469.004 Q364.009 439.006 343.51 418.007 Q323.011 397.008 289.013 397.008 Q254.015 397.008 233.517 418.007 Q213.018 439.006 213.018 469.004 Q213.018 498.002 233.517 519.001 Q254.015 539.999 289.013 539.999 Q323.011 539.999 343.51 519.001 Q364.009 498.002 364.009 469.004 Z " />
<glyph glyph-name="Agrave" unicode="&#xc0;" horiz-adv-x="667" d="M439 193 L193 193 L157 81 L171 67 L227 67 L227 0 L-6 0 L-6 67 L44 67 L60 83 L276 702 L388 702 L611 81 L626 67 L676 67 L676 0 L415 0 L415 67 L465 67 L478 81 L439 193 Z M218 269 L413 269 L313 561 L218 269 Z M339 752 L322 752 L172 856 L227 924 L250 924 L371 788 L339 752 Z " />
<glyph glyph-name="Aacute" unicode="&#xc1;" horiz-adv-x="667" d="M439 193 L193 193 L157 81 L171 67 L227 67 L227 0 L-6 0 L-6 67 L44 67 L60 83 L276 702 L388 702 L611 81 L626 67 L676 67 L676 0 L415 0 L415 67 L465 67 L478 81 L439 193 Z M218 269 L413 269 L313 561 L218 269 Z M318 752 L285 788 L407 924 L428 924 L484 856 L334 752 L318 752 Z " />
<glyph glyph-name="Acircumflex" unicode="&#xc2;" horiz-adv-x="667" d="M439 193 L193 193 L157 81 L171 67 L227 67 L227 0 L-6 0 L-6 67 L44 67 L60 83 L276 702 L388 702 L611 81 L626 67 L676 67 L676 0 L415 0 L415 67 L465 67 L478 81 L439 193 Z M218 269 L413 269 L313 561 L218 269 Z M206 752 L183 780 L312 926 L353 926 L482 780 L459 752 L439 752 L333 837 L225 752 L206 752 Z " />
<glyph glyph-name="Atilde" unicode="&#xc3;" horiz-adv-x="667" d="M439 193 L193 193 L157 81 L171 67 L227 67 L227 0 L-6 0 L-6 67 L44 67 L60 83 L276 702 L388 702 L611 81 L626 67 L676 67 L676 0 L415 0 L415 67 L465 67 L478 81 L439 193 Z M218 269 L413 269 L313 561 L218 269 Z M492 896 L492 854 Q492 809 470 787.5 Q448 766 410 766 Q388 766 368 773 Q348 780 329 788 Q310 796 292.5 803 Q275 810 259 810 Q241 810 233.5 803.5 Q226 797 226 792 L226 756 L174 756 L174 794 Q174 847 196 868 Q218 889 255 889 Q276 889 295.5 881.5 Q315 874 334 865 Q353 856 371.5 848.5 Q390 841 409 841 Q429 841 435.5 849.5 Q442 858 442 863 L442 896 L492 896 Z " />
<glyph glyph-name="Adieresis" unicode="&#xc4;" horiz-adv-x="667" d="M439 193 L193 193 L157 81 L171 67 L227 67 L227 0 L-6 0 L-6 67 L44 67 L60 83 L276 702 L388 702 L611 81 L626 67 L676 67 L676 0 L415 0 L415 67 L465 67 L478 81 L439 193 Z M218 269 L413 269 L313 561 L218 269 Z M203 835 Q203 857 218.5 873 Q234 889 258 889 Q282 889 296.5 873 Q311 857 311 835 Q311 812 296.5 797 Q282 782 258 782 Q234 782 218.5 797 Q203 812 203 835 Z M352 835 Q352 857 367.5 873 Q383 889 407 889 Q431 889 446 873 Q461 857 461 835 Q461 812 446 797 Q431 782 407 782 Q383 782 367.5 797 Q352 812 352 835 Z " />
<glyph glyph-name="Aring" unicode="&#xc5;" horiz-adv-x="667" d="M439 193 L193 193 L157 81 L171 67 L227 67 L227 0 L-6 0 L-6 67 L44 67 L60 83 L276 702 L388 702 L611 81 L626 67 L676 67 L676 0 L415 0 L415 67 L465 67 L478 81 L439 193 Z M218 269 L413 269 L313 561 L218 269 Z M451 828 Q451 784 416.5 763.5 Q382 743 332 743 Q282 743 248 763.5 Q214 784 214 828 Q214 872 248 893 Q282 914 332 914 Q382 914 416.5 893 Q451 872 451 828 Z M385 828 Q385 877 332 877 Q280 877 280 828 Q280 780 332 780 Q385 780 385 828 Z " />
<glyph glyph-name="AE" unicode="&#xc6;" horiz-adv-x="987" d="M935 523 L860 523 L860 607 L844 622 L602 622 L602 395 L751 395 L766 410 L766 464 L836 464 L836 252 L766 252 L766 306 L752 320 L602 320 L602 78 L854 78 L870 93 L870 178 L945 178 L945 0 L403 0 L403 67 L459 67 L475 83 L475 195 L230 195 L165 76 L173 67 L227 67 L227 0 L-7 0 L-7 67 L45 67 L60 82 L409 700 L935 700 L935 523 Z M460 620 L269 270 L475 270 L475 620 L460 620 Z " />
<glyph glyph-name="Ccedilla" unicode="&#xc7;" horiz-adv-x="593" d="M554 29 Q522 15 476.5 2.5 Q431 -10 362 -10 Q211 -10 127.5 76.5 Q44 163 44 349 Q44 440 68 508 Q92 576 135.5 621 Q179 666 240 688 Q301 710 376 710 Q409 710 438 707 Q467 704 489.5 700 Q512 696 526 692 Q540 688 544 686 L544 516 L465 516 L465 603 L451 618 Q434 623 416 625.5 Q398 628 376 628 Q323 628 285 609.5 Q247 591 223 556.5 Q199 522 188 471.5 Q177 421 177 358 Q177 218 224.5 146.5 Q272 75 382 75 Q405 75 424 76.5 Q443 78 460 83 L475 99 L475 192 L554 192 L554 29 Z M323 -180 Q292 -180 264.5 -172 Q237 -164 220 -153 L237 -119 Q247 -124 269.5 -131.5 Q292 -139 313 -139 Q330 -139 343 -132.5 Q356 -126 356 -108 Q356 -90 331.5 -79.5 Q307 -69 266 -65 L266 -48 L316 13 L381 12 L341 -39 Q383 -41 410.5 -56 Q438 -71 438 -104 Q438 -125 428 -139.5 Q418 -154 402 -163 Q386 -172 365.5 -176 Q345 -180 323 -180 Z " />
<glyph glyph-name="Egrave" unicode="&#xc8;" horiz-adv-x="627" d="M346 752 L329 752 L179 856 L234 924 L257 924 L378 788 L346 752 Z M241 622 L241 395 L390 395 L406 410 L406 464 L475 464 L475 252 L406 252 L406 306 L391 320 L241 320 L241 78 L494 78 L510 93 L510 178 L585 178 L585 0 L42 0 L42 67 L98 67 L114 83 L114 617 L98 633 L42 633 L42 700 L575 700 L575 523 L500 523 L500 607 L484 622 L241 622 Z " />
<glyph glyph-name="Eacute" unicode="&#xc9;" horiz-adv-x="627" d="M241 622 L241 395 L390 395 L406 410 L406 464 L475 464 L475 252 L406 252 L406 306 L391 320 L241 320 L241 78 L494 78 L510 93 L510 178 L585 178 L585 0 L42 0 L42 67 L98 67 L114 83 L114 617 L98 633 L42 633 L42 700 L575 700 L575 523 L500 523 L500 607 L484 622 L241 622 Z M326 752 L293 788 L415 924 L436 924 L492 856 L342 752 L326 752 Z " />
<glyph glyph-name="Ecircumflex" unicode="&#xca;" horiz-adv-x="627" d="M213 752 L190 780 L319 926 L360 926 L489 780 L466 752 L446 752 L340 837 L232 752 L213 752 Z M241 622 L241 395 L390 395 L406 410 L406 464 L475 464 L475 252 L406 252 L406 306 L391 320 L241 320 L241 78 L494 78 L510 93 L510 178 L585 178 L585 0 L42 0 L42 67 L98 67 L114 83 L114 617 L98 633 L42 633 L42 700 L575 700 L575 523 L500 523 L500 607 L484 622 L241 622 Z " />
<glyph glyph-name="Edieresis" unicode="&#xcb;" horiz-adv-x="627" d="M241 622 L241 395 L390 395 L406 410 L406 464 L475 464 L475 252 L406 252 L406 306 L391 320 L241 320 L241 78 L494 78 L510 93 L510 178 L585 178 L585 0 L42 0 L42 67 L98 67 L114 83 L114 617 L98 633 L42 633 L42 700 L575 700 L575 523 L500 523 L500 607 L484 622 L241 622 Z M210 835 Q210 857 225.5 873 Q241 889 265 889 Q289 889 303.5 873 Q318 857 318 835 Q318 812 303.5 797 Q289 782 265 782 Q241 782 225.5 797 Q210 812 210 835 Z M359 835 Q359 857 374.5 873 Q390 889 414 889 Q438 889 453 873 Q468 857 468 835 Q468 812 453 797 Q438 782 414 782 Q390 782 374.5 797 Q359 812 359 835 Z " />
<glyph glyph-name="Igrave" unicode="&#xcc;" horiz-adv-x="355" d="M114 617 L98 633 L42 633 L42 700 L313 700 L313 633 L256 633 L241 617 L241 83 L256 67 L313 67 L313 0 L42 0 L42 67 L98 67 L114 83 L114 617 Z M183 752 L166 752 L16 856 L71 924 L94 924 L215 788 L183 752 Z " />
<glyph glyph-name="Iacute" unicode="&#xcd;" horiz-adv-x="355" d="M114 617 L98 633 L42 633 L42 700 L313 700 L313 633 L256 633 L241 617 L241 83 L256 67 L313 67 L313 0 L42 0 L42 67 L98 67 L114 83 L114 617 Z M163 752 L130 788 L252 924 L273 924 L329 856 L179 752 L163 752 Z " />
<glyph glyph-name="Icircumflex" unicode="&#xce;" horiz-adv-x="355" d="M114 617 L98 633 L42 633 L42 700 L313 700 L313 633 L256 633 L241 617 L241 83 L256 67 L313 67 L313 0 L42 0 L42 67 L98 67 L114 83 L114 617 Z M51 752 L28 780 L157 926 L198 926 L327 780 L304 752 L284 752 L178 837 L70 752 L51 752 Z " />
<glyph glyph-name="Idieresis" unicode="&#xcf;" horiz-adv-x="355" d="M114 617 L98 633 L42 633 L42 700 L313 700 L313 633 L256 633 L241 617 L241 83 L256 67 L313 67 L313 0 L42 0 L42 67 L98 67 L114 83 L114 617 Z M48 835 Q48 857 63.5 873 Q79 889 103 889 Q127 889 141.5 873 Q156 857 156 835 Q156 812 141.5 797 Q127 782 103 782 Q79 782 63.5 797 Q48 812 48 835 Z M197 835 Q197 857 212.5 873 Q228 889 252 889 Q276 889 291 873 Q306 857 306 835 Q306 812 291 797 Q276 782 252 782 Q228 782 212.5 797 Q197 812 197 835 Z " />
<glyph glyph-name="Eth" unicode="&#xd0;" horiz-adv-x="703" d="M45 387 L115 387 L115 618 L99 634 L42 634 L42 701 L339 701 Q412 701 471 680.5 Q530 660 572 617.5 Q614 575 636.5 510 Q659 445 659 357 Q659 266 636.5 199 Q614 132 572 88 Q530 44 471 22.5 Q412 1 339 1 L42 1 L42 68 L99 68 L115 84 L115 328 L45 328 L45 387 Z M242 387 L406 387 L406 328 L242 328 L242 82 L339 82 Q440 82 483 149.5 Q526 217 526 357 Q526 492 483 556 Q440 620 339 620 L242 620 L242 387 Z " />
<glyph glyph-name="Ntilde" unicode="&#xd1;" horiz-adv-x="732" d="M530 896 L530 854 Q530 809 508 787.5 Q486 766 448 766 Q426 766 406 773 Q386 780 367 788 Q348 796 330.5 803 Q313 810 297 810 Q279 810 271.5 803.5 Q264 797 264 792 L264 756 L212 756 L212 794 Q212 847 234 868 Q256 889 293 889 Q314 889 333.5 881.5 Q353 874 372 865 Q391 856 409.5 848.5 Q428 841 447 841 Q467 841 473.5 849.5 Q480 858 480 863 L480 896 L530 896 Z M41 0 L41 67 L98 67 L114 83 L114 617 L98 633 L41 633 L41 700 L224 700 L531 216 L531 617 L515 633 L459 633 L459 700 L698 700 L698 633 L641 633 L626 617 L626 -3 L536 -3 L208 511 L208 83 L224 67 L281 67 L281 0 L41 0 Z " />
<glyph glyph-name="Ograve" unicode="&#xd2;" horiz-adv-x="670" d="M343 752 L326 752 L176 856 L231 924 L254 924 L375 788 L343 752 Z M43 350 Q43 440 64.5 507.5 Q86 575 125 620 Q164 665 217.5 687.5 Q271 710 335 710 Q399 710 453 687.5 Q507 665 545.5 620 Q584 575 605.5 507.5 Q627 440 627 350 Q627 260 605.5 192.5 Q584 125 545.5 80 Q507 35 453 12.5 Q399 -10 335 -10 Q271 -10 217.5 12.5 Q164 35 125 80 Q86 125 64.5 192.5 Q43 260 43 350 Z M177 350 Q177 209 214.5 141.5 Q252 74 335 74 Q418 74 455.5 141.5 Q493 209 493 350 Q493 491 455.5 558.5 Q418 626 335 626 Q252 626 214.5 558.5 Q177 491 177 350 Z " />
<glyph glyph-name="Oacute" unicode="&#xd3;" horiz-adv-x="670" d="M323 752 L290 788 L412 924 L433 924 L489 856 L339 752 L323 752 Z M43 350 Q43 440 64.5 507.5 Q86 575 125 620 Q164 665 217.5 687.5 Q271 710 335 710 Q399 710 453 687.5 Q507 665 545.5 620 Q584 575 605.5 507.5 Q627 440 627 350 Q627 260 605.5 192.5 Q584 125 545.5 80 Q507 35 453 12.5 Q399 -10 335 -10 Q271 -10 217.5 12.5 Q164 35 125 80 Q86 125 64.5 192.5 Q43 260 43 350 Z M177 350 Q177 209 214.5 141.5 Q252 74 335 74 Q418 74 455.5 141.5 Q493 209 493 350 Q493 491 455.5 558.5 Q418 626 335 626 Q252 626 214.5 558.5 Q177 491 177 350 Z " />
<glyph glyph-name="Ocircumflex" unicode="&#xd4;" horiz-adv-x="670" d="M211 752 L188 780 L317 926 L358 926 L487 780 L464 752 L444 752 L338 837 L230 752 L211 752 Z M43 350 Q43 440 64.5 507.5 Q86 575 125 620 Q164 665 217.5 687.5 Q271 710 335 710 Q399 710 453 687.5 Q507 665 545.5 620 Q584 575 605.5 507.5 Q627 440 627 350 Q627 260 605.5 192.5 Q584 125 545.5 80 Q507 35 453 12.5 Q399 -10 335 -10 Q271 -10 217.5 12.5 Q164 35 125 80 Q86 125 64.5 192.5 Q43 260 43 350 Z M177 350 Q177 209 214.5 141.5 Q252 74 335 74 Q418 74 455.5 141.5 Q493 209 493 350 Q493 491 455.5 558.5 Q418 626 335 626 Q252 626 214.5 558.5 Q177 491 177 350 Z " />
<glyph glyph-name="Otilde" unicode="&#xd5;" horiz-adv-x="670" d="M43 350 Q43 440 64.5 507.5 Q86 575 125 620 Q164 665 217.5 687.5 Q271 710 335 710 Q399 710 453 687.5 Q507 665 545.5 620 Q584 575 605.5 507.5 Q627 440 627 350 Q627 260 605.5 192.5 Q584 125 545.5 80 Q507 35 453 12.5 Q399 -10 335 -10 Q271 -10 217.5 12.5 Q164 35 125 80 Q86 125 64.5 192.5 Q43 260 43 350 Z M177 350 Q177 209 214.5 141.5 Q252 74 335 74 Q418 74 455.5 141.5 Q493 209 493 350 Q493 491 455.5 558.5 Q418 626 335 626 Q252 626 214.5 558.5 Q177 491 177 350 Z M497 896 L497 854 Q497 809 475 787.5 Q453 766 415 766 Q393 766 373 773 Q353 780 334 788 Q315 796 297.5 803 Q280 810 264 810 Q246 810 238.5 803.5 Q231 797 231 792 L231 756 L179 756 L179 794 Q179 847 201 868 Q223 889 260 889 Q281 889 300.5 881.5 Q320 874 339 865 Q358 856 376.5 848.5 Q395 841 414 841 Q434 841 440.5 849.5 Q447 858 447 863 L447 896 L497 896 Z " />
<glyph glyph-name="Odieresis" unicode="&#xd6;" horiz-adv-x="670" d="M43 350 Q43 440 64.5 507.5 Q86 575 125 620 Q164 665 217.5 687.5 Q271 710 335 710 Q399 710 453 687.5 Q507 665 545.5 620 Q584 575 605.5 507.5 Q627 440 627 350 Q627 260 605.5 192.5 Q584 125 545.5 80 Q507 35 453 12.5 Q399 -10 335 -10 Q271 -10 217.5 12.5 Q164 35 125 80 Q86 125 64.5 192.5 Q43 260 43 350 Z M177 350 Q177 209 214.5 141.5 Q252 74 335 74 Q418 74 455.5 141.5 Q493 209 493 350 Q493 491 455.5 558.5 Q418 626 335 626 Q252 626 214.5 558.5 Q177 491 177 350 Z M208 835 Q208 857 223.5 873 Q239 889 263 889 Q287 889 301.5 873 Q316 857 316 835 Q316 812 301.5 797 Q287 782 263 782 Q239 782 223.5 797 Q208 812 208 835 Z M357 835 Q357 857 372.5 873 Q388 889 412 889 Q436 889 451 873 Q466 857 466 835 Q466 812 451 797 Q436 782 412 782 Q388 782 372.5 797 Q357 812 357 835 Z " />
<glyph glyph-name="multiply" unicode="&#xd7;" horiz-adv-x="477" d="M51 203 L182 333 L51 463 L109 520 L238 389 L368 520 L425 463 L294 333 L426 203 L369 146 L238 277 L108 146 L51 203 Z " />
<glyph glyph-name="Oslash" unicode="&#xd8;" horiz-adv-x="677" d="M46 350 Q46 440 67.5 507.5 Q89 575 127.5 620 Q166 665 219.5 687.5 Q273 710 338 710 Q450 710 524 644 L571 710 L637 710 L561 604 Q594 559 612 496 Q630 433 630 350 Q630 260 608.5 192.5 Q587 125 548.5 80 Q510 35 456 12.5 Q402 -10 338 -10 Q232 -10 162 47 L121 -10 L55 -10 L123 85 Q86 130 66 196 Q46 262 46 350 Z M180 350 Q180 300 184 260.5 Q188 221 198 189 L460 555 Q421 626 338 626 Q255 626 217.5 558.5 Q180 491 180 350 Z M496 350 Q496 393 493 429 Q490 465 482 494 L223 132 Q262 74 338 74 Q421 74 458.5 141.5 Q496 209 496 350 Z " />
<glyph glyph-name="Ugrave" unicode="&#xd9;" horiz-adv-x="690" d="M368 752 L351 752 L201 856 L256 924 L279 924 L400 788 L368 752 Z M490 617 L474 633 L418 633 L418 700 L662 700 L662 633 L606 633 L590 617 L590 233 Q590 171 573 125 Q556 79 524.5 49 Q493 19 448.5 4.5 Q404 -10 348 -10 Q291 -10 245.5 4.5 Q200 19 167.5 49 Q135 79 117.5 125 Q100 171 100 233 L100 617 L84 633 L28 633 L28 700 L301 700 L301 633 L244 633 L229 617 L229 232 Q229 152 259.5 112.5 Q290 73 357 73 Q431 73 460.5 112.5 Q490 152 490 232 L490 617 Z " />
<glyph glyph-name="Uacute" unicode="&#xda;" horiz-adv-x="690" d="M490 617 L474 633 L418 633 L418 700 L662 700 L662 633 L606 633 L590 617 L590 233 Q590 171 573 125 Q556 79 524.5 49 Q493 19 448.5 4.5 Q404 -10 348 -10 Q291 -10 245.5 4.5 Q200 19 167.5 49 Q135 79 117.5 125 Q100 171 100 233 L100 617 L84 633 L28 633 L28 700 L301 700 L301 633 L244 633 L229 617 L229 232 Q229 152 259.5 112.5 Q290 73 357 73 Q431 73 460.5 112.5 Q490 152 490 232 L490 617 Z M347 752 L314 788 L436 924 L457 924 L513 856 L363 752 L347 752 Z " />
<glyph glyph-name="Ucircumflex" unicode="&#xdb;" horiz-adv-x="690" d="M235 752 L212 780 L341 926 L382 926 L511 780 L488 752 L468 752 L362 837 L254 752 L235 752 Z M490 617 L474 633 L418 633 L418 700 L662 700 L662 633 L606 633 L590 617 L590 233 Q590 171 573 125 Q556 79 524.5 49 Q493 19 448.5 4.5 Q404 -10 348 -10 Q291 -10 245.5 4.5 Q200 19 167.5 49 Q135 79 117.5 125 Q100 171 100 233 L100 617 L84 633 L28 633 L28 700 L301 700 L301 633 L244 633 L229 617 L229 232 Q229 152 259.5 112.5 Q290 73 357 73 Q431 73 460.5 112.5 Q490 152 490 232 L490 617 Z " />
<glyph glyph-name="Udieresis" unicode="&#xdc;" horiz-adv-x="690" d="M490 617 L474 633 L418 633 L418 700 L662 700 L662 633 L606 633 L590 617 L590 233 Q590 171 573 125 Q556 79 524.5 49 Q493 19 448.5 4.5 Q404 -10 348 -10 Q291 -10 245.5 4.5 Q200 19 167.5 49 Q135 79 117.5 125 Q100 171 100 233 L100 617 L84 633 L28 633 L28 700 L301 700 L301 633 L244 633 L229 617 L229 232 Q229 152 259.5 112.5 Q290 73 357 73 Q431 73 460.5 112.5 Q490 152 490 232 L490 617 Z M232 835 Q232 857 247.5 873 Q263 889 287 889 Q311 889 325.5 873 Q340 857 340 835 Q340 812 325.5 797 Q311 782 287 782 Q263 782 247.5 797 Q232 812 232 835 Z M381 835 Q381 857 396.5 873 Q412 889 436 889 Q460 889 475 873 Q490 857 490 835 Q490 812 475 797 Q460 782 436 782 Q412 782 396.5 797 Q381 812 381 835 Z " />
<glyph glyph-name="Yacute" unicode="&#xdd;" horiz-adv-x="627" d="M255 271 L55 618 L40 633 L-5 633 L-5 700 L259 700 L259 633 L207 633 L195 619 L334 372 L466 618 L454 633 L397 633 L397 700 L623 700 L623 633 L579 633 L563 617 L382 293 L382 83 L398 67 L454 67 L454 0 L183 0 L183 67 L239 67 L255 83 L255 271 Z M312 752 L279 788 L401 924 L422 924 L478 856 L328 752 L312 752 Z " />
<glyph glyph-name="Ygrave" unicode="&#x1ef2;" horiz-adv-x="627" d="M255 271 L55 618 L40 633 L-5 633 L-5 700 L259 700 L259 633 L207 633 L195 619 L334 372 L466 618 L454 633 L397 633 L397 700 L623 700 L623 633 L579 633 L563 617 L382 293 L382 83 L398 67 L454 67 L454 0 L183 0 L183 67 L239 67 L255 83 L255 271 Z M342 752 L325 752 L175 856 L230 924 L253 924 L374 788 L342 752 Z " />
<glyph glyph-name="Thorn" unicode="&#xde;" horiz-adv-x="640" d="M42 0 L42 67 L98 67 L114 83 L114 617 L98 633 L42 633 L42 700 L313 700 L313 633 L256 633 L241 617 L241 557 L348 557 Q409 557 458 545.5 Q507 534 541 509.5 Q575 485 593.5 447 Q612 409 612 357 Q612 305 593.5 266.5 Q575 228 541 202.5 Q507 177 458 164.5 Q409 152 348 152 L241 152 L241 83 L256 67 L313 67 L313 0 L42 0 Z M241 481 L241 229 L348 229 Q421 229 451 259.5 Q481 290 481 355 Q481 418 451 449.5 Q421 481 348 481 L241 481 Z " />
<glyph glyph-name="germandbls" unicode="&#xdf;" horiz-adv-x="622" d="M28 66 L85 66 L101 82 L101 461 L28 461 L28 526 L85 526 L101 542 L101 552 Q101 590 114.5 624.5 Q128 659 155.5 684.5 Q183 710 224 725 Q265 740 321 740 Q354 740 388 731.5 Q422 723 450 704 Q478 685 496 654 Q514 623 514 578 Q514 544 498 521 Q482 498 462.5 479.5 Q443 461 427 444.5 Q411 428 411 407 Q411 383 429.5 365 Q448 347 480 316 Q504 292 525.5 271.5 Q547 251 563.5 229.5 Q580 208 590 183.5 Q600 159 600 128 Q600 65 560 27.5 Q520 -10 451 -10 Q422 -10 399 -7 Q376 -4 360 1 Q342 6 327 13 L327 132 L392 132 L392 69 L406 54 Q414 52 427 52 Q456 52 473.5 67.5 Q491 83 491 119 Q491 151 465.5 176.5 Q440 202 402 236 Q356 276 333 306.5 Q310 337 310 378 Q310 408 326 427 Q342 446 361.5 465.5 Q381 485 397 510 Q413 535 413 577 Q413 636 385 661 Q357 686 318 686 Q298 686 280 680.5 Q262 675 248.5 661 Q235 647 227.5 622.5 Q220 598 220 561 L220 82 L235 66 L283 66 L283 0 L28 0 L28 66 Z " />
<glyph glyph-name="agrave" unicode="&#xe0;" horiz-adv-x="534" d="M522 0 L383 0 Q355 0 347 12.5 Q339 25 339 42 L339 66 L335 66 Q326 55 312.5 42 Q299 29 280.5 17.5 Q262 6 238.5 -2 Q215 -10 187 -10 Q148 -10 119 2 Q90 14 71 34.5 Q52 55 42.5 82.5 Q33 110 33 142 Q33 218 80.5 258.5 Q128 299 204 299 L332 299 L332 349 Q332 373 329 394 Q326 415 315.5 430 Q305 445 285 454 Q265 463 231 463 Q214 463 197 460.5 Q180 458 165 454 L150 440 L150 364 L71 364 L71 504 Q103 515 153 526.5 Q203 538 268 538 Q320 538 355 524.5 Q390 511 411 488 Q432 465 441 434 Q450 403 450 368 L450 80 L466 63 L522 63 L522 0 Z M231 80 Q260 80 286 94 Q312 108 332 127 L332 228 L235 228 Q195 228 173 210.5 Q151 193 151 151 Q151 118 167.5 99 Q184 80 231 80 Z M276 579 L260 579 L110 684 L165 751 L187 751 L309 615 L276 579 Z " />
<glyph glyph-name="aacute" unicode="&#xe1;" horiz-adv-x="534" d="M522 0 L383 0 Q355 0 347 12.5 Q339 25 339 42 L339 66 L335 66 Q326 55 312.5 42 Q299 29 280.5 17.5 Q262 6 238.5 -2 Q215 -10 187 -10 Q148 -10 119 2 Q90 14 71 34.5 Q52 55 42.5 82.5 Q33 110 33 142 Q33 218 80.5 258.5 Q128 299 204 299 L332 299 L332 349 Q332 373 329 394 Q326 415 315.5 430 Q305 445 285 454 Q265 463 231 463 Q214 463 197 460.5 Q180 458 165 454 L150 440 L150 364 L71 364 L71 504 Q103 515 153 526.5 Q203 538 268 538 Q320 538 355 524.5 Q390 511 411 488 Q432 465 441 434 Q450 403 450 368 L450 80 L466 63 L522 63 L522 0 Z M231 80 Q260 80 286 94 Q312 108 332 127 L332 228 L235 228 Q195 228 173 210.5 Q151 193 151 151 Q151 118 167.5 99 Q184 80 231 80 Z M254 579 L221 615 L343 751 L365 751 L420 684 L271 579 L254 579 Z " />
<glyph glyph-name="acircumflex" unicode="&#xe2;" horiz-adv-x="534" d="M522 0 L383 0 Q355 0 347 12.5 Q339 25 339 42 L339 66 L335 66 Q326 55 312.5 42 Q299 29 280.5 17.5 Q262 6 238.5 -2 Q215 -10 187 -10 Q148 -10 119 2 Q90 14 71 34.5 Q52 55 42.5 82.5 Q33 110 33 142 Q33 218 80.5 258.5 Q128 299 204 299 L332 299 L332 349 Q332 373 329 394 Q326 415 315.5 430 Q305 445 285 454 Q265 463 231 463 Q214 463 197 460.5 Q180 458 165 454 L150 440 L150 364 L71 364 L71 504 Q103 515 153 526.5 Q203 538 268 538 Q320 538 355 524.5 Q390 511 411 488 Q432 465 441 434 Q450 403 450 368 L450 80 L466 63 L522 63 L522 0 Z M231 80 Q260 80 286 94 Q312 108 332 127 L332 228 L235 228 Q195 228 173 210.5 Q151 193 151 151 Q151 118 167.5 99 Q184 80 231 80 Z M137 579 L116 606 L242 751 L281 751 L407 606 L386 579 L367 579 L261 667 L155 579 L137 579 Z " />
<glyph glyph-name="atilde" unicode="&#xe3;" horiz-adv-x="534" d="M522 0 L383 0 Q355 0 347 12.5 Q339 25 339 42 L339 66 L335 66 Q326 55 312.5 42 Q299 29 280.5 17.5 Q262 6 238.5 -2 Q215 -10 187 -10 Q148 -10 119 2 Q90 14 71 34.5 Q52 55 42.5 82.5 Q33 110 33 142 Q33 218 80.5 258.5 Q128 299 204 299 L332 299 L332 349 Q332 373 329 394 Q326 415 315.5 430 Q305 445 285 454 Q265 463 231 463 Q214 463 197 460.5 Q180 458 165 454 L150 440 L150 364 L71 364 L71 504 Q103 515 153 526.5 Q203 538 268 538 Q320 538 355 524.5 Q390 511 411 488 Q432 465 441 434 Q450 403 450 368 L450 80 L466 63 L522 63 L522 0 Z M231 80 Q260 80 286 94 Q312 108 332 127 L332 228 L235 228 Q195 228 173 210.5 Q151 193 151 151 Q151 118 167.5 99 Q184 80 231 80 Z M420 723 L420 682 Q420 637 398 615 Q376 593 338 593 Q316 593 296 600 Q276 607 257 615.5 Q238 624 220.5 631 Q203 638 187 638 Q169 638 161.5 631 Q154 624 154 619 L154 583 L102 583 L102 621 Q102 674 124 695.5 Q146 717 183 717 Q204 717 223.5 709.5 Q243 702 262 692.5 Q281 683 299.5 675.5 Q318 668 337 668 Q357 668 363.5 677 Q370 686 370 691 L370 723 L420 723 Z " />
<glyph glyph-name="adieresis" unicode="&#xe4;" horiz-adv-x="534" d="M522 0 L383 0 Q355 0 347 12.5 Q339 25 339 42 L339 66 L335 66 Q326 55 312.5 42 Q299 29 280.5 17.5 Q262 6 238.5 -2 Q215 -10 187 -10 Q148 -10 119 2 Q90 14 71 34.5 Q52 55 42.5 82.5 Q33 110 33 142 Q33 218 80.5 258.5 Q128 299 204 299 L332 299 L332 349 Q332 373 329 394 Q326 415 315.5 430 Q305 445 285 454 Q265 463 231 463 Q214 463 197 460.5 Q180 458 165 454 L150 440 L150 364 L71 364 L71 504 Q103 515 153 526.5 Q203 538 268 538 Q320 538 355 524.5 Q390 511 411 488 Q432 465 441 434 Q450 403 450 368 L450 80 L466 63 L522 63 L522 0 Z M231 80 Q260 80 286 94 Q312 108 332 127 L332 228 L235 228 Q195 228 173 210.5 Q151 193 151 151 Q151 118 167.5 99 Q184 80 231 80 Z M132 663 Q132 685 147 701 Q162 717 186 717 Q210 717 225 701 Q240 685 240 663 Q240 640 225 624.5 Q210 609 186 609 Q162 609 147 624.5 Q132 640 132 663 Z M281 663 Q281 685 296.5 701 Q312 717 335 717 Q359 717 374.5 701 Q390 685 390 663 Q390 640 374.5 624.5 Q359 609 335 609 Q312 609 296.5 624.5 Q281 640 281 663 Z " />
<glyph glyph-name="aring" unicode="&#xe5;" horiz-adv-x="534" d="M522 0 L383 0 Q355 0 347 12.5 Q339 25 339 42 L339 66 L335 66 Q326 55 312.5 42 Q299 29 280.5 17.5 Q262 6 238.5 -2 Q215 -10 187 -10 Q148 -10 119 2 Q90 14 71 34.5 Q52 55 42.5 82.5 Q33 110 33 142 Q33 218 80.5 258.5 Q128 299 204 299 L332 299 L332 349 Q332 373 329 394 Q326 415 315.5 430 Q305 445 285 454 Q265 463 231 463 Q214 463 197 460.5 Q180 458 165 454 L150 440 L150 364 L71 364 L71 504 Q103 515 153 526.5 Q203 538 268 538 Q320 538 355 524.5 Q390 511 411 488 Q432 465 441 434 Q450 403 450 368 L450 80 L466 63 L522 63 L522 0 Z M231 80 Q260 80 286 94 Q312 108 332 127 L332 228 L235 228 Q195 228 173 210.5 Q151 193 151 151 Q151 118 167.5 99 Q184 80 231 80 Z M379 656 Q379 612 345 591 Q311 570 260 570 Q210 570 176 591 Q142 612 142 656 Q142 700 176 721 Q210 742 260 742 Q310 742 344.5 721 Q379 700 379 656 Z M313 656 Q313 705 260 705 Q208 705 208 656 Q208 607 260 607 Q313 607 313 656 Z " />
<glyph glyph-name="ae" unicode="&#xe6;" horiz-adv-x="795" d="M453 232 Q460 143 500.5 105.5 Q541 68 610 68 Q652 68 684.5 76 Q717 84 734 91 L734 26 Q711 12 671 1 Q631 -10 571 -10 Q513 -10 462 12 Q411 34 378 82 Q367 69 349 53 Q331 37 307 23 Q283 9 253 -0.5 Q223 -10 187 -10 Q148 -10 119 2 Q90 14 71 34.5 Q52 55 42.5 83 Q33 111 33 143 Q33 220 80.5 259.5 Q128 299 204 299 L332 299 L332 349 Q332 373 329 394 Q326 415 315.5 430 Q305 445 285 454 Q265 463 231 463 Q214 463 197 460.5 Q180 458 165 454 L150 440 L150 364 L71 364 L71 504 Q104 515 154 526.5 Q204 538 270 538 Q324 538 356.5 518.5 Q389 499 406 467 Q462 538 556 538 Q602 538 640 523.5 Q678 509 705 481 Q732 453 746.5 413.5 Q761 374 761 323 L761 248 L746 232 L453 232 Z M555 462 Q506 462 482 420.5 Q458 379 453 303 L644 303 L644 335 Q644 401 621 431.5 Q598 462 555 462 Z M231 80 Q266 80 297.5 95 Q329 110 352 130 Q344 151 339 175 Q334 199 332 228 L235 228 Q199 228 175 211.5 Q151 195 151 157 Q151 121 168.5 100.5 Q186 80 231 80 Z " />
<glyph glyph-name="ccedilla" unicode="&#xe7;" horiz-adv-x="465" d="M426 28 Q404 9 364.5 -0.5 Q325 -10 283 -10 Q233 -10 188 6 Q143 22 109.5 55 Q76 88 56 138 Q36 188 36 256 Q36 325 56.5 378 Q77 431 111.5 466.5 Q146 502 192.5 520 Q239 538 292 538 Q346 538 382.5 528 Q419 518 427 515 L427 364 L348 364 L348 444 L333 458 Q316 463 300 463 Q160 463 160 261 Q160 160 200.5 114 Q241 68 314 68 Q348 68 380 75.5 Q412 83 426 90 L426 28 Z M231 -180 Q200 -180 172.5 -172 Q145 -164 128 -153 L145 -119 Q155 -124 177.5 -131.5 Q200 -139 221 -139 Q238 -139 251 -132.5 Q264 -126 264 -108 Q264 -90 239.5 -79.5 Q215 -69 174 -65 L174 -48 L224 13 L289 12 L249 -39 Q291 -41 318.5 -56 Q346 -71 346 -104 Q346 -125 336 -139.5 Q326 -154 310 -163 Q294 -172 273.5 -176 Q253 -180 231 -180 Z " />
<glyph glyph-name="egrave" unicode="&#xe8;" horiz-adv-x="503" d="M454 232 L159 232 Q166 143 207.5 105.5 Q249 68 318 68 Q360 68 392.5 76 Q425 84 442 91 L442 26 Q419 12 379.5 1 Q340 -10 279 -10 Q229 -10 184.5 5.5 Q140 21 107 53 Q74 85 55 135.5 Q36 186 36 256 Q36 326 53.5 379 Q71 432 102 467 Q133 502 175 520 Q217 538 265 538 Q311 538 348.5 523.5 Q386 509 413 481 Q440 453 455 413.5 Q470 374 470 323 L470 248 L454 232 Z M263 463 Q169 463 160 303 L352 303 L352 335 Q352 401 329 432 Q306 463 263 463 Z M287 579 L271 579 L121 684 L176 751 L198 751 L320 615 L287 579 Z " />
<glyph glyph-name="eacute" unicode="&#xe9;" horiz-adv-x="503" d="M265 579 L232 615 L354 751 L376 751 L431 684 L282 579 L265 579 Z M454 232 L159 232 Q166 143 207.5 105.5 Q249 68 318 68 Q360 68 392.5 76 Q425 84 442 91 L442 26 Q419 12 379.5 1 Q340 -10 279 -10 Q229 -10 184.5 5.5 Q140 21 107 53 Q74 85 55 135.5 Q36 186 36 256 Q36 326 53.5 379 Q71 432 102 467 Q133 502 175 520 Q217 538 265 538 Q311 538 348.5 523.5 Q386 509 413 481 Q440 453 455 413.5 Q470 374 470 323 L470 248 L454 232 Z M263 463 Q169 463 160 303 L352 303 L352 335 Q352 401 329 432 Q306 463 263 463 Z " />
<glyph glyph-name="ecircumflex" unicode="&#xea;" horiz-adv-x="503" d="M147 579 L126 606 L252 751 L291 751 L417 606 L396 579 L377 579 L271 667 L165 579 L147 579 Z M454 232 L159 232 Q166 143 207.5 105.5 Q249 68 318 68 Q360 68 392.5 76 Q425 84 442 91 L442 26 Q419 12 379.5 1 Q340 -10 279 -10 Q229 -10 184.5 5.5 Q140 21 107 53 Q74 85 55 135.5 Q36 186 36 256 Q36 326 53.5 379 Q71 432 102 467 Q133 502 175 520 Q217 538 265 538 Q311 538 348.5 523.5 Q386 509 413 481 Q440 453 455 413.5 Q470 374 470 323 L470 248 L454 232 Z M263 463 Q169 463 160 303 L352 303 L352 335 Q352 401 329 432 Q306 463 263 463 Z " />
<glyph glyph-name="edieresis" unicode="&#xeb;" horiz-adv-x="503" d="M143 663 Q143 685 158 701 Q173 717 197 717 Q221 717 236 701 Q251 685 251 663 Q251 640 236 624.5 Q221 609 197 609 Q173 609 158 624.5 Q143 640 143 663 Z M292 663 Q292 685 307.5 701 Q323 717 346 717 Q370 717 385.5 701 Q401 685 401 663 Q401 640 385.5 624.5 Q370 609 346 609 Q323 609 307.5 624.5 Q292 640 292 663 Z M454 232 L159 232 Q166 143 207.5 105.5 Q249 68 318 68 Q360 68 392.5 76 Q425 84 442 91 L442 26 Q419 12 379.5 1 Q340 -10 279 -10 Q229 -10 184.5 5.5 Q140 21 107 53 Q74 85 55 135.5 Q36 186 36 256 Q36 326 53.5 379 Q71 432 102 467 Q133 502 175 520 Q217 538 265 538 Q311 538 348.5 523.5 Q386 509 413 481 Q440 453 455 413.5 Q470 374 470 323 L470 248 L454 232 Z M263 463 Q169 463 160 303 L352 303 L352 335 Q352 401 329 432 Q306 463 263 463 Z " />
<glyph glyph-name="igrave" unicode="&#xec;" horiz-adv-x="312" d="M177 528 Q204 528 212.5 515.5 Q221 503 221 486 L221 80 L236 63 L293 63 L293 0 L29 0 L29 63 L86 63 L102 80 L102 444 L86 461 L29 461 L29 528 L177 528 Z M173 579 L157 579 L7 684 L62 751 L84 751 L206 615 L173 579 Z " />
<glyph glyph-name="iacute" unicode="&#xed;" horiz-adv-x="312" d="M151 579 L118 615 L240 751 L262 751 L317 684 L168 579 L151 579 Z M177 528 Q204 528 212.5 515.5 Q221 503 221 486 L221 80 L236 63 L293 63 L293 0 L29 0 L29 63 L86 63 L102 80 L102 444 L86 461 L29 461 L29 528 L177 528 Z " />
<glyph glyph-name="icircumflex" unicode="&#xee;" horiz-adv-x="312" d="M34 579 L13 606 L139 751 L178 751 L304 606 L283 579 L264 579 L158 667 L52 579 L34 579 Z M177 528 Q204 528 212.5 515.5 Q221 503 221 486 L221 80 L236 63 L293 63 L293 0 L29 0 L29 63 L86 63 L102 80 L102 444 L86 461 L29 461 L29 528 L177 528 Z " />
<glyph glyph-name="idieresis" unicode="&#xef;" horiz-adv-x="312" d="M29 663 Q29 685 44 701 Q59 717 83 717 Q107 717 122 701 Q137 685 137 663 Q137 640 122 624.5 Q107 609 83 609 Q59 609 44 624.5 Q29 640 29 663 Z M178 663 Q178 685 193.5 701 Q209 717 232 717 Q256 717 271.5 701 Q287 685 287 663 Q287 640 271.5 624.5 Q256 609 232 609 Q209 609 193.5 624.5 Q178 640 178 663 Z M177 528 Q204 528 212.5 515.5 Q221 503 221 486 L221 80 L236 63 L293 63 L293 0 L29 0 L29 63 L86 63 L102 80 L102 444 L86 461 L29 461 L29 528 L177 528 Z " />
<glyph glyph-name="eth" unicode="&#xf0;" horiz-adv-x="545" d="M175 619 L234 646 Q205 675 170 699 L207 741 Q262 715 308 681 L382 715 L403 671 L348 646 Q423 574 464.5 476.5 Q506 379 506 264 Q506 194 487 142.5 Q468 91 436 57 Q404 23 361.5 6.5 Q319 -10 271 -10 Q223 -10 180.5 6.5 Q138 23 106 57 Q74 91 55 142.5 Q36 194 36 264 Q36 334 55 385.5 Q74 437 106 471 Q138 505 180.5 521.5 Q223 538 271 538 Q302 538 331 526 Q306 570 269 610 L194 576 L175 619 Z M382 264 Q382 461 271 461 Q160 461 160 264 Q160 67 271 67 Q382 67 382 264 Z " />
<glyph glyph-name="ntilde" unicode="&#xf1;" horiz-adv-x="614" d="M28 0 L28 63 L85 63 L101 80 L101 444 L85 461 L28 461 L28 528 L169 528 Q196 528 204.5 515.5 Q213 503 213 486 L213 463 L216 463 Q225 473 239.5 486 Q254 499 274 510.5 Q294 522 318.5 530 Q343 538 372 538 Q415 538 444.5 525.5 Q474 513 492 491 Q510 469 518 440 Q526 411 526 378 L526 80 L542 63 L599 63 L599 0 L344 0 L344 63 L392 63 L407 80 L407 359 Q407 375 404.5 390.5 Q402 406 394 418.5 Q386 431 370.5 439 Q355 447 330 447 Q297 447 270 435 Q243 423 220 400 L220 80 L235 63 L283 63 L283 0 L28 0 Z M476 723 L476 682 Q476 637 454 615 Q432 593 394 593 Q372 593 352 600 Q332 607 313 615.5 Q294 624 276.5 631 Q259 638 243 638 Q225 638 217.5 631 Q210 624 210 619 L210 583 L158 583 L158 621 Q158 674 180 695.5 Q202 717 239 717 Q260 717 279.5 709.5 Q299 702 318 692.5 Q337 683 355.5 675.5 Q374 668 393 668 Q413 668 419.5 677 Q426 686 426 691 L426 723 L476 723 Z " />
<glyph glyph-name="ograve" unicode="&#xf2;" horiz-adv-x="542" d="M506 264 Q506 194 487 142.5 Q468 91 436 57 Q404 23 361.5 6.5 Q319 -10 271 -10 Q223 -10 180.5 6.5 Q138 23 106 57 Q74 91 55 142.5 Q36 194 36 264 Q36 334 55 385.5 Q74 437 106 471 Q138 505 180.5 521.5 Q223 538 271 538 Q319 538 361.5 521.5 Q404 505 436 471 Q468 437 487 385.5 Q506 334 506 264 Z M382 264 Q382 461 271 461 Q160 461 160 264 Q160 67 271 67 Q382 67 382 264 Z M295 579 L279 579 L129 684 L184 751 L206 751 L328 615 L295 579 Z " />
<glyph glyph-name="oacute" unicode="&#xf3;" horiz-adv-x="542" d="M272 579 L239 615 L361 751 L383 751 L438 684 L289 579 L272 579 Z M506 264 Q506 194 487 142.5 Q468 91 436 57 Q404 23 361.5 6.5 Q319 -10 271 -10 Q223 -10 180.5 6.5 Q138 23 106 57 Q74 91 55 142.5 Q36 194 36 264 Q36 334 55 385.5 Q74 437 106 471 Q138 505 180.5 521.5 Q223 538 271 538 Q319 538 361.5 521.5 Q404 505 436 471 Q468 437 487 385.5 Q506 334 506 264 Z M382 264 Q382 461 271 461 Q160 461 160 264 Q160 67 271 67 Q382 67 382 264 Z " />
<glyph glyph-name="ocircumflex" unicode="&#xf4;" horiz-adv-x="542" d="M155 579 L134 606 L260 751 L299 751 L425 606 L404 579 L385 579 L279 667 L173 579 L155 579 Z M506 264 Q506 194 487 142.5 Q468 91 436 57 Q404 23 361.5 6.5 Q319 -10 271 -10 Q223 -10 180.5 6.5 Q138 23 106 57 Q74 91 55 142.5 Q36 194 36 264 Q36 334 55 385.5 Q74 437 106 471 Q138 505 180.5 521.5 Q223 538 271 538 Q319 538 361.5 521.5 Q404 505 436 471 Q468 437 487 385.5 Q506 334 506 264 Z M382 264 Q382 461 271 461 Q160 461 160 264 Q160 67 271 67 Q382 67 382 264 Z " />
<glyph glyph-name="otilde" unicode="&#xf5;" horiz-adv-x="542" d="M506 264 Q506 194 487 142.5 Q468 91 436 57 Q404 23 361.5 6.5 Q319 -10 271 -10 Q223 -10 180.5 6.5 Q138 23 106 57 Q74 91 55 142.5 Q36 194 36 264 Q36 334 55 385.5 Q74 437 106 471 Q138 505 180.5 521.5 Q223 538 271 538 Q319 538 361.5 521.5 Q404 505 436 471 Q468 437 487 385.5 Q506 334 506 264 Z M382 264 Q382 461 271 461 Q160 461 160 264 Q160 67 271 67 Q382 67 382 264 Z M438 723 L438 682 Q438 637 416 615 Q394 593 356 593 Q334 593 314 600 Q294 607 275 615.5 Q256 624 238.5 631 Q221 638 205 638 Q187 638 179.5 631 Q172 624 172 619 L172 583 L120 583 L120 621 Q120 674 142 695.5 Q164 717 201 717 Q222 717 241.5 709.5 Q261 702 280 692.5 Q299 683 317.5 675.5 Q336 668 355 668 Q375 668 381.5 677 Q388 686 388 691 L388 723 L438 723 Z " />
<glyph glyph-name="odieresis" unicode="&#xf6;" horiz-adv-x="542" d="M150 663 Q150 685 165 701 Q180 717 204 717 Q228 717 243 701 Q258 685 258 663 Q258 640 243 624.5 Q228 609 204 609 Q180 609 165 624.5 Q150 640 150 663 Z M299 663 Q299 685 314.5 701 Q330 717 353 717 Q377 717 392.5 701 Q408 685 408 663 Q408 640 392.5 624.5 Q377 609 353 609 Q330 609 314.5 624.5 Q299 640 299 663 Z M506 264 Q506 194 487 142.5 Q468 91 436 57 Q404 23 361.5 6.5 Q319 -10 271 -10 Q223 -10 180.5 6.5 Q138 23 106 57 Q74 91 55 142.5 Q36 194 36 264 Q36 334 55 385.5 Q74 437 106 471 Q138 505 180.5 521.5 Q223 538 271 538 Q319 538 361.5 521.5 Q404 505 436 471 Q468 437 487 385.5 Q506 334 506 264 Z M382 264 Q382 461 271 461 Q160 461 160 264 Q160 67 271 67 Q382 67 382 264 Z " />
<glyph glyph-name="divide" unicode="&#xf7;" horiz-adv-x="521" d="M53 373 L468 373 L468 297 L53 297 L53 373 Z M205 172 Q205 195 221.5 211.5 Q238 228 260 228 Q283 228 299.5 211.5 Q316 195 316 172 Q316 149 299.5 133 Q283 117 260 117 Q238 117 221.5 133 Q205 149 205 172 Z M205 497 Q205 520 221.5 536.5 Q238 553 260 553 Q283 553 299.5 536.5 Q316 520 316 497 Q316 474 299.5 458 Q283 442 260 442 Q238 442 221.5 458 Q205 474 205 497 Z " />
<glyph glyph-name="oslash" unicode="&#xf8;" horiz-adv-x="549" d="M50 -10 L103 62 Q73 96 56 146 Q39 196 39 264 Q39 334 57.5 385.5 Q76 437 108.5 471 Q141 505 183.5 521.5 Q226 538 274 538 Q314 538 350.5 526 Q387 514 417 490 L452 538 L515 538 L453 453 Q479 419 493.5 372.5 Q508 326 508 264 Q508 194 489.5 142.5 Q471 91 439 57 Q407 23 364.5 6.5 Q322 -10 274 -10 Q198 -10 142 28 L114 -10 L50 -10 Z M163 264 Q163 232 165.5 206 Q168 180 174 158 L358 410 Q331 461 274 461 Q217 461 190 412.5 Q163 364 163 264 Z M384 264 Q384 316 377 350 L197 104 Q224 67 274 67 Q384 67 384 264 Z " />
<glyph glyph-name="ugrave" unicode="&#xf9;" horiz-adv-x="597" d="M463 528 Q490 528 498.5 515.5 Q507 503 507 486 L507 80 L523 63 L579 63 L579 0 L439 0 Q411 0 403 12.5 Q395 25 395 42 L395 65 L393 65 Q383 54 368.5 41 Q354 28 335 17 Q316 6 292 -2 Q268 -10 240 -10 Q195 -10 165.5 2.5 Q136 15 118.5 37 Q101 59 94 88 Q87 117 87 150 L87 444 L71 461 L15 461 L15 528 L162 528 Q189 528 197.5 513.5 Q206 499 206 481 L206 168 Q206 153 208.5 137 Q211 121 219 108.5 Q227 96 243 88 Q259 80 285 80 Q314 80 339.5 92 Q365 104 388 126 L388 444 L372 461 L316 461 L316 528 L463 528 Z M291 579 L275 579 L125 684 L180 751 L202 751 L324 615 L291 579 Z " />
<glyph glyph-name="uacute" unicode="&#xfa;" horiz-adv-x="597" d="M268 579 L235 615 L357 751 L379 751 L434 684 L285 579 L268 579 Z M463 528 Q490 528 498.5 515.5 Q507 503 507 486 L507 80 L523 63 L579 63 L579 0 L439 0 Q411 0 403 12.5 Q395 25 395 42 L395 65 L393 65 Q383 54 368.5 41 Q354 28 335 17 Q316 6 292 -2 Q268 -10 240 -10 Q195 -10 165.5 2.5 Q136 15 118.5 37 Q101 59 94 88 Q87 117 87 150 L87 444 L71 461 L15 461 L15 528 L162 528 Q189 528 197.5 513.5 Q206 499 206 481 L206 168 Q206 153 208.5 137 Q211 121 219 108.5 Q227 96 243 88 Q259 80 285 80 Q314 80 339.5 92 Q365 104 388 126 L388 444 L372 461 L316 461 L316 528 L463 528 Z " />
<glyph glyph-name="ucircumflex" unicode="&#xfb;" horiz-adv-x="597" d="M151 579 L130 606 L256 751 L295 751 L421 606 L400 579 L381 579 L275 667 L169 579 L151 579 Z M463 528 Q490 528 498.5 515.5 Q507 503 507 486 L507 80 L523 63 L579 63 L579 0 L439 0 Q411 0 403 12.5 Q395 25 395 42 L395 65 L393 65 Q383 54 368.5 41 Q354 28 335 17 Q316 6 292 -2 Q268 -10 240 -10 Q195 -10 165.5 2.5 Q136 15 118.5 37 Q101 59 94 88 Q87 117 87 150 L87 444 L71 461 L15 461 L15 528 L162 528 Q189 528 197.5 513.5 Q206 499 206 481 L206 168 Q206 153 208.5 137 Q211 121 219 108.5 Q227 96 243 88 Q259 80 285 80 Q314 80 339.5 92 Q365 104 388 126 L388 444 L372 461 L316 461 L316 528 L463 528 Z " />
<glyph glyph-name="udieresis" unicode="&#xfc;" horiz-adv-x="597" d="M146 663 Q146 685 161 701 Q176 717 200 717 Q224 717 239 701 Q254 685 254 663 Q254 640 239 624.5 Q224 609 200 609 Q176 609 161 624.5 Q146 640 146 663 Z M295 663 Q295 685 310.5 701 Q326 717 349 717 Q373 717 388.5 701 Q404 685 404 663 Q404 640 388.5 624.5 Q373 609 349 609 Q326 609 310.5 624.5 Q295 640 295 663 Z M463 528 Q490 528 498.5 515.5 Q507 503 507 486 L507 80 L523 63 L579 63 L579 0 L439 0 Q411 0 403 12.5 Q395 25 395 42 L395 65 L393 65 Q383 54 368.5 41 Q354 28 335 17 Q316 6 292 -2 Q268 -10 240 -10 Q195 -10 165.5 2.5 Q136 15 118.5 37 Q101 59 94 88 Q87 117 87 150 L87 444 L71 461 L15 461 L15 528 L162 528 Q189 528 197.5 513.5 Q206 499 206 481 L206 168 Q206 153 208.5 137 Q211 121 219 108.5 Q227 96 243 88 Q259 80 285 80 Q314 80 339.5 92 Q365 104 388 126 L388 444 L372 461 L316 461 L316 528 L463 528 Z " />
<glyph glyph-name="yacute" unicode="&#xfd;" horiz-adv-x="567" d="M516 461 L500 444 L302 -90 L317 -107 L369 -107 L369 -170 L129 -170 L129 -107 L202 -107 L218 -90 L246 -14 L66 445 L51 461 L3 461 L3 528 L252 528 L252 461 L206 461 L191 444 L301 141 L411 444 L396 461 L347 461 L347 528 L561 528 L561 461 L516 461 Z M292 579 L259 615 L381 751 L403 751 L458 684 L309 579 L292 579 Z " />
<glyph glyph-name="ygrave" unicode="&#x1ef3;" horiz-adv-x="567" d="M516 461 L500 444 L302 -90 L317 -107 L369 -107 L369 -170 L129 -170 L129 -107 L202 -107 L218 -90 L246 -14 L66 445 L51 461 L3 461 L3 528 L252 528 L252 461 L206 461 L191 444 L301 141 L411 444 L396 461 L347 461 L347 528 L561 528 L561 461 L516 461 Z M313 579 L297 579 L147 684 L202 751 L224 751 L346 615 L313 579 Z " />
<glyph glyph-name="thorn" unicode="&#xfe;" horiz-adv-x="566" d="M3 730 L151 730 Q178 730 186 717.5 Q194 705 194 688 L194 467 Q216 493 252 515.5 Q288 538 337 538 Q377 538 412 521.5 Q447 505 473 471.5 Q499 438 514 387.5 Q529 337 529 269 Q529 202 512.5 150 Q496 98 467 62.5 Q438 27 399 8.5 Q360 -10 315 -10 Q275 -10 245 5.5 Q215 21 194 41 L194 -90 L210 -107 L271 -107 L271 -170 L3 -170 L3 -107 L59 -107 L75 -90 L75 647 L59 663 L3 663 L3 730 Z M296 449 Q271 449 245.5 438 Q220 427 194 401 L194 119 Q211 101 236 87 Q261 73 293 72 Q346 72 375.5 118.5 Q405 165 405 268 Q405 367 377 408 Q349 449 296 449 Z " />
<glyph glyph-name="ydieresis" unicode="&#xff;" horiz-adv-x="567" d="M516 461 L500 444 L302 -90 L317 -107 L369 -107 L369 -170 L129 -170 L129 -107 L202 -107 L218 -90 L246 -14 L66 445 L51 461 L3 461 L3 528 L252 528 L252 461 L206 461 L191 444 L301 141 L411 444 L396 461 L347 461 L347 528 L561 528 L561 461 L516 461 Z M170 663 Q170 685 185 701 Q200 717 224 717 Q248 717 263 701 Q278 685 278 663 Q278 640 263 624.5 Q248 609 224 609 Q200 609 185 624.5 Q170 640 170 663 Z M319 663 Q319 685 334.5 701 Q350 717 373 717 Q397 717 412.5 701 Q428 685 428 663 Q428 640 412.5 624.5 Q397 609 373 609 Q350 609 334.5 624.5 Q319 640 319 663 Z " />
<glyph glyph-name="Amacron" unicode="&#x100;" horiz-adv-x="667" d="M439 193 L193 193 L157 81 L171 67 L227 67 L227 0 L-6 0 L-6 67 L44 67 L60 83 L276 702 L388 702 L611 81 L626 67 L676 67 L676 0 L415 0 L415 67 L465 67 L478 81 L439 193 Z M218 269 L413 269 L313 561 L218 269 Z M203 865 L463 865 L463 795 L203 795 L203 865 Z " />
<glyph glyph-name="amacron" unicode="&#x101;" horiz-adv-x="534" d="M522 0 L383 0 Q355 0 347 12.5 Q339 25 339 42 L339 66 L335 66 Q326 55 312.5 42 Q299 29 280.5 17.5 Q262 6 238.5 -2 Q215 -10 187 -10 Q148 -10 119 2 Q90 14 71 34.5 Q52 55 42.5 82.5 Q33 110 33 142 Q33 218 80.5 258.5 Q128 299 204 299 L332 299 L332 349 Q332 373 329 394 Q326 415 315.5 430 Q305 445 285 454 Q265 463 231 463 Q214 463 197 460.5 Q180 458 165 454 L150 440 L150 364 L71 364 L71 504 Q103 515 153 526.5 Q203 538 268 538 Q320 538 355 524.5 Q390 511 411 488 Q432 465 441 434 Q450 403 450 368 L450 80 L466 63 L522 63 L522 0 Z M231 80 Q260 80 286 94 Q312 108 332 127 L332 228 L235 228 Q195 228 173 210.5 Q151 193 151 151 Q151 118 167.5 99 Q184 80 231 80 Z M131 692 L390 692 L390 622 L131 622 L131 692 Z " />
<glyph glyph-name="Abreve" unicode="&#x102;" horiz-adv-x="667" d="M439 193 L193 193 L157 81 L171 67 L227 67 L227 0 L-6 0 L-6 67 L44 67 L60 83 L276 702 L388 702 L611 81 L626 67 L676 67 L676 0 L415 0 L415 67 L465 67 L478 81 L439 193 Z M218 269 L413 269 L313 561 L218 269 Z M461 878 Q457 856 447 835.5 Q437 815 421.5 799.5 Q406 784 384 774.5 Q362 765 334 765 Q306 765 284 774.5 Q262 784 246.5 799.5 Q231 815 221 835.5 Q211 856 207 878 L263 894 Q270 869 287 850 Q304 831 335 831 Q367 831 385.5 849.5 Q404 868 410 891 L461 878 Z " />
<glyph glyph-name="abreve" unicode="&#x103;" horiz-adv-x="534" d="M522 0 L383 0 Q355 0 347 12.5 Q339 25 339 42 L339 66 L335 66 Q326 55 312.5 42 Q299 29 280.5 17.5 Q262 6 238.5 -2 Q215 -10 187 -10 Q148 -10 119 2 Q90 14 71 34.5 Q52 55 42.5 82.5 Q33 110 33 142 Q33 218 80.5 258.5 Q128 299 204 299 L332 299 L332 349 Q332 373 329 394 Q326 415 315.5 430 Q305 445 285 454 Q265 463 231 463 Q214 463 197 460.5 Q180 458 165 454 L150 440 L150 364 L71 364 L71 504 Q103 515 153 526.5 Q203 538 268 538 Q320 538 355 524.5 Q390 511 411 488 Q432 465 441 434 Q450 403 450 368 L450 80 L466 63 L522 63 L522 0 Z M231 80 Q260 80 286 94 Q312 108 332 127 L332 228 L235 228 Q195 228 173 210.5 Q151 193 151 151 Q151 118 167.5 99 Q184 80 231 80 Z M387 706 Q383 684 373 663.5 Q363 643 347.5 627 Q332 611 310 601.5 Q288 592 260 592 Q232 592 210 601.5 Q188 611 172.5 627 Q157 643 147 663.5 Q137 684 133 706 L190 721 Q196 697 213 677.5 Q230 658 261 658 Q293 658 311.5 676.5 Q330 695 337 718 L387 706 Z " />
<glyph glyph-name="Aogonek" unicode="&#x104;" horiz-adv-x="666" d="M438 193 L193 193 L156 81 L170 67 L226 67 L226 0 L-7 0 L-7 67 L43 67 L59 83 L275 702 L387 702 L610 81 L625 67 L675 67 L675 0 L630 0 Q582 -9 552 -29.5 Q522 -50 522 -82 Q522 -113 539 -124.5 Q556 -136 583 -136 Q601 -136 620 -129 Q639 -122 647 -116 L666 -151 Q649 -163 619.5 -171.5 Q590 -180 558 -180 Q504 -180 472 -160.5 Q440 -141 440 -97 Q440 -64 461 -40 Q482 -16 515 0 L414 0 L414 67 L464 67 L477 81 L438 193 Z M217 269 L412 269 L312 561 L217 269 Z " />
<glyph glyph-name="aogonek" unicode="&#x105;" horiz-adv-x="534" d="M522 0 L479 0 Q431 -9 401 -29.5 Q371 -50 371 -82 Q371 -113 388 -124.5 Q405 -136 432 -136 Q450 -136 469.5 -129 Q489 -122 497 -116 L515 -151 Q498 -163 468.5 -171.5 Q439 -180 407 -180 Q353 -180 321.5 -160.5 Q290 -141 290 -97 Q290 -63 312 -39 Q334 -15 368 1 Q349 4 344 16 Q339 28 339 42 L339 66 L335 66 Q326 55 312.5 42 Q299 29 280.5 17.5 Q262 6 238.5 -2 Q215 -10 187 -10 Q148 -10 119 2 Q90 14 71 34.5 Q52 55 42.5 82.5 Q33 110 33 142 Q33 218 80.5 258.5 Q128 299 204 299 L332 299 L332 349 Q332 373 329 394 Q326 415 315.5 430 Q305 445 285 454 Q265 463 231 463 Q214 463 197 460.5 Q180 458 165 454 L150 440 L150 364 L71 364 L71 504 Q103 515 153 526.5 Q203 538 268 538 Q320 538 355 524.5 Q390 511 411 488 Q432 465 441 434 Q450 403 450 368 L450 80 L466 63 L522 63 L522 0 Z M231 80 Q260 80 286 94 Q312 108 332 127 L332 228 L235 228 Q195 228 173 210.5 Q151 193 151 151 Q151 118 167.5 99 Q184 80 231 80 Z " />
<glyph glyph-name="Cacute" unicode="&#x106;" horiz-adv-x="593" d="M554 29 Q522 15 476.5 2.5 Q431 -10 362 -10 Q211 -10 127.5 76.5 Q44 163 44 349 Q44 440 68 508 Q92 576 135.5 621 Q179 666 240 688 Q301 710 376 710 Q409 710 438 707 Q467 704 489.5 700 Q512 696 526 692 Q540 688 544 686 L544 516 L465 516 L465 603 L451 618 Q434 623 416 625.5 Q398 628 376 628 Q323 628 285 609.5 Q247 591 223 556.5 Q199 522 188 471.5 Q177 421 177 358 Q177 218 224.5 146.5 Q272 75 382 75 Q405 75 424 76.5 Q443 78 460 83 L475 99 L475 192 L554 192 L554 29 Z M355 752 L322 788 L444 924 L465 924 L521 856 L371 752 L355 752 Z " />
<glyph glyph-name="cacute" unicode="&#x107;" horiz-adv-x="465" d="M288 579 L255 615 L377 751 L399 751 L454 684 L305 579 L288 579 Z M426 28 Q404 9 364.5 -0.5 Q325 -10 283 -10 Q233 -10 188 6 Q143 22 109.5 55 Q76 88 56 138 Q36 188 36 256 Q36 325 56.5 378 Q77 431 111.5 466.5 Q146 502 192.5 520 Q239 538 292 538 Q346 538 382.5 528 Q419 518 427 515 L427 364 L348 364 L348 444 L333 458 Q316 463 300 463 Q160 463 160 261 Q160 160 200.5 114 Q241 68 314 68 Q348 68 380 75.5 Q412 83 426 90 L426 28 Z " />
<glyph glyph-name="Ccircumflex" unicode="&#x108;" horiz-adv-x="593" d="M554 29 Q522 15 476.5 2.5 Q431 -10 362 -10 Q211 -10 127.5 76.5 Q44 163 44 349 Q44 440 68 508 Q92 576 135.5 621 Q179 666 240 688 Q301 710 376 710 Q409 710 438 707 Q467 704 489.5 700 Q512 696 526 692 Q540 688 544 686 L544 516 L465 516 L465 603 L451 618 Q434 623 416 625.5 Q398 628 376 628 Q323 628 285 609.5 Q247 591 223 556.5 Q199 522 188 471.5 Q177 421 177 358 Q177 218 224.5 146.5 Q272 75 382 75 Q405 75 424 76.5 Q443 78 460 83 L475 99 L475 192 L554 192 L554 29 Z M243 752 L220 780 L349 926 L390 926 L519 780 L496 752 L476 752 L370 837 L262 752 L243 752 Z " />
<glyph glyph-name="ccircumflex" unicode="&#x109;" horiz-adv-x="465" d="M171 579 L150 606 L276 751 L315 751 L441 606 L420 579 L401 579 L295 667 L189 579 L171 579 Z M426 28 Q404 9 364.5 -0.5 Q325 -10 283 -10 Q233 -10 188 6 Q143 22 109.5 55 Q76 88 56 138 Q36 188 36 256 Q36 325 56.5 378 Q77 431 111.5 466.5 Q146 502 192.5 520 Q239 538 292 538 Q346 538 382.5 528 Q419 518 427 515 L427 364 L348 364 L348 444 L333 458 Q316 463 300 463 Q160 463 160 261 Q160 160 200.5 114 Q241 68 314 68 Q348 68 380 75.5 Q412 83 426 90 L426 28 Z " />
<glyph glyph-name="Cdotaccent" unicode="&#x10a;" horiz-adv-x="593" d="M299 833 Q299 860 320 880 Q341 900 370 900 Q399 900 420 880 Q441 860 441 833 Q441 806 420 786 Q399 766 370 766 Q341 766 320 786 Q299 806 299 833 Z M554 29 Q522 15 476.5 2.5 Q431 -10 362 -10 Q211 -10 127.5 76.5 Q44 163 44 349 Q44 440 68 508 Q92 576 135.5 621 Q179 666 240 688 Q301 710 376 710 Q409 710 438 707 Q467 704 489.5 700 Q512 696 526 692 Q540 688 544 686 L544 516 L465 516 L465 603 L451 618 Q434 623 416 625.5 Q398 628 376 628 Q323 628 285 609.5 Q247 591 223 556.5 Q199 522 188 471.5 Q177 421 177 358 Q177 218 224.5 146.5 Q272 75 382 75 Q405 75 424 76.5 Q443 78 460 83 L475 99 L475 192 L554 192 L554 29 Z " />
<glyph glyph-name="cdotaccent" unicode="&#x10b;" horiz-adv-x="465" d="M426 28 Q404 9 364.5 -0.5 Q325 -10 283 -10 Q233 -10 188 6 Q143 22 109.5 55 Q76 88 56 138 Q36 188 36 256 Q36 325 56.5 378 Q77 431 111.5 466.5 Q146 502 192.5 520 Q239 538 292 538 Q346 538 382.5 528 Q419 518 427 515 L427 364 L348 364 L348 444 L333 458 Q316 463 300 463 Q160 463 160 261 Q160 160 200.5 114 Q241 68 314 68 Q348 68 380 75.5 Q412 83 426 90 L426 28 Z M222 661 Q222 687 243 707.5 Q264 728 293 728 Q307 728 320 722.5 Q333 717 342.5 707.5 Q352 698 358 686 Q364 674 364 661 Q364 634 343 614 Q322 594 293 594 Q264 594 243 614 Q222 634 222 661 Z " />
<glyph glyph-name="Ccaron" unicode="&#x10c;" horiz-adv-x="593" d="M554 29 Q522 15 476.5 2.5 Q431 -10 362 -10 Q211 -10 127.5 76.5 Q44 163 44 349 Q44 440 68 508 Q92 576 135.5 621 Q179 666 240 688 Q301 710 376 710 Q409 710 438 707 Q467 704 489.5 700 Q512 696 526 692 Q540 688 544 686 L544 516 L465 516 L465 603 L451 618 Q434 623 416 625.5 Q398 628 376 628 Q323 628 285 609.5 Q247 591 223 556.5 Q199 522 188 471.5 Q177 421 177 358 Q177 218 224.5 146.5 Q272 75 382 75 Q405 75 424 76.5 Q443 78 460 83 L475 99 L475 192 L554 192 L554 29 Z M498 926 L521 898 L392 752 L351 752 L221 898 L244 926 L263 926 L371 841 L479 926 L498 926 Z " />
<glyph glyph-name="ccaron" unicode="&#x10d;" horiz-adv-x="465" d="M422 754 L445 726 L316 579 L275 579 L146 726 L169 754 L188 754 L295 669 L403 754 L422 754 Z M426 28 Q404 9 364.5 -0.5 Q325 -10 283 -10 Q233 -10 188 6 Q143 22 109.5 55 Q76 88 56 138 Q36 188 36 256 Q36 325 56.5 378 Q77 431 111.5 466.5 Q146 502 192.5 520 Q239 538 292 538 Q346 538 382.5 528 Q419 518 427 515 L427 364 L348 364 L348 444 L333 458 Q316 463 300 463 Q160 463 160 261 Q160 160 200.5 114 Q241 68 314 68 Q348 68 380 75.5 Q412 83 426 90 L426 28 Z " />
<glyph glyph-name="Dcaron" unicode="&#x10e;" horiz-adv-x="703" d="M42 67 L98 67 L114 83 L114 617 L98 633 L42 633 L42 700 L339 700 Q412 700 471 679.5 Q530 659 572 616.5 Q614 574 636.5 509 Q659 444 659 356 Q659 265 636.5 198 Q614 131 572 87 Q530 43 471 21.5 Q412 0 339 0 L42 0 L42 67 Z M241 81 L339 81 Q440 81 482.5 148.5 Q525 216 525 356 Q525 491 482.5 555 Q440 619 339 619 L241 619 L241 81 Z M476 926 L499 898 L370 752 L329 752 L199 898 L222 926 L241 926 L349 841 L457 926 L476 926 Z " />
<glyph glyph-name="dcaron" unicode="&#x10f;" horiz-adv-x="612" d="M588 582 L588 780 L671 780 L671 708 L657 582 L588 582 Z M424 0 Q397 0 388.5 12.5 Q380 25 380 42 L380 66 L378 66 Q367 52 352.5 38.5 Q338 25 319.5 14 Q301 3 278.5 -4 Q256 -11 231 -11 Q190 -11 155 5.5 Q120 22 93.5 55.5 Q67 89 52 139.5 Q37 190 37 258 Q37 325 53.5 377 Q70 429 99 465 Q128 501 167.5 519.5 Q207 538 252 538 Q291 538 321 524 Q351 510 373 490 L373 647 L357 663 L301 663 L301 730 L449 730 Q476 730 484 717.5 Q492 705 492 688 L492 80 L508 63 L564 63 L564 0 L424 0 Z M271 78 Q296 78 321.5 89 Q347 100 373 125 L373 413 Q356 430 331.5 442.5 Q307 455 275 455 Q221 455 191.5 408.5 Q162 362 162 259 Q162 159 189.5 118.5 Q217 78 271 78 Z " />
<glyph glyph-name="Dcroat" unicode="&#x110;" horiz-adv-x="703" d="M45 387 L115 387 L115 618 L99 634 L42 634 L42 701 L339 701 Q412 701 471 680.5 Q530 660 572 617.5 Q614 575 636.5 510 Q659 445 659 357 Q659 266 636.5 199 Q614 132 572 88 Q530 44 471 22.5 Q412 1 339 1 L42 1 L42 68 L99 68 L115 84 L115 328 L45 328 L45 387 Z M242 387 L406 387 L406 328 L242 328 L242 82 L339 82 Q440 82 483 149.5 Q526 217 526 357 Q526 492 483 556 Q440 620 339 620 L242 620 L242 387 Z " />
<glyph glyph-name="dcroat" unicode="&#x111;" horiz-adv-x="582" d="M260 625 L373 625 L373 647 L357 663 L301 663 L301 730 L449 730 Q476 730 484 717.5 Q492 705 492 688 L492 625 L571 625 L571 573 L492 573 L492 80 L508 63 L564 63 L564 0 L424 0 Q397 0 388.5 12.5 Q380 25 380 42 L380 66 L378 66 Q367 52 352.5 38.5 Q338 25 319.5 14 Q301 3 278.5 -4 Q256 -11 231 -11 Q190 -11 155 5.5 Q120 22 93.5 55.5 Q67 89 52 139.5 Q37 190 37 258 Q37 325 53.5 377 Q70 429 99 465 Q128 501 167.5 519.5 Q207 538 252 538 Q291 538 321 524 Q351 510 373 490 L373 573 L260 573 L260 625 Z M271 78 Q296 78 321.5 89 Q347 100 373 125 L373 413 Q356 430 331.5 442.5 Q307 455 275 455 Q221 455 191.5 408.5 Q162 362 162 259 Q162 159 189.5 118.5 Q217 78 271 78 Z " />
<glyph glyph-name="Emacron" unicode="&#x112;" horiz-adv-x="627" d="M241 622 L241 395 L390 395 L406 410 L406 464 L475 464 L475 252 L406 252 L406 306 L391 320 L241 320 L241 78 L494 78 L510 93 L510 178 L585 178 L585 0 L42 0 L42 67 L98 67 L114 83 L114 617 L98 633 L42 633 L42 700 L575 700 L575 523 L500 523 L500 607 L484 622 L241 622 Z M211 865 L471 865 L471 795 L211 795 L211 865 Z " />
<glyph glyph-name="emacron" unicode="&#x113;" horiz-adv-x="503" d="M454 232 L159 232 Q166 143 207.5 105.5 Q249 68 318 68 Q360 68 392.5 76 Q425 84 442 91 L442 26 Q419 12 379.5 1 Q340 -10 279 -10 Q229 -10 184.5 5.5 Q140 21 107 53 Q74 85 55 135.5 Q36 186 36 256 Q36 326 53.5 379 Q71 432 102 467 Q133 502 175 520 Q217 538 265 538 Q311 538 348.5 523.5 Q386 509 413 481 Q440 453 455 413.5 Q470 374 470 323 L470 248 L454 232 Z M263 463 Q169 463 160 303 L352 303 L352 335 Q352 401 329 432 Q306 463 263 463 Z M141 692 L400 692 L400 622 L141 622 L141 692 Z " />
<glyph glyph-name="Ebreve" unicode="&#x114;" horiz-adv-x="627" d="M241 622 L241 395 L390 395 L406 410 L406 464 L475 464 L475 252 L406 252 L406 306 L391 320 L241 320 L241 78 L494 78 L510 93 L510 178 L585 178 L585 0 L42 0 L42 67 L98 67 L114 83 L114 617 L98 633 L42 633 L42 700 L575 700 L575 523 L500 523 L500 607 L484 622 L241 622 Z M468 878 Q464 856 454 835.5 Q444 815 428.5 799.5 Q413 784 391 774.5 Q369 765 341 765 Q313 765 291 774.5 Q269 784 253.5 799.5 Q238 815 228 835.5 Q218 856 214 878 L270 894 Q277 869 294 850 Q311 831 342 831 Q374 831 392.5 849.5 Q411 868 417 891 L468 878 Z " />
<glyph glyph-name="ebreve" unicode="&#x115;" horiz-adv-x="503" d="M454 232 L159 232 Q166 143 207.5 105.5 Q249 68 318 68 Q360 68 392.5 76 Q425 84 442 91 L442 26 Q419 12 379.5 1 Q340 -10 279 -10 Q229 -10 184.5 5.5 Q140 21 107 53 Q74 85 55 135.5 Q36 186 36 256 Q36 326 53.5 379 Q71 432 102 467 Q133 502 175 520 Q217 538 265 538 Q311 538 348.5 523.5 Q386 509 413 481 Q440 453 455 413.5 Q470 374 470 323 L470 248 L454 232 Z M263 463 Q169 463 160 303 L352 303 L352 335 Q352 401 329 432 Q306 463 263 463 Z M398 706 Q394 684 384 663.5 Q374 643 358.5 627 Q343 611 321 601.5 Q299 592 271 592 Q243 592 221 601.5 Q199 611 183.5 627 Q168 643 158 663.5 Q148 684 144 706 L201 721 Q207 697 224 677.5 Q241 658 272 658 Q304 658 322.5 676.5 Q341 695 348 718 L398 706 Z " />
<glyph glyph-name="Edotaccent" unicode="&#x116;" horiz-adv-x="627" d="M269 833 Q269 860 290 880 Q311 900 340 900 Q369 900 390 880 Q411 860 411 833 Q411 806 390 786 Q369 766 340 766 Q311 766 290 786 Q269 806 269 833 Z M241 622 L241 395 L390 395 L406 410 L406 464 L475 464 L475 252 L406 252 L406 306 L391 320 L241 320 L241 78 L494 78 L510 93 L510 178 L585 178 L585 0 L42 0 L42 67 L98 67 L114 83 L114 617 L98 633 L42 633 L42 700 L575 700 L575 523 L500 523 L500 607 L484 622 L241 622 Z " />
<glyph glyph-name="edotaccent" unicode="&#x117;" horiz-adv-x="503" d="M454 232 L159 232 Q166 143 207.5 105.5 Q249 68 318 68 Q360 68 392.5 76 Q425 84 442 91 L442 26 Q419 12 379.5 1 Q340 -10 279 -10 Q229 -10 184.5 5.5 Q140 21 107 53 Q74 85 55 135.5 Q36 186 36 256 Q36 326 53.5 379 Q71 432 102 467 Q133 502 175 520 Q217 538 265 538 Q311 538 348.5 523.5 Q386 509 413 481 Q440 453 455 413.5 Q470 374 470 323 L470 248 L454 232 Z M263 463 Q169 463 160 303 L352 303 L352 335 Q352 401 329 432 Q306 463 263 463 Z M199 661 Q199 687 220 707.5 Q241 728 270 728 Q284 728 297 722.5 Q310 717 319.5 707.5 Q329 698 335 686 Q341 674 341 661 Q341 634 320 614 Q299 594 270 594 Q241 594 220 614 Q199 634 199 661 Z " />
<glyph glyph-name="Eogonek" unicode="&#x118;" horiz-adv-x="626" d="M241 622 L241 395 L390 395 L406 410 L406 464 L475 464 L475 252 L406 252 L406 306 L391 320 L241 320 L241 78 L494 78 L510 93 L510 178 L585 178 L585 0 L534 0 Q487 -9 457 -29.5 Q427 -50 427 -82 Q427 -113 444 -124.5 Q461 -136 488 -136 Q506 -136 525.5 -129 Q545 -122 553 -116 L571 -151 Q554 -163 524.5 -171.5 Q495 -180 463 -180 Q409 -180 377.5 -160.5 Q346 -141 346 -97 Q346 -63 367.5 -39.5 Q389 -16 421 0 L42 0 L42 67 L98 67 L114 83 L114 617 L98 633 L42 633 L42 700 L575 700 L575 523 L500 523 L500 607 L484 622 L241 622 Z " />
<glyph glyph-name="eogonek" unicode="&#x119;" horiz-adv-x="502" d="M411 -151 Q394 -163 364.5 -171.5 Q335 -180 303 -180 Q249 -180 217.5 -160.5 Q186 -141 186 -97 Q186 -68 203 -46 Q220 -24 247 -8 Q202 -4 163.5 13.5 Q125 31 96.5 63.5 Q68 96 51.5 143.5 Q35 191 35 256 Q35 326 52.5 379 Q70 432 101 467 Q132 502 173.5 520 Q215 538 263 538 Q309 538 347 523.5 Q385 509 412 481 Q439 453 453.5 413.5 Q468 374 468 323 L468 248 L452 232 L158 232 Q164 143 206.5 105.5 Q249 68 317 68 Q359 68 391.5 76 Q424 84 441 91 L441 26 Q428 18 408 11 Q388 4 372 0 Q327 -13 297.5 -32 Q268 -51 268 -82 Q268 -113 285 -124.5 Q302 -136 329 -136 Q347 -136 366 -129 Q385 -122 393 -116 L411 -151 Z M262 463 Q168 463 158 303 L351 303 L351 335 Q351 401 328 432 Q305 463 262 463 Z " />
<glyph glyph-name="Ecaron" unicode="&#x11a;" horiz-adv-x="627" d="M241 622 L241 395 L390 395 L406 410 L406 464 L475 464 L475 252 L406 252 L406 306 L391 320 L241 320 L241 78 L494 78 L510 93 L510 178 L585 178 L585 0 L42 0 L42 67 L98 67 L114 83 L114 617 L98 633 L42 633 L42 700 L575 700 L575 523 L500 523 L500 607 L484 622 L241 622 Z M468 926 L491 898 L362 752 L321 752 L191 898 L214 926 L233 926 L341 841 L449 926 L468 926 Z " />
<glyph glyph-name="ecaron" unicode="&#x11b;" horiz-adv-x="503" d="M398 754 L421 726 L292 579 L251 579 L122 726 L145 754 L164 754 L271 669 L379 754 L398 754 Z M454 232 L159 232 Q166 143 207.5 105.5 Q249 68 318 68 Q360 68 392.5 76 Q425 84 442 91 L442 26 Q419 12 379.5 1 Q340 -10 279 -10 Q229 -10 184.5 5.5 Q140 21 107 53 Q74 85 55 135.5 Q36 186 36 256 Q36 326 53.5 379 Q71 432 102 467 Q133 502 175 520 Q217 538 265 538 Q311 538 348.5 523.5 Q386 509 413 481 Q440 453 455 413.5 Q470 374 470 323 L470 248 L454 232 Z M263 463 Q169 463 160 303 L352 303 L352 335 Q352 401 329 432 Q306 463 263 463 Z " />
<glyph glyph-name="Gcircumflex" unicode="&#x11c;" horiz-adv-x="642" d="M243 752 L220 780 L349 926 L390 926 L519 780 L496 752 L476 752 L370 837 L262 752 L243 752 Z M559 260 L559 29 Q527 15 479.5 2.5 Q432 -10 362 -10 Q287 -10 228 10.5 Q169 31 128 75 Q87 119 65.5 187 Q44 255 44 350 Q44 441 67.5 508.5 Q91 576 134.5 621 Q178 666 239.5 688 Q301 710 376 710 Q411 710 442 707 Q473 704 497 700 Q521 696 536 692 Q551 688 555 686 L555 516 L478 516 L478 605 L465 618 Q445 623 423.5 626.5 Q402 630 376 630 Q322 630 284.5 612 Q247 594 223 559.5 Q199 525 188 475 Q177 425 177 361 Q177 216 224 142 Q271 68 383 68 Q389 68 398 68.5 Q407 69 416.5 70 Q426 71 434 72 Q442 73 446 75 L446 260 L430 276 L381 276 L381 343 L614 343 L614 276 L574 276 L559 260 Z " />
<glyph glyph-name="gcircumflex" unicode="&#x11d;" horiz-adv-x="541" d="M136 579 L115 606 L241 751 L280 751 L406 606 L385 579 L366 579 L260 667 L154 579 L136 579 Z M464 369 Q464 326 447 294 Q430 262 401.5 241 Q373 220 335.5 209.5 Q298 199 256 199 Q235 199 215 201.5 Q195 204 177 209 Q147 190 147 166 Q147 149 159 139.5 Q171 130 200 130 L347 130 Q383 130 414 122.5 Q445 115 467.5 99 Q490 83 503 59 Q516 35 516 1 Q516 -45 494.5 -79 Q473 -113 435.5 -135.5 Q398 -158 348 -169 Q298 -180 241 -180 Q191 -180 150.5 -174 Q110 -168 81.5 -155 Q53 -142 38 -121 Q23 -100 23 -70 Q23 -50 30.5 -33.5 Q38 -17 49.5 -4 Q61 9 75.5 18.5 Q90 28 105 35 Q76 46 59 69 Q42 92 42 123 Q42 153 61.5 181 Q81 209 123 232 Q89 252 69 286.5 Q49 321 49 369 Q49 412 65.5 444 Q82 476 110.5 497 Q139 518 176.5 528 Q214 538 256 538 Q277 538 297 535.5 Q317 533 335 528 L513 528 L513 461 L440 461 L437 457 Q450 440 457 417.5 Q464 395 464 369 Z M349 369 Q349 423 323.5 449 Q298 475 256 475 Q214 475 189 449 Q164 423 164 369 Q164 315 189 288 Q214 261 256 261 Q298 261 323.5 288 Q349 315 349 369 Z M166 25 Q155 18 141.5 0 Q128 -18 128 -47 Q128 -82 158 -100 Q188 -118 254 -118 Q285 -118 312 -113 Q339 -108 359.5 -97.5 Q380 -87 392 -70.5 Q404 -54 404 -31 Q404 1 384 13 Q364 25 322 25 L166 25 Z " />
<glyph glyph-name="Gbreve" unicode="&#x11e;" horiz-adv-x="642" d="M559 260 L559 29 Q527 15 479.5 2.5 Q432 -10 362 -10 Q287 -10 228 10.5 Q169 31 128 75 Q87 119 65.5 187 Q44 255 44 350 Q44 441 67.5 508.5 Q91 576 134.5 621 Q178 666 239.5 688 Q301 710 376 710 Q411 710 442 707 Q473 704 497 700 Q521 696 536 692 Q551 688 555 686 L555 516 L478 516 L478 605 L465 618 Q445 623 423.5 626.5 Q402 630 376 630 Q322 630 284.5 612 Q247 594 223 559.5 Q199 525 188 475 Q177 425 177 361 Q177 216 224 142 Q271 68 383 68 Q389 68 398 68.5 Q407 69 416.5 70 Q426 71 434 72 Q442 73 446 75 L446 260 L430 276 L381 276 L381 343 L614 343 L614 276 L574 276 L559 260 Z M498 878 Q494 856 484 835.5 Q474 815 458.5 799.5 Q443 784 421 774.5 Q399 765 371 765 Q343 765 321 774.5 Q299 784 283.5 799.5 Q268 815 258 835.5 Q248 856 244 878 L300 894 Q307 869 324 850 Q341 831 372 831 Q404 831 422.5 849.5 Q441 868 447 891 L498 878 Z " />
<glyph glyph-name="gbreve" unicode="&#x11f;" horiz-adv-x="541" d="M464 369 Q464 326 447 294 Q430 262 401.5 241 Q373 220 335.5 209.5 Q298 199 256 199 Q235 199 215 201.5 Q195 204 177 209 Q147 190 147 166 Q147 149 159 139.5 Q171 130 200 130 L347 130 Q383 130 414 122.5 Q445 115 467.5 99 Q490 83 503 59 Q516 35 516 1 Q516 -45 494.5 -79 Q473 -113 435.5 -135.5 Q398 -158 348 -169 Q298 -180 241 -180 Q191 -180 150.5 -174 Q110 -168 81.5 -155 Q53 -142 38 -121 Q23 -100 23 -70 Q23 -50 30.5 -33.5 Q38 -17 49.5 -4 Q61 9 75.5 18.5 Q90 28 105 35 Q76 46 59 69 Q42 92 42 123 Q42 153 61.5 181 Q81 209 123 232 Q89 252 69 286.5 Q49 321 49 369 Q49 412 65.5 444 Q82 476 110.5 497 Q139 518 176.5 528 Q214 538 256 538 Q277 538 297 535.5 Q317 533 335 528 L513 528 L513 461 L440 461 L437 457 Q450 440 457 417.5 Q464 395 464 369 Z M349 369 Q349 423 323.5 449 Q298 475 256 475 Q214 475 189 449 Q164 423 164 369 Q164 315 189 288 Q214 261 256 261 Q298 261 323.5 288 Q349 315 349 369 Z M166 25 Q155 18 141.5 0 Q128 -18 128 -47 Q128 -82 158 -100 Q188 -118 254 -118 Q285 -118 312 -113 Q339 -108 359.5 -97.5 Q380 -87 392 -70.5 Q404 -54 404 -31 Q404 1 384 13 Q364 25 322 25 L166 25 Z M387 706 Q383 684 373 663.5 Q363 643 347.5 627 Q332 611 310 601.5 Q288 592 260 592 Q232 592 210 601.5 Q188 611 172.5 627 Q157 643 147 663.5 Q137 684 133 706 L190 721 Q196 697 213 677.5 Q230 658 261 658 Q293 658 311.5 676.5 Q330 695 337 718 L387 706 Z " />
<glyph glyph-name="Gdotaccent" unicode="&#x120;" horiz-adv-x="642" d="M299 833 Q299 860 320 880 Q341 900 370 900 Q399 900 420 880 Q441 860 441 833 Q441 806 420 786 Q399 766 370 766 Q341 766 320 786 Q299 806 299 833 Z M559 260 L559 29 Q527 15 479.5 2.5 Q432 -10 362 -10 Q287 -10 228 10.5 Q169 31 128 75 Q87 119 65.5 187 Q44 255 44 350 Q44 441 67.5 508.5 Q91 576 134.5 621 Q178 666 239.5 688 Q301 710 376 710 Q411 710 442 707 Q473 704 497 700 Q521 696 536 692 Q551 688 555 686 L555 516 L478 516 L478 605 L465 618 Q445 623 423.5 626.5 Q402 630 376 630 Q322 630 284.5 612 Q247 594 223 559.5 Q199 525 188 475 Q177 425 177 361 Q177 216 224 142 Q271 68 383 68 Q389 68 398 68.5 Q407 69 416.5 70 Q426 71 434 72 Q442 73 446 75 L446 260 L430 276 L381 276 L381 343 L614 343 L614 276 L574 276 L559 260 Z " />
<glyph glyph-name="gdotaccent" unicode="&#x121;" horiz-adv-x="541" d="M464 369 Q464 326 447 294 Q430 262 401.5 241 Q373 220 335.5 209.5 Q298 199 256 199 Q235 199 215 201.5 Q195 204 177 209 Q147 190 147 166 Q147 149 159 139.5 Q171 130 200 130 L347 130 Q383 130 414 122.5 Q445 115 467.5 99 Q490 83 503 59 Q516 35 516 1 Q516 -45 494.5 -79 Q473 -113 435.5 -135.5 Q398 -158 348 -169 Q298 -180 241 -180 Q191 -180 150.5 -174 Q110 -168 81.5 -155 Q53 -142 38 -121 Q23 -100 23 -70 Q23 -50 30.5 -33.5 Q38 -17 49.5 -4 Q61 9 75.5 18.5 Q90 28 105 35 Q76 46 59 69 Q42 92 42 123 Q42 153 61.5 181 Q81 209 123 232 Q89 252 69 286.5 Q49 321 49 369 Q49 412 65.5 444 Q82 476 110.5 497 Q139 518 176.5 528 Q214 538 256 538 Q277 538 297 535.5 Q317 533 335 528 L513 528 L513 461 L440 461 L437 457 Q450 440 457 417.5 Q464 395 464 369 Z M349 369 Q349 423 323.5 449 Q298 475 256 475 Q214 475 189 449 Q164 423 164 369 Q164 315 189 288 Q214 261 256 261 Q298 261 323.5 288 Q349 315 349 369 Z M166 25 Q155 18 141.5 0 Q128 -18 128 -47 Q128 -82 158 -100 Q188 -118 254 -118 Q285 -118 312 -113 Q339 -108 359.5 -97.5 Q380 -87 392 -70.5 Q404 -54 404 -31 Q404 1 384 13 Q364 25 322 25 L166 25 Z M188 661 Q188 687 209 707.5 Q230 728 259 728 Q273 728 286 722.5 Q299 717 308.5 707.5 Q318 698 324 686 Q330 674 330 661 Q330 634 309 614 Q288 594 259 594 Q230 594 209 614 Q188 634 188 661 Z " />
<glyph glyph-name="uni0122" unicode="&#x122;" horiz-adv-x="642" d="M305 -258 L336 -202 L328 -185 Q299 -171 299 -135 Q299 -74 360 -74 Q390 -74 406 -89.5 Q422 -105 422 -132 Q422 -143 417.5 -153.5 Q413 -164 408 -175 L350 -281 L305 -258 Z M559 260 L559 29 Q527 15 479.5 2.5 Q432 -10 362 -10 Q287 -10 228 10.5 Q169 31 128 75 Q87 119 65.5 187 Q44 255 44 350 Q44 441 67.5 508.5 Q91 576 134.5 621 Q178 666 239.5 688 Q301 710 376 710 Q411 710 442 707 Q473 704 497 700 Q521 696 536 692 Q551 688 555 686 L555 516 L478 516 L478 605 L465 618 Q445 623 423.5 626.5 Q402 630 376 630 Q322 630 284.5 612 Q247 594 223 559.5 Q199 525 188 475 Q177 425 177 361 Q177 216 224 142 Q271 68 383 68 Q389 68 398 68.5 Q407 69 416.5 70 Q426 71 434 72 Q442 73 446 75 L446 260 L430 276 L381 276 L381 343 L614 343 L614 276 L574 276 L559 260 Z " />
<glyph glyph-name="uni0123" unicode="&#x123;" horiz-adv-x="541" d="M322 778 L290 723 L298 705 Q327 690 327 656 Q327 594 266 594 Q236 594 220 609.5 Q204 625 204 653 Q204 664 208.5 674 Q213 684 218 695 L276 802 L322 778 Z M464 369 Q464 326 447 294 Q430 262 401.5 241 Q373 220 335.5 209.5 Q298 199 256 199 Q235 199 215 201.5 Q195 204 177 209 Q147 190 147 166 Q147 149 159 139.5 Q171 130 200 130 L347 130 Q383 130 414 122.5 Q445 115 467.5 99 Q490 83 503 59 Q516 35 516 1 Q516 -45 494.5 -79 Q473 -113 435.5 -135.5 Q398 -158 348 -169 Q298 -180 241 -180 Q191 -180 150.5 -174 Q110 -168 81.5 -155 Q53 -142 38 -121 Q23 -100 23 -70 Q23 -50 30.5 -33.5 Q38 -17 49.5 -4 Q61 9 75.5 18.5 Q90 28 105 35 Q76 46 59 69 Q42 92 42 123 Q42 153 61.5 181 Q81 209 123 232 Q89 252 69 286.5 Q49 321 49 369 Q49 412 65.5 444 Q82 476 110.5 497 Q139 518 176.5 528 Q214 538 256 538 Q277 538 297 535.5 Q317 533 335 528 L513 528 L513 461 L440 461 L437 457 Q450 440 457 417.5 Q464 395 464 369 Z M349 369 Q349 423 323.5 449 Q298 475 256 475 Q214 475 189 449 Q164 423 164 369 Q164 315 189 288 Q214 261 256 261 Q298 261 323.5 288 Q349 315 349 369 Z M166 25 Q155 18 141.5 0 Q128 -18 128 -47 Q128 -82 158 -100 Q188 -118 254 -118 Q285 -118 312 -113 Q339 -108 359.5 -97.5 Q380 -87 392 -70.5 Q404 -54 404 -31 Q404 1 384 13 Q364 25 322 25 L166 25 Z " />
<glyph glyph-name="Hcircumflex" unicode="&#x124;" horiz-adv-x="740" d="M500 317 L241 317 L241 83 L256 67 L313 67 L313 0 L42 0 L42 67 L98 67 L114 83 L114 617 L98 633 L42 633 L42 700 L313 700 L313 633 L256 633 L241 617 L241 398 L500 398 L500 617 L484 633 L428 633 L428 700 L699 700 L699 633 L642 633 L626 617 L626 83 L642 67 L699 67 L699 0 L428 0 L428 67 L484 67 L500 83 L500 317 Z M244 752 L221 780 L350 926 L391 926 L520 780 L497 752 L477 752 L371 837 L263 752 L244 752 Z " />
<glyph glyph-name="hcircumflex" unicode="&#x125;" horiz-adv-x="603" d="M25 776 L4 803 L130 948 L169 948 L295 803 L274 776 L255 776 L149 864 L43 776 L25 776 Z M335 0 L335 63 L382 63 L398 80 L398 359 Q398 375 395 390.5 Q392 406 384 418.5 Q376 431 361 439 Q346 447 321 447 Q287 447 260 435 Q233 423 210 400 L210 80 L226 63 L273 63 L273 0 L19 0 L19 63 L75 63 L91 80 L91 647 L75 663 L19 663 L19 730 L167 730 Q194 730 202 717.5 Q210 705 210 688 L210 467 Q220 477 234.5 489.5 Q249 502 268.5 513 Q288 524 312 531 Q336 538 363 538 Q406 538 435.5 525.5 Q465 513 483 491 Q501 469 509 440 Q517 411 517 378 L517 80 L533 63 L589 63 L589 0 L335 0 Z " />
<glyph glyph-name="Hbar" unicode="&#x126;" horiz-adv-x="740" d="M42 540 L114 540 L114 617 L98 633 L42 633 L42 700 L313 700 L313 633 L256 633 L241 617 L241 540 L500 540 L500 617 L484 633 L428 633 L428 700 L699 700 L699 633 L642 633 L626 617 L626 540 L699 540 L699 481 L626 481 L626 83 L642 67 L699 67 L699 0 L428 0 L428 67 L484 67 L500 83 L500 317 L241 317 L241 83 L256 67 L313 67 L313 0 L42 0 L42 67 L98 67 L114 83 L114 481 L42 481 L42 540 Z M500 398 L500 481 L241 481 L241 398 L500 398 Z " />
<glyph glyph-name="hbar" unicode="&#x127;" horiz-adv-x="603" d="M19 625 L91 625 L91 648 L75 664 L19 664 L19 731 L167 731 Q194 731 202 718.5 Q210 706 210 689 L210 625 L330 625 L330 573 L210 573 L210 468 Q220 478 234.5 490.5 Q249 503 268.5 514 Q288 525 312 532 Q336 539 363 539 Q406 539 435.5 526.5 Q465 514 483 492 Q501 470 509 441 Q517 412 517 379 L517 81 L533 64 L589 64 L589 1 L335 1 L335 64 L382 64 L398 81 L398 360 Q398 376 395 391.5 Q392 407 384 419.5 Q376 432 361 440 Q346 448 321 448 Q287 448 260 436 Q233 424 210 401 L210 81 L226 64 L273 64 L273 1 L19 1 L19 64 L75 64 L91 81 L91 573 L19 573 L19 625 Z " />
<glyph glyph-name="Itilde" unicode="&#x128;" horiz-adv-x="355" d="M114 617 L98 633 L42 633 L42 700 L313 700 L313 633 L256 633 L241 617 L241 83 L256 67 L313 67 L313 0 L42 0 L42 67 L98 67 L114 83 L114 617 Z M337 896 L337 854 Q337 809 315 787.5 Q293 766 255 766 Q233 766 213 773 Q193 780 174 788 Q155 796 137.5 803 Q120 810 104 810 Q86 810 78.5 803.5 Q71 797 71 792 L71 756 L19 756 L19 794 Q19 847 41 868 Q63 889 100 889 Q121 889 140.5 881.5 Q160 874 179 865 Q198 856 216.5 848.5 Q235 841 254 841 Q274 841 280.5 849.5 Q287 858 287 863 L287 896 L337 896 Z " />
<glyph glyph-name="itilde" unicode="&#x129;" horiz-adv-x="312" d="M177 528 Q204 528 212.5 515.5 Q221 503 221 486 L221 80 L236 63 L293 63 L293 0 L29 0 L29 63 L86 63 L102 80 L102 444 L86 461 L29 461 L29 528 L177 528 Z M311 723 L311 682 Q311 637 289 615 Q267 593 229 593 Q207 593 187 600 Q167 607 148 615.5 Q129 624 111.5 631 Q94 638 78 638 Q60 638 52.5 631 Q45 624 45 619 L45 583 L-7 583 L-7 621 Q-7 674 15 695.5 Q37 717 74 717 Q95 717 114.5 709.5 Q134 702 153 692.5 Q172 683 190.5 675.5 Q209 668 228 668 Q248 668 254.5 677 Q261 686 261 691 L261 723 L311 723 Z " />
<glyph glyph-name="Imacron" unicode="&#x12a;" horiz-adv-x="355" d="M114 617 L98 633 L42 633 L42 700 L313 700 L313 633 L256 633 L241 617 L241 83 L256 67 L313 67 L313 0 L42 0 L42 67 L98 67 L114 83 L114 617 Z M48 865 L308 865 L308 795 L48 795 L48 865 Z " />
<glyph glyph-name="imacron" unicode="&#x12b;" horiz-adv-x="312" d="M177 528 Q204 528 212.5 515.5 Q221 503 221 486 L221 80 L236 63 L293 63 L293 0 L29 0 L29 63 L86 63 L102 80 L102 444 L86 461 L29 461 L29 528 L177 528 Z M22 692 L281 692 L281 622 L22 622 L22 692 Z " />
<glyph glyph-name="Iogonek" unicode="&#x12e;" horiz-adv-x="354" d="M114 617 L98 633 L41 633 L41 700 L313 700 L313 633 L256 633 L241 617 L241 83 L256 67 L313 67 L313 0 L263 0 Q215 -9 185.5 -29.5 Q156 -50 156 -82 Q156 -113 173 -124.5 Q190 -136 217 -136 Q235 -136 254.5 -129 Q274 -122 282 -116 L300 -151 Q283 -163 253.5 -171.5 Q224 -180 192 -180 Q138 -180 106.5 -160.5 Q75 -141 75 -97 Q75 -64 96 -40 Q117 -16 149 0 L41 0 L41 67 L98 67 L114 83 L114 617 Z " />
<glyph glyph-name="iogonek" unicode="&#x12f;" horiz-adv-x="311" d="M177 528 Q204 528 212 515.5 Q220 503 220 486 L220 80 L236 63 L292 63 L292 0 L242 0 Q194 -9 164.5 -29.5 Q135 -50 135 -82 Q135 -113 152 -124.5 Q169 -136 196 -136 Q213 -136 232.5 -129 Q252 -122 260 -116 L278 -151 Q261 -163 231.5 -171.5 Q202 -180 170 -180 Q116 -180 84.5 -160.5 Q53 -141 53 -97 Q53 -64 74.5 -40 Q96 -16 128 0 L29 0 L29 63 L85 63 L101 80 L101 444 L85 461 L29 461 L29 528 L177 528 Z M82 671 Q82 701 99 719 Q116 737 151 737 Q186 737 203.5 719 Q221 701 221 671 Q221 642 203.5 623.5 Q186 605 151 605 Q116 605 99 623.5 Q82 642 82 671 Z " />
<glyph glyph-name="Idotaccent" unicode="&#x130;" horiz-adv-x="355" d="M114 617 L98 633 L42 633 L42 700 L313 700 L313 633 L256 633 L241 617 L241 83 L256 67 L313 67 L313 0 L42 0 L42 67 L98 67 L114 83 L114 617 Z M107 833 Q107 860 128 880 Q149 900 178 900 Q207 900 228 880 Q249 860 249 833 Q249 806 228 786 Q207 766 178 766 Q149 766 128 786 Q107 806 107 833 Z " />
<glyph glyph-name="dotlessi" unicode="&#x131;" horiz-adv-x="312" d="M177 528 Q204 528 212.5 515.5 Q221 503 221 486 L221 80 L236 63 L293 63 L293 0 L29 0 L29 63 L86 63 L102 80 L102 444 L86 461 L29 461 L29 528 L177 528 Z " />
<glyph glyph-name="IJ" unicode="&#x132;" horiz-adv-x="668" d="M112 617 L96 633 L40 633 L40 700 L311 700 L311 633 L254 633 L239 617 L239 310 L254 294 L311 294 L311 227 L40 227 L40 294 L96 294 L112 310 L112 617 Z M441 617 L425 633 L369 633 L369 700 L640 700 L640 633 L583 633 L568 617 L568 193 Q568 151 553.5 114 Q539 77 509.5 49.5 Q480 22 434.5 6 Q389 -10 327 -10 Q279 -10 244.5 -2 Q210 6 186.5 16 Q163 26 150 35 Q137 44 134 46 L134 188 L217 188 L217 101 L230 87 Q248 77 267.5 74 Q287 71 307 71 Q377 71 409 96.5 Q441 122 441 183 L441 617 Z " />
<glyph glyph-name="ij" unicode="&#x133;" horiz-adv-x="621" d="M177 528 Q204 528 212.5 515.5 Q221 503 221 486 L221 80 L236 63 L293 63 L293 0 L29 0 L29 63 L86 63 L102 80 L102 444 L86 461 L29 461 L29 528 L177 528 Z M82 671 Q82 701 99.5 719 Q117 737 152 737 Q186 737 203.5 719 Q221 701 221 671 Q221 642 203.5 623.5 Q186 605 152 605 Q117 605 99.5 623.5 Q82 642 82 671 Z M279 -59 L351 -59 L351 -107 L363 -120 L369 -120 Q386 -120 397.5 -110 Q409 -100 415.5 -83.5 Q422 -67 425 -46 Q428 -25 428 -2 L428 444 L412 461 L356 461 L356 528 L504 528 Q531 528 539 515.5 Q547 503 547 486 L547 5 Q547 -33 538 -66.5 Q529 -100 508 -125.5 Q487 -151 453.5 -165.5 Q420 -180 371 -180 Q328 -180 304.5 -175.5 Q281 -171 279 -171 L279 -59 Z M409 671 Q409 701 426 719 Q443 737 478 737 Q513 737 530.5 719 Q548 701 548 671 Q548 642 530.5 623.5 Q513 605 478 605 Q443 605 426 623.5 Q409 642 409 671 Z " />
<glyph glyph-name="Jcircumflex" unicode="&#x134;" horiz-adv-x="528" d="M300 617 L284 633 L228 633 L228 700 L499 700 L499 633 L443 633 L427 617 L427 195 Q427 152 413.5 114.5 Q400 77 373 49.5 Q346 22 304.5 6 Q263 -10 206 -10 Q161 -10 128 -2 Q95 6 73 16 Q51 26 39 35 Q27 44 23 46 L23 190 L106 190 L106 101 L119 87 Q150 71 187 71 Q246 71 273 97 Q300 123 300 188 L300 617 Z M236 753 L213 781 L342 927 L383 927 L512 781 L489 753 L469 753 L363 838 L255 753 L236 753 Z " />
<glyph glyph-name="jcircumflex" unicode="&#x135;" horiz-adv-x="286" d="M-56 -59 L16 -59 L16 -107 L28 -120 L34 -120 Q51 -120 62.5 -110 Q74 -100 80.5 -83.5 Q87 -67 90 -46 Q93 -25 93 -2 L93 444 L77 461 L21 461 L21 528 L169 528 Q196 528 204 515.5 Q212 503 212 486 L212 5 Q212 -33 203 -66.5 Q194 -100 173 -125.5 Q152 -151 118.5 -165.5 Q85 -180 36 -180 Q-7 -180 -30.5 -175.5 Q-54 -171 -56 -171 L-56 -59 Z M6 579 L-15 606 L111 751 L150 751 L276 606 L255 579 L236 579 L130 667 L24 579 L6 579 Z " />
<glyph glyph-name="uni0136" unicode="&#x136;" horiz-adv-x="706" d="M309 -258 L340 -202 L332 -185 Q303 -171 303 -135 Q303 -74 364 -74 Q394 -74 410 -89.5 Q426 -105 426 -132 Q426 -143 421.5 -153.5 Q417 -164 412 -175 L354 -281 L309 -258 Z M414 384 L627 80 L644 67 L695 67 L695 0 L426 0 L426 67 L478 67 L487 77 L317 324 L241 324 L241 83 L256 67 L313 67 L313 0 L42 0 L42 67 L98 67 L114 83 L114 617 L98 633 L42 633 L42 700 L313 700 L313 633 L256 633 L241 617 L241 393 L316 393 L509 623 L501 633 L450 633 L450 700 L682 700 L682 633 L636 633 L616 620 L414 384 Z " />
<glyph glyph-name="uni0137" unicode="&#x137;" horiz-adv-x="600" d="M241 -258 L272 -202 L264 -185 Q235 -171 235 -135 Q235 -74 296 -74 Q326 -74 342 -89.5 Q358 -105 358 -132 Q358 -143 353.5 -153.5 Q349 -164 344 -175 L286 -281 L241 -258 Z M364 313 L527 76 L543 63 L588 63 L588 0 L339 0 L339 63 L383 63 L392 74 L272 258 L210 258 L210 80 L226 63 L273 63 L273 0 L19 0 L19 63 L75 63 L91 80 L91 647 L75 663 L19 663 L19 730 L167 730 Q194 730 202 717.5 Q210 705 210 688 L210 317 L268 317 L409 454 L404 461 L359 461 L359 528 L577 528 L577 461 L524 461 L505 448 L364 313 Z " />
<glyph glyph-name="kgreenlandic" unicode="&#x138;" horiz-adv-x="609" d="M283 0 L28 0 L28 63 L85 63 L101 80 L101 444 L85 461 L28 461 L28 528 L176 528 Q203 528 211.5 515.5 Q220 503 220 486 L220 317 L278 317 L419 454 L413 461 L368 461 L368 528 L586 528 L586 461 L534 461 L515 448 L373 314 L536 76 L551 63 L597 63 L597 0 L348 0 L348 63 L392 63 L401 74 L281 258 L220 258 L220 80 L235 63 L283 63 L283 0 Z " />
<glyph glyph-name="Lacute" unicode="&#x139;" horiz-adv-x="576" d="M165 752 L132 788 L254 924 L275 924 L331 856 L181 752 L165 752 Z M241 80 L459 80 L475 96 L475 188 L551 188 L551 0 L42 0 L42 67 L98 67 L114 83 L114 617 L98 633 L42 633 L42 700 L313 700 L313 633 L256 633 L241 617 L241 80 Z " />
<glyph glyph-name="lacute" unicode="&#x13a;" horiz-adv-x="302" d="M148 775 L115 811 L237 947 L259 947 L314 880 L165 775 L148 775 Z M167 730 Q194 730 202.5 717.5 Q211 705 211 688 L211 80 L226 63 L283 63 L283 0 L19 0 L19 63 L76 63 L92 80 L92 647 L76 663 L19 663 L19 730 L167 730 Z " />
<glyph glyph-name="uni013B" unicode="&#x13b;" horiz-adv-x="576" d="M266 -258 L297 -202 L289 -185 Q260 -171 260 -135 Q260 -74 321 -74 Q351 -74 367 -89.5 Q383 -105 383 -132 Q383 -143 378.5 -153.5 Q374 -164 369 -175 L311 -281 L266 -258 Z M241 80 L459 80 L475 96 L475 188 L551 188 L551 0 L42 0 L42 67 L98 67 L114 83 L114 617 L98 633 L42 633 L42 700 L313 700 L313 633 L256 633 L241 617 L241 80 Z " />
<glyph glyph-name="uni013C" unicode="&#x13c;" horiz-adv-x="302" d="M95 -258 L126 -202 L118 -185 Q89 -171 89 -135 Q89 -74 150 -74 Q180 -74 196 -89.5 Q212 -105 212 -132 Q212 -143 207.5 -153.5 Q203 -164 198 -175 L140 -281 L95 -258 Z M167 730 Q194 730 202.5 717.5 Q211 705 211 688 L211 80 L226 63 L283 63 L283 0 L19 0 L19 63 L76 63 L92 80 L92 647 L76 663 L19 663 L19 730 L167 730 Z " />
<glyph glyph-name="Lcaron" unicode="&#x13d;" horiz-adv-x="580" d="M445 582 L445 780 L528 780 L528 708 L514 582 L445 582 Z M240 80 L458 80 L474 96 L474 188 L550 188 L550 0 L41 0 L41 67 L97 67 L113 83 L113 617 L97 633 L41 633 L41 700 L312 700 L312 633 L255 633 L240 617 L240 80 Z " />
<glyph glyph-name="lcaron" unicode="&#x13e;" horiz-adv-x="332" d="M305 582 L305 780 L388 780 L388 708 L374 582 L305 582 Z M167 730 Q194 730 202.5 717.5 Q211 705 211 688 L211 80 L226 63 L283 63 L283 0 L19 0 L19 63 L76 63 L92 80 L92 647 L76 663 L19 663 L19 730 L167 730 Z " />
<glyph glyph-name="Ldot" unicode="&#x13f;" horiz-adv-x="599" d="M241 80 L459 80 L475 96 L475 188 L551 188 L551 0 L42 0 L42 67 L98 67 L114 83 L114 617 L98 633 L42 633 L42 700 L313 700 L313 633 L256 633 L241 617 L241 80 Z M409 373 Q409 399 429.5 419.5 Q450 440 479 440 Q508 440 529 419.5 Q550 399 550 373 Q550 346 529 326 Q508 306 479 306 Q450 306 429.5 326 Q409 346 409 373 Z " />
<glyph glyph-name="ldot" unicode="&#x140;" horiz-adv-x="419" d="M291 366 Q291 392 311.5 412.5 Q332 433 361 433 Q390 433 411 412.5 Q432 392 432 366 Q432 339 411 319 Q390 299 361 299 Q332 299 311.5 319 Q291 339 291 366 Z M167 730 Q194 730 202.5 717.5 Q211 705 211 688 L211 80 L226 63 L283 63 L283 0 L19 0 L19 63 L76 63 L92 80 L92 647 L76 663 L19 663 L19 730 L167 730 Z " />
<glyph glyph-name="Lslash" unicode="&#x141;" horiz-adv-x="577" d="M243 413 L364 477 L364 409 L243 345 L243 80 L460 80 L476 96 L476 188 L552 188 L552 0 L43 0 L43 67 L100 67 L116 83 L116 281 L32 237 L32 305 L116 349 L116 617 L100 633 L43 633 L43 700 L315 700 L315 633 L258 633 L243 617 L243 413 Z " />
<glyph glyph-name="lslash" unicode="&#x142;" horiz-adv-x="314" d="M170 730 Q197 730 205.5 717.5 Q214 705 214 688 L214 425 L301 477 L301 408 L214 357 L214 80 L229 63 L286 63 L286 0 L23 0 L23 63 L79 63 L95 80 L95 290 L9 240 L9 309 L95 359 L95 647 L79 663 L23 663 L23 730 L170 730 Z " />
<glyph glyph-name="Nacute" unicode="&#x143;" horiz-adv-x="732" d="M355 752 L322 788 L444 924 L465 924 L521 856 L371 752 L355 752 Z M41 0 L41 67 L98 67 L114 83 L114 617 L98 633 L41 633 L41 700 L224 700 L531 216 L531 617 L515 633 L459 633 L459 700 L698 700 L698 633 L641 633 L626 617 L626 -3 L536 -3 L208 511 L208 83 L224 67 L281 67 L281 0 L41 0 Z " />
<glyph glyph-name="nacute" unicode="&#x144;" horiz-adv-x="614" d="M311 579 L278 615 L400 751 L422 751 L477 684 L328 579 L311 579 Z M28 0 L28 63 L85 63 L101 80 L101 444 L85 461 L28 461 L28 528 L169 528 Q196 528 204.5 515.5 Q213 503 213 486 L213 463 L216 463 Q225 473 239.5 486 Q254 499 274 510.5 Q294 522 318.5 530 Q343 538 372 538 Q415 538 444.5 525.5 Q474 513 492 491 Q510 469 518 440 Q526 411 526 378 L526 80 L542 63 L599 63 L599 0 L344 0 L344 63 L392 63 L407 80 L407 359 Q407 375 404.5 390.5 Q402 406 394 418.5 Q386 431 370.5 439 Q355 447 330 447 Q297 447 270 435 Q243 423 220 400 L220 80 L235 63 L283 63 L283 0 L28 0 Z " />
<glyph glyph-name="uni0145" unicode="&#x145;" horiz-adv-x="732" d="M320 -258 L351 -202 L343 -185 Q314 -171 314 -135 Q314 -74 375 -74 Q405 -74 421 -89.5 Q437 -105 437 -132 Q437 -143 432.5 -153.5 Q428 -164 423 -175 L365 -281 L320 -258 Z M41 0 L41 67 L98 67 L114 83 L114 617 L98 633 L41 633 L41 700 L224 700 L531 216 L531 617 L515 633 L459 633 L459 700 L698 700 L698 633 L641 633 L626 617 L626 -3 L536 -3 L208 511 L208 83 L224 67 L281 67 L281 0 L41 0 Z " />
<glyph glyph-name="uni0146" unicode="&#x146;" horiz-adv-x="614" d="M255 -258 L286 -202 L278 -185 Q249 -171 249 -135 Q249 -74 310 -74 Q340 -74 356 -89.5 Q372 -105 372 -132 Q372 -143 367.5 -153.5 Q363 -164 358 -175 L300 -281 L255 -258 Z M28 0 L28 63 L85 63 L101 80 L101 444 L85 461 L28 461 L28 528 L169 528 Q196 528 204.5 515.5 Q213 503 213 486 L213 463 L216 463 Q225 473 239.5 486 Q254 499 274 510.5 Q294 522 318.5 530 Q343 538 372 538 Q415 538 444.5 525.5 Q474 513 492 491 Q510 469 518 440 Q526 411 526 378 L526 80 L542 63 L599 63 L599 0 L344 0 L344 63 L392 63 L407 80 L407 359 Q407 375 404.5 390.5 Q402 406 394 418.5 Q386 431 370.5 439 Q355 447 330 447 Q297 447 270 435 Q243 423 220 400 L220 80 L235 63 L283 63 L283 0 L28 0 Z " />
<glyph glyph-name="Ncaron" unicode="&#x147;" horiz-adv-x="732" d="M41 0 L41 67 L98 67 L114 83 L114 617 L98 633 L41 633 L41 700 L224 700 L531 216 L531 617 L515 633 L459 633 L459 700 L698 700 L698 633 L641 633 L626 617 L626 -3 L536 -3 L208 511 L208 83 L224 67 L281 67 L281 0 L41 0 Z M497 926 L520 898 L391 752 L350 752 L220 898 L243 926 L262 926 L370 841 L478 926 L497 926 Z " />
<glyph glyph-name="ncaron" unicode="&#x148;" horiz-adv-x="614" d="M444 754 L467 726 L338 579 L297 579 L168 726 L191 754 L210 754 L317 669 L425 754 L444 754 Z M28 0 L28 63 L85 63 L101 80 L101 444 L85 461 L28 461 L28 528 L169 528 Q196 528 204.5 515.5 Q213 503 213 486 L213 463 L216 463 Q225 473 239.5 486 Q254 499 274 510.5 Q294 522 318.5 530 Q343 538 372 538 Q415 538 444.5 525.5 Q474 513 492 491 Q510 469 518 440 Q526 411 526 378 L526 80 L542 63 L599 63 L599 0 L344 0 L344 63 L392 63 L407 80 L407 359 Q407 375 404.5 390.5 Q402 406 394 418.5 Q386 431 370.5 439 Q355 447 330 447 Q297 447 270 435 Q243 423 220 400 L220 80 L235 63 L283 63 L283 0 L28 0 Z " />
<glyph glyph-name="napostrophe" unicode="&#x149;" horiz-adv-x="614" d="M34 599 L65 655 L57 672 Q28 686 28 722 Q28 783 89 783 Q119 783 135 767.5 Q151 752 151 725 Q151 714 146.5 703.5 Q142 693 137 682 L79 576 L34 599 Z M28 0 L28 63 L85 63 L101 80 L101 444 L85 461 L28 461 L28 528 L169 528 Q196 528 204.5 515.5 Q213 503 213 486 L213 463 L216 463 Q225 473 239.5 486 Q254 499 274 510.5 Q294 522 318.5 530 Q343 538 372 538 Q415 538 444.5 525.5 Q474 513 492 491 Q510 469 518 440 Q526 411 526 378 L526 80 L542 63 L599 63 L599 0 L344 0 L344 63 L392 63 L407 80 L407 359 Q407 375 404.5 390.5 Q402 406 394 418.5 Q386 431 370.5 439 Q355 447 330 447 Q297 447 270 435 Q243 423 220 400 L220 80 L235 63 L283 63 L283 0 L28 0 Z " />
<glyph glyph-name="Omacron" unicode="&#x14c;" horiz-adv-x="670" d="M43 350 Q43 440 64.5 507.5 Q86 575 125 620 Q164 665 217.5 687.5 Q271 710 335 710 Q399 710 453 687.5 Q507 665 545.5 620 Q584 575 605.5 507.5 Q627 440 627 350 Q627 260 605.5 192.5 Q584 125 545.5 80 Q507 35 453 12.5 Q399 -10 335 -10 Q271 -10 217.5 12.5 Q164 35 125 80 Q86 125 64.5 192.5 Q43 260 43 350 Z M177 350 Q177 209 214.5 141.5 Q252 74 335 74 Q418 74 455.5 141.5 Q493 209 493 350 Q493 491 455.5 558.5 Q418 626 335 626 Q252 626 214.5 558.5 Q177 491 177 350 Z M208 865 L468 865 L468 795 L208 795 L208 865 Z " />
<glyph glyph-name="omacron" unicode="&#x14d;" horiz-adv-x="542" d="M149 692 L408 692 L408 622 L149 622 L149 692 Z M506 264 Q506 194 487 142.5 Q468 91 436 57 Q404 23 361.5 6.5 Q319 -10 271 -10 Q223 -10 180.5 6.5 Q138 23 106 57 Q74 91 55 142.5 Q36 194 36 264 Q36 334 55 385.5 Q74 437 106 471 Q138 505 180.5 521.5 Q223 538 271 538 Q319 538 361.5 521.5 Q404 505 436 471 Q468 437 487 385.5 Q506 334 506 264 Z M382 264 Q382 461 271 461 Q160 461 160 264 Q160 67 271 67 Q382 67 382 264 Z " />
<glyph glyph-name="Obreve" unicode="&#x14e;" horiz-adv-x="670" d="M43 350 Q43 440 64.5 507.5 Q86 575 125 620 Q164 665 217.5 687.5 Q271 710 335 710 Q399 710 453 687.5 Q507 665 545.5 620 Q584 575 605.5 507.5 Q627 440 627 350 Q627 260 605.5 192.5 Q584 125 545.5 80 Q507 35 453 12.5 Q399 -10 335 -10 Q271 -10 217.5 12.5 Q164 35 125 80 Q86 125 64.5 192.5 Q43 260 43 350 Z M177 350 Q177 209 214.5 141.5 Q252 74 335 74 Q418 74 455.5 141.5 Q493 209 493 350 Q493 491 455.5 558.5 Q418 626 335 626 Q252 626 214.5 558.5 Q177 491 177 350 Z M466 878 Q462 856 452 835.5 Q442 815 426.5 799.5 Q411 784 389 774.5 Q367 765 339 765 Q311 765 289 774.5 Q267 784 251.5 799.5 Q236 815 226 835.5 Q216 856 212 878 L268 894 Q275 869 292 850 Q309 831 340 831 Q372 831 390.5 849.5 Q409 868 415 891 L466 878 Z " />
<glyph glyph-name="obreve" unicode="&#x14f;" horiz-adv-x="542" d="M506 264 Q506 194 487 142.5 Q468 91 436 57 Q404 23 361.5 6.5 Q319 -10 271 -10 Q223 -10 180.5 6.5 Q138 23 106 57 Q74 91 55 142.5 Q36 194 36 264 Q36 334 55 385.5 Q74 437 106 471 Q138 505 180.5 521.5 Q223 538 271 538 Q319 538 361.5 521.5 Q404 505 436 471 Q468 437 487 385.5 Q506 334 506 264 Z M382 264 Q382 461 271 461 Q160 461 160 264 Q160 67 271 67 Q382 67 382 264 Z M406 706 Q402 684 392 663.5 Q382 643 366.5 627 Q351 611 329 601.5 Q307 592 279 592 Q251 592 229 601.5 Q207 611 191.5 627 Q176 643 166 663.5 Q156 684 152 706 L209 721 Q215 697 232 677.5 Q249 658 280 658 Q312 658 330.5 676.5 Q349 695 356 718 L406 706 Z " />
<glyph glyph-name="Ohungarumlaut" unicode="&#x150;" horiz-adv-x="670" d="M263 752 L235 783 L348 924 L369 924 L413 878 L280 752 L263 752 Z M388 752 L367 781 L488 905 L510 905 L557 852 L405 752 L388 752 Z M43 350 Q43 440 64.5 507.5 Q86 575 125 620 Q164 665 217.5 687.5 Q271 710 335 710 Q399 710 453 687.5 Q507 665 545.5 620 Q584 575 605.5 507.5 Q627 440 627 350 Q627 260 605.5 192.5 Q584 125 545.5 80 Q507 35 453 12.5 Q399 -10 335 -10 Q271 -10 217.5 12.5 Q164 35 125 80 Q86 125 64.5 192.5 Q43 260 43 350 Z M177 350 Q177 209 214.5 141.5 Q252 74 335 74 Q418 74 455.5 141.5 Q493 209 493 350 Q493 491 455.5 558.5 Q418 626 335 626 Q252 626 214.5 558.5 Q177 491 177 350 Z " />
<glyph glyph-name="ohungarumlaut" unicode="&#x151;" horiz-adv-x="542" d="M205 579 L177 611 L289 751 L311 751 L355 705 L221 579 L205 579 Z M330 579 L309 609 L430 732 L452 732 L499 680 L347 579 L330 579 Z M506 264 Q506 194 487 142.5 Q468 91 436 57 Q404 23 361.5 6.5 Q319 -10 271 -10 Q223 -10 180.5 6.5 Q138 23 106 57 Q74 91 55 142.5 Q36 194 36 264 Q36 334 55 385.5 Q74 437 106 471 Q138 505 180.5 521.5 Q223 538 271 538 Q319 538 361.5 521.5 Q404 505 436 471 Q468 437 487 385.5 Q506 334 506 264 Z M382 264 Q382 461 271 461 Q160 461 160 264 Q160 67 271 67 Q382 67 382 264 Z " />
<glyph glyph-name="OE" unicode="&#x152;" horiz-adv-x="969" d="M344 710 Q381 710 412.5 707.5 Q444 705 473 700 L917 700 L917 523 L842 523 L842 607 L826 622 L584 622 L584 395 L733 395 L748 410 L748 464 L818 464 L818 252 L748 252 L748 306 L734 320 L584 320 L584 78 L836 78 L852 93 L852 178 L927 178 L927 0 L471 0 Q418 -10 344 -10 Q276 -10 220.5 12 Q165 34 125.5 79 Q86 124 64.5 191.5 Q43 259 43 350 Q43 441 64.5 508.5 Q86 576 125.5 621 Q165 666 220.5 688 Q276 710 344 710 Z M344 74 Q413 74 457 90 L457 607 Q411 626 344 626 Q254 626 215 558 Q176 490 176 350 Q176 210 215 142 Q254 74 344 74 Z " />
<glyph glyph-name="oe" unicode="&#x153;" horiz-adv-x="843" d="M36 264 Q36 333 54.5 384.5 Q73 436 105 470 Q137 504 180.5 521 Q224 538 274 538 Q328 538 371.5 514 Q415 490 441 440 Q467 489 509.5 513.5 Q552 538 605 538 Q651 538 688.5 523.5 Q726 509 753 481 Q780 453 794.5 413.5 Q809 374 809 323 L809 248 L794 232 L499 232 Q506 143 547.5 105.5 Q589 68 658 68 Q700 68 732.5 76 Q765 84 782 91 L782 26 Q759 12 719 1 Q679 -10 619 -10 Q559 -10 513 12.5 Q467 35 439 85 Q413 37 369 13.5 Q325 -10 268 -10 Q221 -10 178.5 6.5 Q136 23 104.5 57 Q73 91 54.5 142.5 Q36 194 36 264 Z M160 264 Q160 67 271 67 Q382 67 382 264 Q382 461 271 461 Q160 461 160 264 Z M603 463 Q560 463 532.5 423.5 Q505 384 500 303 L692 303 L692 335 Q692 401 669 432 Q646 463 603 463 Z " />
<glyph glyph-name="Racute" unicode="&#x154;" horiz-adv-x="680" d="M114 617 L98 633 L42 633 L42 700 L348 700 Q408 700 455.5 689 Q503 678 537 654.5 Q571 631 589 594.5 Q607 558 607 507 Q607 466 593 434 Q579 402 556.5 380 Q534 358 505.5 345.5 Q477 333 447 330 L447 329 Q484 324 510 302.5 Q536 281 554 225 L602 82 L620 67 L663 67 L663 0 L532 0 Q506 0 492.5 13 Q479 26 473 46 L420 224 Q406 268 389.5 279.5 Q373 291 350 291 L241 291 L241 83 L256 67 L319 67 L319 0 L42 0 L42 67 L98 67 L114 83 L114 617 Z M241 622 L241 369 L344 369 Q412 369 444 401 Q476 433 476 501 Q476 622 345 622 L241 622 Z M329 752 L296 788 L418 924 L439 924 L495 856 L345 752 L329 752 Z " />
<glyph glyph-name="racute" unicode="&#x155;" horiz-adv-x="428" d="M225 579 L192 615 L314 751 L336 751 L391 684 L242 579 L225 579 Z M235 63 L303 63 L303 0 L28 0 L28 63 L85 63 L101 80 L101 444 L85 461 L28 461 L28 528 L169 528 Q196 528 204.5 515.5 Q213 503 213 486 L213 457 L216 457 Q222 465 235.5 478.5 Q249 492 268.5 505.5 Q288 519 313.5 528.5 Q339 538 370 538 Q383 538 393.5 537 Q404 536 407 535 L407 349 L334 349 L334 422 L318 437 Q285 433 259.5 420 Q234 407 220 393 L220 80 L235 63 Z " />
<glyph glyph-name="uni0156" unicode="&#x156;" horiz-adv-x="680" d="M340 -258 L371 -202 L363 -185 Q334 -171 334 -135 Q334 -74 395 -74 Q425 -74 441 -89.5 Q457 -105 457 -132 Q457 -143 452.5 -153.5 Q448 -164 443 -175 L385 -281 L340 -258 Z M114 617 L98 633 L42 633 L42 700 L348 700 Q408 700 455.5 689 Q503 678 537 654.5 Q571 631 589 594.5 Q607 558 607 507 Q607 466 593 434 Q579 402 556.5 380 Q534 358 505.5 345.5 Q477 333 447 330 L447 329 Q484 324 510 302.5 Q536 281 554 225 L602 82 L620 67 L663 67 L663 0 L532 0 Q506 0 492.5 13 Q479 26 473 46 L420 224 Q406 268 389.5 279.5 Q373 291 350 291 L241 291 L241 83 L256 67 L319 67 L319 0 L42 0 L42 67 L98 67 L114 83 L114 617 Z M241 622 L241 369 L344 369 Q412 369 444 401 Q476 433 476 501 Q476 622 345 622 L241 622 Z " />
<glyph glyph-name="uni0157" unicode="&#x157;" horiz-adv-x="428" d="M106 -258 L137 -202 L129 -185 Q100 -171 100 -135 Q100 -74 161 -74 Q191 -74 207 -89.5 Q223 -105 223 -132 Q223 -143 218.5 -153.5 Q214 -164 209 -175 L151 -281 L106 -258 Z M235 63 L303 63 L303 0 L28 0 L28 63 L85 63 L101 80 L101 444 L85 461 L28 461 L28 528 L169 528 Q196 528 204.5 515.5 Q213 503 213 486 L213 457 L216 457 Q222 465 235.5 478.5 Q249 492 268.5 505.5 Q288 519 313.5 528.5 Q339 538 370 538 Q383 538 393.5 537 Q404 536 407 535 L407 349 L334 349 L334 422 L318 437 Q285 433 259.5 420 Q234 407 220 393 L220 80 L235 63 Z " />
<glyph glyph-name="Rcaron" unicode="&#x158;" horiz-adv-x="680" d="M114 617 L98 633 L42 633 L42 700 L348 700 Q408 700 455.5 689 Q503 678 537 654.5 Q571 631 589 594.5 Q607 558 607 507 Q607 466 593 434 Q579 402 556.5 380 Q534 358 505.5 345.5 Q477 333 447 330 L447 329 Q484 324 510 302.5 Q536 281 554 225 L602 82 L620 67 L663 67 L663 0 L532 0 Q506 0 492.5 13 Q479 26 473 46 L420 224 Q406 268 389.5 279.5 Q373 291 350 291 L241 291 L241 83 L256 67 L319 67 L319 0 L42 0 L42 67 L98 67 L114 83 L114 617 Z M241 622 L241 369 L344 369 Q412 369 444 401 Q476 433 476 501 Q476 622 345 622 L241 622 Z M471 926 L494 898 L365 752 L324 752 L194 898 L217 926 L236 926 L344 841 L452 926 L471 926 Z " />
<glyph glyph-name="rcaron" unicode="&#x159;" horiz-adv-x="428" d="M364 754 L387 726 L258 579 L217 579 L88 726 L111 754 L130 754 L237 669 L345 754 L364 754 Z M235 63 L303 63 L303 0 L28 0 L28 63 L85 63 L101 80 L101 444 L85 461 L28 461 L28 528 L169 528 Q196 528 204.5 515.5 Q213 503 213 486 L213 457 L216 457 Q222 465 235.5 478.5 Q249 492 268.5 505.5 Q288 519 313.5 528.5 Q339 538 370 538 Q383 538 393.5 537 Q404 536 407 535 L407 349 L334 349 L334 422 L318 437 Q285 433 259.5 420 Q234 407 220 393 L220 80 L235 63 Z " />
<glyph glyph-name="Sacute" unicode="&#x15a;" horiz-adv-x="558" d="M518 209 Q518 153 498.5 112 Q479 71 444 44 Q409 17 361 3.5 Q313 -10 255 -10 Q210 -10 172 -6 Q134 -2 107 3 Q74 9 49 17 L49 194 L128 194 L128 98 L145 81 Q165 77 192.5 74 Q220 71 255 71 Q327 71 361.5 100.5 Q396 130 396 181 Q396 227 366 253.5 Q336 280 260 301 Q157 331 105 379 Q53 427 53 514 Q53 561 71.5 597.5 Q90 634 123.5 659 Q157 684 203.5 697 Q250 710 305 710 Q346 710 380 706 Q414 702 440 697 Q470 692 494 685 L494 516 L415 516 L415 605 L399 621 Q381 624 357.5 627 Q334 630 306 630 Q242 630 206 604 Q170 578 170 533 Q170 515 175 499 Q180 483 195 468 Q210 453 237.5 439.5 Q265 426 310 412 Q359 397 397.5 379.5 Q436 362 463 338 Q490 314 504 282.5 Q518 251 518 209 Z M293 752 L260 788 L382 924 L403 924 L459 856 L309 752 L293 752 Z " />
<glyph glyph-name="sacute" unicode="&#x15b;" horiz-adv-x="462" d="M240 579 L207 615 L329 751 L351 751 L406 684 L257 579 L240 579 Z M427 161 Q427 120 411 88 Q395 56 366.5 34.5 Q338 13 298.5 1.5 Q259 -10 213 -10 Q173 -10 141.5 -7 Q110 -4 88 1 Q62 6 42 13 L42 148 L115 148 L115 85 L130 69 Q146 66 166.5 64 Q187 62 213 62 Q261 62 286.5 83 Q312 104 312 136 Q312 152 307.5 164.5 Q303 177 290.5 187 Q278 197 256.5 205 Q235 213 202 222 Q155 234 125 250.5 Q95 267 77 287.5 Q59 308 52 332 Q45 356 45 383 Q45 417 59 446 Q73 475 100 495 Q127 515 166 526.5 Q205 538 254 538 Q286 538 314 535 Q342 532 362 529 Q386 525 406 521 L406 387 L333 387 L333 447 L319 461 Q305 463 288 465 Q271 467 251 467 Q205 467 180 449 Q155 431 155 401 Q155 388 158.5 377 Q162 366 172 356 Q182 346 201 337.5 Q220 329 251 321 Q298 308 331.5 293.5 Q365 279 386 260 Q407 241 417 217 Q427 193 427 161 Z " />
<glyph glyph-name="Scircumflex" unicode="&#x15c;" horiz-adv-x="558" d="M518 209 Q518 153 498.5 112 Q479 71 444 44 Q409 17 361 3.5 Q313 -10 255 -10 Q210 -10 172 -6 Q134 -2 107 3 Q74 9 49 17 L49 194 L128 194 L128 98 L145 81 Q165 77 192.5 74 Q220 71 255 71 Q327 71 361.5 100.5 Q396 130 396 181 Q396 227 366 253.5 Q336 280 260 301 Q157 331 105 379 Q53 427 53 514 Q53 561 71.5 597.5 Q90 634 123.5 659 Q157 684 203.5 697 Q250 710 305 710 Q346 710 380 706 Q414 702 440 697 Q470 692 494 685 L494 516 L415 516 L415 605 L399 621 Q381 624 357.5 627 Q334 630 306 630 Q242 630 206 604 Q170 578 170 533 Q170 515 175 499 Q180 483 195 468 Q210 453 237.5 439.5 Q265 426 310 412 Q359 397 397.5 379.5 Q436 362 463 338 Q490 314 504 282.5 Q518 251 518 209 Z M181 752 L158 780 L287 926 L328 926 L457 780 L434 752 L414 752 L308 837 L200 752 L181 752 Z " />
<glyph glyph-name="scircumflex" unicode="&#x15d;" horiz-adv-x="462" d="M125 579 L104 606 L230 751 L269 751 L395 606 L374 579 L355 579 L249 667 L143 579 L125 579 Z M427 161 Q427 120 411 88 Q395 56 366.5 34.5 Q338 13 298.5 1.5 Q259 -10 213 -10 Q173 -10 141.5 -7 Q110 -4 88 1 Q62 6 42 13 L42 148 L115 148 L115 85 L130 69 Q146 66 166.5 64 Q187 62 213 62 Q261 62 286.5 83 Q312 104 312 136 Q312 152 307.5 164.5 Q303 177 290.5 187 Q278 197 256.5 205 Q235 213 202 222 Q155 234 125 250.5 Q95 267 77 287.5 Q59 308 52 332 Q45 356 45 383 Q45 417 59 446 Q73 475 100 495 Q127 515 166 526.5 Q205 538 254 538 Q286 538 314 535 Q342 532 362 529 Q386 525 406 521 L406 387 L333 387 L333 447 L319 461 Q305 463 288 465 Q271 467 251 467 Q205 467 180 449 Q155 431 155 401 Q155 388 158.5 377 Q162 366 172 356 Q182 346 201 337.5 Q220 329 251 321 Q298 308 331.5 293.5 Q365 279 386 260 Q407 241 417 217 Q427 193 427 161 Z " />
<glyph glyph-name="Scedilla" unicode="&#x15e;" horiz-adv-x="558" d="M518 209 Q518 153 498.5 112 Q479 71 444 44 Q409 17 361 3.5 Q313 -10 255 -10 Q210 -10 172 -6 Q134 -2 107 3 Q74 9 49 17 L49 194 L128 194 L128 98 L145 81 Q165 77 192.5 74 Q220 71 255 71 Q327 71 361.5 100.5 Q396 130 396 181 Q396 227 366 253.5 Q336 280 260 301 Q157 331 105 379 Q53 427 53 514 Q53 561 71.5 597.5 Q90 634 123.5 659 Q157 684 203.5 697 Q250 710 305 710 Q346 710 380 706 Q414 702 440 697 Q470 692 494 685 L494 516 L415 516 L415 605 L399 621 Q381 624 357.5 627 Q334 630 306 630 Q242 630 206 604 Q170 578 170 533 Q170 515 175 499 Q180 483 195 468 Q210 453 237.5 439.5 Q265 426 310 412 Q359 397 397.5 379.5 Q436 362 463 338 Q490 314 504 282.5 Q518 251 518 209 Z M231 -180 Q200 -180 172.5 -172 Q145 -164 128 -153 L145 -119 Q155 -124 177.5 -131.5 Q200 -139 221 -139 Q238 -139 251 -132.5 Q264 -126 264 -108 Q264 -90 239.5 -79.5 Q215 -69 174 -65 L174 -48 L224 13 L289 12 L249 -39 Q291 -41 318.5 -56 Q346 -71 346 -104 Q346 -125 336 -139.5 Q326 -154 310 -163 Q294 -172 273.5 -176 Q253 -180 231 -180 Z " />
<glyph glyph-name="scedilla" unicode="&#x15f;" horiz-adv-x="462" d="M427 161 Q427 120 411 88 Q395 56 366.5 34.5 Q338 13 298.5 1.5 Q259 -10 213 -10 Q173 -10 141.5 -7 Q110 -4 88 1 Q62 6 42 13 L42 148 L115 148 L115 85 L130 69 Q146 66 166.5 64 Q187 62 213 62 Q261 62 286.5 83 Q312 104 312 136 Q312 152 307.5 164.5 Q303 177 290.5 187 Q278 197 256.5 205 Q235 213 202 222 Q155 234 125 250.5 Q95 267 77 287.5 Q59 308 52 332 Q45 356 45 383 Q45 417 59 446 Q73 475 100 495 Q127 515 166 526.5 Q205 538 254 538 Q286 538 314 535 Q342 532 362 529 Q386 525 406 521 L406 387 L333 387 L333 447 L319 461 Q305 463 288 465 Q271 467 251 467 Q205 467 180 449 Q155 431 155 401 Q155 388 158.5 377 Q162 366 172 356 Q182 346 201 337.5 Q220 329 251 321 Q298 308 331.5 293.5 Q365 279 386 260 Q407 241 417 217 Q427 193 427 161 Z M186 -180 Q155 -180 127.5 -172 Q100 -164 83 -153 L100 -119 Q110 -124 132.5 -131.5 Q155 -139 176 -139 Q193 -139 206 -132.5 Q219 -126 219 -108 Q219 -90 194.5 -79.5 Q170 -69 129 -65 L129 -48 L179 13 L244 12 L204 -39 Q246 -41 273.5 -56 Q301 -71 301 -104 Q301 -125 291 -139.5 Q281 -154 265 -163 Q249 -172 228.5 -176 Q208 -180 186 -180 Z " />
<glyph glyph-name="Scaron" unicode="&#x160;" horiz-adv-x="558" d="M518 209 Q518 153 498.5 112 Q479 71 444 44 Q409 17 361 3.5 Q313 -10 255 -10 Q210 -10 172 -6 Q134 -2 107 3 Q74 9 49 17 L49 194 L128 194 L128 98 L145 81 Q165 77 192.5 74 Q220 71 255 71 Q327 71 361.5 100.5 Q396 130 396 181 Q396 227 366 253.5 Q336 280 260 301 Q157 331 105 379 Q53 427 53 514 Q53 561 71.5 597.5 Q90 634 123.5 659 Q157 684 203.5 697 Q250 710 305 710 Q346 710 380 706 Q414 702 440 697 Q470 692 494 685 L494 516 L415 516 L415 605 L399 621 Q381 624 357.5 627 Q334 630 306 630 Q242 630 206 604 Q170 578 170 533 Q170 515 175 499 Q180 483 195 468 Q210 453 237.5 439.5 Q265 426 310 412 Q359 397 397.5 379.5 Q436 362 463 338 Q490 314 504 282.5 Q518 251 518 209 Z M435 926 L458 898 L329 752 L288 752 L158 898 L181 926 L200 926 L308 841 L416 926 L435 926 Z " />
<glyph glyph-name="scaron" unicode="&#x161;" horiz-adv-x="462" d="M382 754 L405 726 L276 579 L235 579 L106 726 L129 754 L148 754 L255 669 L363 754 L382 754 Z M427 161 Q427 120 411 88 Q395 56 366.5 34.5 Q338 13 298.5 1.5 Q259 -10 213 -10 Q173 -10 141.5 -7 Q110 -4 88 1 Q62 6 42 13 L42 148 L115 148 L115 85 L130 69 Q146 66 166.5 64 Q187 62 213 62 Q261 62 286.5 83 Q312 104 312 136 Q312 152 307.5 164.5 Q303 177 290.5 187 Q278 197 256.5 205 Q235 213 202 222 Q155 234 125 250.5 Q95 267 77 287.5 Q59 308 52 332 Q45 356 45 383 Q45 417 59 446 Q73 475 100 495 Q127 515 166 526.5 Q205 538 254 538 Q286 538 314 535 Q342 532 362 529 Q386 525 406 521 L406 387 L333 387 L333 447 L319 461 Q305 463 288 465 Q271 467 251 467 Q205 467 180 449 Q155 431 155 401 Q155 388 158.5 377 Q162 366 172 356 Q182 346 201 337.5 Q220 329 251 321 Q298 308 331.5 293.5 Q365 279 386 260 Q407 241 417 217 Q427 193 427 161 Z " />
<glyph glyph-name="uni0162" unicode="&#x162;" horiz-adv-x="589" d="M278 -180 Q247 -180 219.5 -172 Q192 -164 175 -153 L192 -119 Q202 -124 224.5 -131.5 Q247 -139 268 -139 Q285 -139 298 -132.5 Q311 -126 311 -108 Q311 -90 286.5 -79.5 Q262 -69 221 -65 L221 -48 L271 13 L336 12 L296 -39 Q338 -41 365.5 -56 Q393 -71 393 -104 Q393 -125 383 -139.5 Q373 -154 357 -163 Q341 -172 320.5 -176 Q300 -180 278 -180 Z M26 700 L563 700 L563 520 L490 520 L490 603 L474 619 L358 619 L358 83 L374 67 L438 67 L438 0 L151 0 L151 67 L215 67 L231 83 L231 619 L115 619 L99 603 L99 520 L26 520 L26 700 Z " />
<glyph glyph-name="uni0163" unicode="&#x163;" horiz-adv-x="346" d="M185 -180 Q154 -180 126.5 -172 Q99 -164 82 -153 L99 -119 Q109 -124 131.5 -131.5 Q154 -139 175 -139 Q192 -139 205 -132.5 Q218 -126 218 -108 Q218 -90 193.5 -79.5 Q169 -69 128 -65 L128 -48 L178 13 L243 12 L203 -39 Q245 -41 272.5 -56 Q300 -71 300 -104 Q300 -125 290 -139.5 Q280 -154 264 -163 Q248 -172 227.5 -176 Q207 -180 185 -180 Z M209 461 L209 80 L225 63 L336 63 L336 0 Q312 -3 287 -5 Q266 -7 242.5 -8.5 Q219 -10 199 -10 Q145 -10 117.5 13 Q90 36 90 95 L90 461 L22 461 L22 526 L74 526 L90 542 L134 670 L209 670 L209 526 L324 526 L324 461 L209 461 Z " />
<glyph glyph-name="Tcaron" unicode="&#x164;" horiz-adv-x="589" d="M26 700 L563 700 L563 520 L490 520 L490 603 L474 619 L358 619 L358 83 L374 67 L438 67 L438 0 L151 0 L151 67 L215 67 L231 83 L231 619 L115 619 L99 603 L99 520 L26 520 L26 700 Z M422 927 L445 899 L316 753 L275 753 L145 899 L168 927 L187 927 L295 842 L403 927 L422 927 Z " />
<glyph glyph-name="tcaron" unicode="&#x165;" horiz-adv-x="346" d="M285 582 L285 780 L368 780 L368 708 L354 582 L285 582 Z M209 461 L209 80 L225 63 L336 63 L336 0 Q312 -3 287 -5 Q266 -7 242.5 -8.5 Q219 -10 199 -10 Q145 -10 117.5 13 Q90 36 90 95 L90 461 L22 461 L22 526 L74 526 L90 542 L134 670 L209 670 L209 526 L324 526 L324 461 L209 461 Z " />
<glyph glyph-name="Tbar" unicode="&#x166;" horiz-adv-x="591" d="M27 700 L564 700 L564 520 L491 520 L491 603 L475 619 L359 619 L359 385 L467 385 L467 326 L359 326 L359 83 L375 67 L439 67 L439 0 L152 0 L152 67 L216 67 L232 83 L232 326 L124 326 L124 385 L232 385 L232 619 L116 619 L100 603 L100 520 L27 520 L27 700 Z " />
<glyph glyph-name="tbar" unicode="&#x167;" horiz-adv-x="347" d="M209 461 L209 328 L318 328 L318 269 L209 269 L209 80 L225 63 L336 63 L336 0 Q312 -3 287 -5 Q266 -7 242.5 -8.5 Q219 -10 199 -10 Q145 -10 117.5 13 Q90 36 90 95 L90 269 L30 269 L30 328 L90 328 L90 461 L22 461 L22 526 L74 526 L90 542 L134 670 L209 670 L209 526 L324 526 L324 461 L209 461 Z " />
<glyph glyph-name="Utilde" unicode="&#x168;" horiz-adv-x="690" d="M490 617 L474 633 L418 633 L418 700 L662 700 L662 633 L606 633 L590 617 L590 233 Q590 171 573 125 Q556 79 524.5 49 Q493 19 448.5 4.5 Q404 -10 348 -10 Q291 -10 245.5 4.5 Q200 19 167.5 49 Q135 79 117.5 125 Q100 171 100 233 L100 617 L84 633 L28 633 L28 700 L301 700 L301 633 L244 633 L229 617 L229 232 Q229 152 259.5 112.5 Q290 73 357 73 Q431 73 460.5 112.5 Q490 152 490 232 L490 617 Z M521 896 L521 854 Q521 809 499 787.5 Q477 766 439 766 Q417 766 397 773 Q377 780 358 788 Q339 796 321.5 803 Q304 810 288 810 Q270 810 262.5 803.5 Q255 797 255 792 L255 756 L203 756 L203 794 Q203 847 225 868 Q247 889 284 889 Q305 889 324.5 881.5 Q344 874 363 865 Q382 856 400.5 848.5 Q419 841 438 841 Q458 841 464.5 849.5 Q471 858 471 863 L471 896 L521 896 Z " />
<glyph glyph-name="utilde" unicode="&#x169;" horiz-adv-x="597" d="M463 528 Q490 528 498.5 515.5 Q507 503 507 486 L507 80 L523 63 L579 63 L579 0 L439 0 Q411 0 403 12.5 Q395 25 395 42 L395 65 L393 65 Q383 54 368.5 41 Q354 28 335 17 Q316 6 292 -2 Q268 -10 240 -10 Q195 -10 165.5 2.5 Q136 15 118.5 37 Q101 59 94 88 Q87 117 87 150 L87 444 L71 461 L15 461 L15 528 L162 528 Q189 528 197.5 513.5 Q206 499 206 481 L206 168 Q206 153 208.5 137 Q211 121 219 108.5 Q227 96 243 88 Q259 80 285 80 Q314 80 339.5 92 Q365 104 388 126 L388 444 L372 461 L316 461 L316 528 L463 528 Z M434 723 L434 682 Q434 637 412 615 Q390 593 352 593 Q330 593 310 600 Q290 607 271 615.5 Q252 624 234.5 631 Q217 638 201 638 Q183 638 175.5 631 Q168 624 168 619 L168 583 L116 583 L116 621 Q116 674 138 695.5 Q160 717 197 717 Q218 717 237.5 709.5 Q257 702 276 692.5 Q295 683 313.5 675.5 Q332 668 351 668 Q371 668 377.5 677 Q384 686 384 691 L384 723 L434 723 Z " />
<glyph glyph-name="Umacron" unicode="&#x16a;" horiz-adv-x="690" d="M490 617 L474 633 L418 633 L418 700 L662 700 L662 633 L606 633 L590 617 L590 233 Q590 171 573 125 Q556 79 524.5 49 Q493 19 448.5 4.5 Q404 -10 348 -10 Q291 -10 245.5 4.5 Q200 19 167.5 49 Q135 79 117.5 125 Q100 171 100 233 L100 617 L84 633 L28 633 L28 700 L301 700 L301 633 L244 633 L229 617 L229 232 Q229 152 259.5 112.5 Q290 73 357 73 Q431 73 460.5 112.5 Q490 152 490 232 L490 617 Z M232 865 L492 865 L492 795 L232 795 L232 865 Z " />
<glyph glyph-name="umacron" unicode="&#x16b;" horiz-adv-x="597" d="M463 528 Q490 528 498.5 515.5 Q507 503 507 486 L507 80 L523 63 L579 63 L579 0 L439 0 Q411 0 403 12.5 Q395 25 395 42 L395 65 L393 65 Q383 54 368.5 41 Q354 28 335 17 Q316 6 292 -2 Q268 -10 240 -10 Q195 -10 165.5 2.5 Q136 15 118.5 37 Q101 59 94 88 Q87 117 87 150 L87 444 L71 461 L15 461 L15 528 L162 528 Q189 528 197.5 513.5 Q206 499 206 481 L206 168 Q206 153 208.5 137 Q211 121 219 108.5 Q227 96 243 88 Q259 80 285 80 Q314 80 339.5 92 Q365 104 388 126 L388 444 L372 461 L316 461 L316 528 L463 528 Z M145 692 L404 692 L404 622 L145 622 L145 692 Z " />
<glyph glyph-name="Ubreve" unicode="&#x16c;" horiz-adv-x="690" d="M490 617 L474 633 L418 633 L418 700 L662 700 L662 633 L606 633 L590 617 L590 233 Q590 171 573 125 Q556 79 524.5 49 Q493 19 448.5 4.5 Q404 -10 348 -10 Q291 -10 245.5 4.5 Q200 19 167.5 49 Q135 79 117.5 125 Q100 171 100 233 L100 617 L84 633 L28 633 L28 700 L301 700 L301 633 L244 633 L229 617 L229 232 Q229 152 259.5 112.5 Q290 73 357 73 Q431 73 460.5 112.5 Q490 152 490 232 L490 617 Z M490 878 Q486 856 476 835.5 Q466 815 450.5 799.5 Q435 784 413 774.5 Q391 765 363 765 Q335 765 313 774.5 Q291 784 275.5 799.5 Q260 815 250 835.5 Q240 856 236 878 L292 894 Q299 869 316 850 Q333 831 364 831 Q396 831 414.5 849.5 Q433 868 439 891 L490 878 Z " />
<glyph glyph-name="ubreve" unicode="&#x16d;" horiz-adv-x="597" d="M463 528 Q490 528 498.5 515.5 Q507 503 507 486 L507 80 L523 63 L579 63 L579 0 L439 0 Q411 0 403 12.5 Q395 25 395 42 L395 65 L393 65 Q383 54 368.5 41 Q354 28 335 17 Q316 6 292 -2 Q268 -10 240 -10 Q195 -10 165.5 2.5 Q136 15 118.5 37 Q101 59 94 88 Q87 117 87 150 L87 444 L71 461 L15 461 L15 528 L162 528 Q189 528 197.5 513.5 Q206 499 206 481 L206 168 Q206 153 208.5 137 Q211 121 219 108.5 Q227 96 243 88 Q259 80 285 80 Q314 80 339.5 92 Q365 104 388 126 L388 444 L372 461 L316 461 L316 528 L463 528 Z M402 706 Q398 684 388 663.5 Q378 643 362.5 627 Q347 611 325 601.5 Q303 592 275 592 Q247 592 225 601.5 Q203 611 187.5 627 Q172 643 162 663.5 Q152 684 148 706 L205 721 Q211 697 228 677.5 Q245 658 276 658 Q308 658 326.5 676.5 Q345 695 352 718 L402 706 Z " />
<glyph glyph-name="Uring" unicode="&#x16e;" horiz-adv-x="690" d="M480 828 Q480 784 445.5 763.5 Q411 743 361 743 Q311 743 277 763.5 Q243 784 243 828 Q243 872 277 893 Q311 914 361 914 Q411 914 445.5 893 Q480 872 480 828 Z M414 828 Q414 877 361 877 Q309 877 309 828 Q309 780 361 780 Q414 780 414 828 Z M490 617 L474 633 L418 633 L418 700 L662 700 L662 633 L606 633 L590 617 L590 233 Q590 171 573 125 Q556 79 524.5 49 Q493 19 448.5 4.5 Q404 -10 348 -10 Q291 -10 245.5 4.5 Q200 19 167.5 49 Q135 79 117.5 125 Q100 171 100 233 L100 617 L84 633 L28 633 L28 700 L301 700 L301 633 L244 633 L229 617 L229 232 Q229 152 259.5 112.5 Q290 73 357 73 Q431 73 460.5 112.5 Q490 152 490 232 L490 617 Z " />
<glyph glyph-name="uring" unicode="&#x16f;" horiz-adv-x="597" d="M393 656 Q393 612 359 591 Q325 570 274 570 Q224 570 190 591 Q156 612 156 656 Q156 700 190 721 Q224 742 274 742 Q324 742 358.5 721 Q393 700 393 656 Z M327 656 Q327 705 274 705 Q222 705 222 656 Q222 607 274 607 Q327 607 327 656 Z M463 528 Q490 528 498.5 515.5 Q507 503 507 486 L507 80 L523 63 L579 63 L579 0 L439 0 Q411 0 403 12.5 Q395 25 395 42 L395 65 L393 65 Q383 54 368.5 41 Q354 28 335 17 Q316 6 292 -2 Q268 -10 240 -10 Q195 -10 165.5 2.5 Q136 15 118.5 37 Q101 59 94 88 Q87 117 87 150 L87 444 L71 461 L15 461 L15 528 L162 528 Q189 528 197.5 513.5 Q206 499 206 481 L206 168 Q206 153 208.5 137 Q211 121 219 108.5 Q227 96 243 88 Q259 80 285 80 Q314 80 339.5 92 Q365 104 388 126 L388 444 L372 461 L316 461 L316 528 L463 528 Z " />
<glyph glyph-name="Uhungarumlaut" unicode="&#x170;" horiz-adv-x="690" d="M288 752 L260 783 L373 924 L394 924 L438 878 L305 752 L288 752 Z M413 752 L392 781 L513 905 L535 905 L582 852 L430 752 L413 752 Z M490 617 L474 633 L418 633 L418 700 L662 700 L662 633 L606 633 L590 617 L590 233 Q590 171 573 125 Q556 79 524.5 49 Q493 19 448.5 4.5 Q404 -10 348 -10 Q291 -10 245.5 4.5 Q200 19 167.5 49 Q135 79 117.5 125 Q100 171 100 233 L100 617 L84 633 L28 633 L28 700 L301 700 L301 633 L244 633 L229 617 L229 232 Q229 152 259.5 112.5 Q290 73 357 73 Q431 73 460.5 112.5 Q490 152 490 232 L490 617 Z " />
<glyph glyph-name="uhungarumlaut" unicode="&#x171;" horiz-adv-x="597" d="M463 528 Q490 528 498.5 515.5 Q507 503 507 486 L507 80 L523 63 L579 63 L579 0 L439 0 Q411 0 403 12.5 Q395 25 395 42 L395 65 L393 65 Q383 54 368.5 41 Q354 28 335 17 Q316 6 292 -2 Q268 -10 240 -10 Q195 -10 165.5 2.5 Q136 15 118.5 37 Q101 59 94 88 Q87 117 87 150 L87 444 L71 461 L15 461 L15 528 L162 528 Q189 528 197.5 513.5 Q206 499 206 481 L206 168 Q206 153 208.5 137 Q211 121 219 108.5 Q227 96 243 88 Q259 80 285 80 Q314 80 339.5 92 Q365 104 388 126 L388 444 L372 461 L316 461 L316 528 L463 528 Z M201 579 L173 611 L285 751 L307 751 L351 705 L217 579 L201 579 Z M326 579 L305 609 L426 732 L448 732 L495 680 L343 579 L326 579 Z " />
<glyph glyph-name="Uogonek" unicode="&#x172;" horiz-adv-x="690" d="M361 -180 Q307 -180 275.5 -160.5 Q244 -141 244 -97 Q244 -68 261.5 -46 Q279 -24 307 -8 Q211 3 155.5 61.5 Q100 120 100 233 L100 617 L84 633 L28 633 L28 700 L301 700 L301 633 L244 633 L229 617 L229 232 Q229 152 259.5 112.5 Q290 73 357 73 Q431 73 460.5 112.5 Q490 152 490 232 L490 617 L474 633 L418 633 L418 700 L662 700 L662 633 L606 633 L590 617 L590 233 Q590 134 549.5 77.5 Q509 21 436 1 Q388 -12 357 -31 Q326 -50 326 -82 Q326 -113 343 -124.5 Q360 -136 386 -136 Q405 -136 424 -129 Q443 -122 451 -116 L469 -151 Q452 -163 422.5 -171.5 Q393 -180 361 -180 Z " />
<glyph glyph-name="uogonek" unicode="&#x173;" horiz-adv-x="596" d="M462 528 Q489 528 497.5 515.5 Q506 503 506 486 L506 80 L522 63 L578 63 L578 0 L541 0 Q493 -9 463.5 -29.5 Q434 -50 434 -82 Q434 -113 451 -124.5 Q468 -136 494 -136 Q513 -136 532 -129 Q551 -122 559 -116 L578 -151 Q561 -163 531.5 -171.5 Q502 -180 470 -180 Q416 -180 384 -160.5 Q352 -141 352 -97 Q352 -63 373.5 -39.5 Q395 -16 429 0 Q407 2 400.5 14.5 Q394 27 394 42 L394 65 L392 65 Q382 54 367.5 41 Q353 28 334 17 Q315 6 291 -2 Q267 -10 239 -10 Q194 -10 164.5 2.5 Q135 15 117.5 37 Q100 59 93 88 Q86 117 86 150 L86 444 L70 461 L14 461 L14 528 L161 528 Q188 528 196.5 513.5 Q205 499 205 481 L205 168 Q205 153 207.5 137 Q210 121 218 108.5 Q226 96 242 88 Q258 80 284 80 Q313 80 338.5 92 Q364 104 387 126 L387 444 L371 461 L315 461 L315 528 L462 528 Z " />
<glyph glyph-name="Wcircumflex" unicode="&#x174;" horiz-adv-x="962" d="M378 752 L355 780 L484 926 L525 926 L654 780 L631 752 L611 752 L505 837 L397 752 L378 752 Z M963 633 L913 633 L898 617 L720 -2 L615 -2 L484 469 L351 -2 L245 -2 L60 620 L48 633 L-2 633 L-2 700 L258 700 L258 633 L208 633 L193 617 L315 163 L458 700 L539 700 L683 166 L802 617 L789 633 L732 633 L732 700 L963 700 L963 633 Z " />
<glyph glyph-name="wcircumflex" unicode="&#x175;" horiz-adv-x="813" d="M303 579 L282 606 L408 751 L447 751 L573 606 L552 579 L533 579 L427 667 L321 579 L303 579 Z M460 528 L571 153 L660 444 L646 461 L596 461 L596 528 L805 528 L805 461 L759 461 L744 446 L599 -2 L511 -2 L409 324 L309 -2 L220 -2 L64 446 L51 461 L2 461 L2 528 L245 528 L245 461 L198 461 L184 444 L278 148 L390 528 L460 528 Z " />
<glyph glyph-name="Ycircumflex" unicode="&#x176;" horiz-adv-x="627" d="M255 271 L55 618 L40 633 L-5 633 L-5 700 L259 700 L259 633 L207 633 L195 619 L334 372 L466 618 L454 633 L397 633 L397 700 L623 700 L623 633 L579 633 L563 617 L382 293 L382 83 L398 67 L454 67 L454 0 L183 0 L183 67 L239 67 L255 83 L255 271 Z M199 752 L176 780 L305 926 L346 926 L475 780 L452 752 L432 752 L326 837 L218 752 L199 752 Z " />
<glyph glyph-name="ycircumflex" unicode="&#x177;" horiz-adv-x="567" d="M516 461 L500 444 L302 -90 L317 -107 L369 -107 L369 -170 L129 -170 L129 -107 L202 -107 L218 -90 L246 -14 L66 445 L51 461 L3 461 L3 528 L252 528 L252 461 L206 461 L191 444 L301 141 L411 444 L396 461 L347 461 L347 528 L561 528 L561 461 L516 461 Z M175 579 L154 606 L280 751 L319 751 L445 606 L424 579 L405 579 L299 667 L193 579 L175 579 Z " />
<glyph glyph-name="Ydieresis" unicode="&#x178;" horiz-adv-x="627" d="M255 271 L55 618 L40 633 L-5 633 L-5 700 L259 700 L259 633 L207 633 L195 619 L334 372 L466 618 L454 633 L397 633 L397 700 L623 700 L623 633 L579 633 L563 617 L382 293 L382 83 L398 67 L454 67 L454 0 L183 0 L183 67 L239 67 L255 83 L255 271 Z M196 835 Q196 857 211.5 873 Q227 889 251 889 Q275 889 289.5 873 Q304 857 304 835 Q304 812 289.5 797 Q275 782 251 782 Q227 782 211.5 797 Q196 812 196 835 Z M345 835 Q345 857 360.5 873 Q376 889 400 889 Q424 889 439 873 Q454 857 454 835 Q454 812 439 797 Q424 782 400 782 Q376 782 360.5 797 Q345 812 345 835 Z " />
<glyph glyph-name="Zacute" unicode="&#x179;" horiz-adv-x="599" d="M560 0 L37 0 L37 67 L397 620 L144 620 L129 606 L129 521 L50 521 L50 700 L543 700 L543 633 L186 81 L466 81 L481 95 L481 180 L560 180 L560 0 Z M285 752 L252 788 L374 924 L395 924 L451 856 L301 752 L285 752 Z " />
<glyph glyph-name="zacute" unicode="&#x17a;" horiz-adv-x="514" d="M254 579 L221 615 L343 751 L365 751 L420 684 L271 579 L254 579 Z M325 459 L135 459 L120 444 L120 370 L42 370 L42 528 L467 528 L467 470 L179 69 L387 69 L401 84 L401 158 L479 158 L479 0 L33 0 L33 54 L325 459 Z " />
<glyph glyph-name="Zdotaccent" unicode="&#x17b;" horiz-adv-x="599" d="M229 833 Q229 860 250 880 Q271 900 300 900 Q329 900 350 880 Q371 860 371 833 Q371 806 350 786 Q329 766 300 766 Q271 766 250 786 Q229 806 229 833 Z M560 0 L37 0 L37 67 L397 620 L144 620 L129 606 L129 521 L50 521 L50 700 L543 700 L543 633 L186 81 L466 81 L481 95 L481 180 L560 180 L560 0 Z " />
<glyph glyph-name="zdotaccent" unicode="&#x17c;" horiz-adv-x="514" d="M325 459 L135 459 L120 444 L120 370 L42 370 L42 528 L467 528 L467 470 L179 69 L387 69 L401 84 L401 158 L479 158 L479 0 L33 0 L33 54 L325 459 Z M188 661 Q188 687 209 707.5 Q230 728 259 728 Q273 728 286 722.5 Q299 717 308.5 707.5 Q318 698 324 686 Q330 674 330 661 Q330 634 309 614 Q288 594 259 594 Q230 594 209 614 Q188 634 188 661 Z " />
<glyph glyph-name="Zcaron" unicode="&#x17d;" horiz-adv-x="599" d="M560 0 L37 0 L37 67 L397 620 L144 620 L129 606 L129 521 L50 521 L50 700 L543 700 L543 633 L186 81 L466 81 L481 95 L481 180 L560 180 L560 0 Z M427 926 L450 898 L321 752 L280 752 L150 898 L173 926 L192 926 L300 841 L408 926 L427 926 Z " />
<glyph glyph-name="zcaron" unicode="&#x17e;" horiz-adv-x="514" d="M388 754 L411 726 L282 579 L241 579 L112 726 L135 754 L154 754 L261 669 L369 754 L388 754 Z M325 459 L135 459 L120 444 L120 370 L42 370 L42 528 L467 528 L467 470 L179 69 L387 69 L401 84 L401 158 L479 158 L479 0 L33 0 L33 54 L325 459 Z " />
<glyph glyph-name="longs" unicode="&#x17f;" horiz-adv-x="345" d="M381 620 L309 620 L309 665 L296 678 Q292 679 288 679 L282 679 Q245 679 232.5 648.5 Q220 618 220 567 L220 80 L235 63 L306 63 L306 0 L28 0 L28 63 L85 63 L101 80 L101 461 L28 461 L28 526 L85 526 L101 542 L101 560 Q101 599 110 632 Q119 665 140 689 Q161 713 195 726.5 Q229 740 279 740 Q323 740 349.5 735.5 Q376 731 381 729 L381 620 Z " />
<glyph glyph-name="florin" unicode="&#x192;" horiz-adv-x="500" d="M72 440 L180 440 L193 561 Q197 600 208.5 632.5 Q220 665 242.5 689 Q265 713 300.5 726.5 Q336 740 389 740 Q434 740 459.5 735.5 Q485 731 490 729 L478 624 L408 624 L413 665 L400 678 Q397 679 393 679 L387 679 Q355 679 337 655 Q319 631 313 569 L299 440 L416 440 L416 380 L293 380 L253 -1 Q249 -40 237.5 -72.5 Q226 -105 203.5 -129 Q181 -153 145 -166.5 Q109 -180 57 -180 Q11 -180 -14 -175.5 Q-39 -171 -44 -169 L-32 -64 L38 -64 L33 -104 L46 -117 Q54 -119 58 -119 Q89 -119 107.5 -95 Q126 -71 133 -9 L174 380 L72 380 L72 440 Z " />
<glyph glyph-name="uni0218" unicode="&#x218;" horiz-adv-x="558" d="M205 -258 L236 -202 L228 -185 Q199 -171 199 -135 Q199 -74 260 -74 Q290 -74 306 -89.5 Q322 -105 322 -132 Q322 -143 317.5 -153.5 Q313 -164 308 -175 L250 -281 L205 -258 Z M518 209 Q518 153 498.5 112 Q479 71 444 44 Q409 17 361 3.5 Q313 -10 255 -10 Q210 -10 172 -6 Q134 -2 107 3 Q74 9 49 17 L49 194 L128 194 L128 98 L145 81 Q165 77 192.5 74 Q220 71 255 71 Q327 71 361.5 100.5 Q396 130 396 181 Q396 227 366 253.5 Q336 280 260 301 Q157 331 105 379 Q53 427 53 514 Q53 561 71.5 597.5 Q90 634 123.5 659 Q157 684 203.5 697 Q250 710 305 710 Q346 710 380 706 Q414 702 440 697 Q470 692 494 685 L494 516 L415 516 L415 605 L399 621 Q381 624 357.5 627 Q334 630 306 630 Q242 630 206 604 Q170 578 170 533 Q170 515 175 499 Q180 483 195 468 Q210 453 237.5 439.5 Q265 426 310 412 Q359 397 397.5 379.5 Q436 362 463 338 Q490 314 504 282.5 Q518 251 518 209 Z " />
<glyph glyph-name="uni0219" unicode="&#x219;" horiz-adv-x="462" d="M160 -258 L191 -202 L183 -185 Q154 -171 154 -135 Q154 -74 215 -74 Q245 -74 261 -89.5 Q277 -105 277 -132 Q277 -143 272.5 -153.5 Q268 -164 263 -175 L205 -281 L160 -258 Z M427 161 Q427 120 411 88 Q395 56 366.5 34.5 Q338 13 298.5 1.5 Q259 -10 213 -10 Q173 -10 141.5 -7 Q110 -4 88 1 Q62 6 42 13 L42 148 L115 148 L115 85 L130 69 Q146 66 166.5 64 Q187 62 213 62 Q261 62 286.5 83 Q312 104 312 136 Q312 152 307.5 164.5 Q303 177 290.5 187 Q278 197 256.5 205 Q235 213 202 222 Q155 234 125 250.5 Q95 267 77 287.5 Q59 308 52 332 Q45 356 45 383 Q45 417 59 446 Q73 475 100 495 Q127 515 166 526.5 Q205 538 254 538 Q286 538 314 535 Q342 532 362 529 Q386 525 406 521 L406 387 L333 387 L333 447 L319 461 Q305 463 288 465 Q271 467 251 467 Q205 467 180 449 Q155 431 155 401 Q155 388 158.5 377 Q162 366 172 356 Q182 346 201 337.5 Q220 329 251 321 Q298 308 331.5 293.5 Q365 279 386 260 Q407 241 417 217 Q427 193 427 161 Z " />
<glyph glyph-name="uni021A" unicode="&#x21a;" horiz-adv-x="589" d="M244 -258 L275 -202 L267 -185 Q238 -171 238 -135 Q238 -74 299 -74 Q329 -74 345 -89.5 Q361 -105 361 -132 Q361 -143 356.5 -153.5 Q352 -164 347 -175 L289 -281 L244 -258 Z M26 700 L563 700 L563 520 L490 520 L490 603 L474 619 L358 619 L358 83 L374 67 L438 67 L438 0 L151 0 L151 67 L215 67 L231 83 L231 619 L115 619 L99 603 L99 520 L26 520 L26 700 Z " />
<glyph glyph-name="uni021B" unicode="&#x21b;" horiz-adv-x="346" d="M158 -258 L189 -202 L181 -185 Q152 -171 152 -135 Q152 -74 213 -74 Q243 -74 259 -89.5 Q275 -105 275 -132 Q275 -143 270.5 -153.5 Q266 -164 261 -175 L203 -281 L158 -258 Z M209 461 L209 80 L225 63 L336 63 L336 0 Q312 -3 287 -5 Q266 -7 242.5 -8.5 Q219 -10 199 -10 Q145 -10 117.5 13 Q90 36 90 95 L90 461 L22 461 L22 526 L74 526 L90 542 L134 670 L209 670 L209 526 L324 526 L324 461 L209 461 Z " />
<glyph glyph-name="uni0237" unicode="&#x237;" horiz-adv-x="286" d="M-56 -59 L16 -59 L16 -107 L28 -120 L34 -120 Q51 -120 62.5 -110 Q74 -100 80.5 -83.5 Q87 -67 90 -46 Q93 -25 93 -2 L93 444 L77 461 L21 461 L21 528 L169 528 Q196 528 204 515.5 Q212 503 212 486 L212 5 Q212 -33 203 -66.5 Q194 -100 173 -125.5 Q152 -151 118.5 -165.5 Q85 -180 36 -180 Q-7 -180 -30.5 -175.5 Q-54 -171 -56 -171 L-56 -59 Z " />
<glyph glyph-name="circumflex" unicode="&#x2c6;" horiz-adv-x="400" d="M74 579 L53 606 L179 751 L218 751 L344 606 L323 579 L304 579 L198 667 L92 579 L74 579 Z " />
<glyph glyph-name="caron" unicode="&#x2c7;" horiz-adv-x="405" d="M327 754 L350 726 L221 579 L180 579 L51 726 L74 754 L93 754 L200 669 L308 754 L327 754 Z " />
<glyph glyph-name="uni02C9" unicode="&#x2c9;" horiz-adv-x="395" d="M68 697 L327 697 L327 627 L68 627 L68 697 Z " />
<glyph glyph-name="breve" unicode="&#x2d8;" horiz-adv-x="400" d="M327 706 Q323 684 313 663.5 Q303 643 287.5 627 Q272 611 250 601.5 Q228 592 200 592 Q172 592 150 601.5 Q128 611 112.5 627 Q97 643 87 663.5 Q77 684 73 706 L130 721 Q136 697 153 677.5 Q170 658 201 658 Q233 658 251.5 676.5 Q270 695 277 718 L327 706 Z " />
<glyph glyph-name="dotaccent" unicode="&#x2d9;" horiz-adv-x="329" d="M92 661 Q92 687 113 707.5 Q134 728 163 728 Q177 728 190 722.5 Q203 717 212.5 707.5 Q222 698 228 686 Q234 674 234 661 Q234 634 213 614 Q192 594 163 594 Q134 594 113 614 Q92 634 92 661 Z " />
<glyph glyph-name="ring" unicode="&#x2da;" horiz-adv-x="399" d="M318 656 Q318 612 284 591 Q250 570 199 570 Q149 570 115 591 Q81 612 81 656 Q81 700 115 721 Q149 742 199 742 Q249 742 283.5 721 Q318 700 318 656 Z M252 656 Q252 705 199 705 Q147 705 147 656 Q147 607 199 607 Q252 607 252 656 Z " />
<glyph glyph-name="ogonek" unicode="&#x2db;" horiz-adv-x="400" d="M287 4 Q259 1 234 -6.5 Q209 -14 190.5 -24.5 Q172 -35 161.5 -49.5 Q151 -64 151 -82 Q151 -113 168 -124.5 Q185 -136 212 -136 Q230 -136 249.5 -129 Q269 -122 277 -116 L295 -151 Q278 -163 248.5 -171.5 Q219 -180 187 -180 Q133 -180 101.5 -160.5 Q70 -141 70 -97 Q70 -64 90 -40.5 Q110 -17 141.5 -1 Q173 15 211.5 23.5 Q250 32 286 34 L287 4 Z " />
<glyph glyph-name="tilde" unicode="&#x2dc;" horiz-adv-x="400" d="M359 723 L359 682 Q359 637 337 615 Q315 593 277 593 Q255 593 235 600 Q215 607 196 615.5 Q177 624 159.5 631 Q142 638 126 638 Q108 638 100.5 631 Q93 624 93 619 L93 583 L41 583 L41 621 Q41 674 63 695.5 Q85 717 122 717 Q143 717 162.5 709.5 Q182 702 201 692.5 Q220 683 238.5 675.5 Q257 668 276 668 Q296 668 302.5 677 Q309 686 309 691 L309 723 L359 723 Z " />
<glyph glyph-name="hungarumlaut" unicode="&#x2dd;" horiz-adv-x="400" d="M68 579 L40 611 L152 751 L174 751 L218 705 L84 579 L68 579 Z M193 579 L172 609 L293 732 L315 732 L362 680 L210 579 L193 579 Z " />
<glyph glyph-name="uni0394" unicode="&#x394;" horiz-adv-x="638" d="M17 58 L263 702 L375 702 L628 56 L628 0 L17 0 L17 58 Z M110 73 L487 73 L292 586 L110 73 Z " />
<glyph glyph-name="uni03A9" unicode="&#x3a9;" horiz-adv-x="737" d="M408 136 Q457 166 487.5 194 Q518 222 534 253 Q550 284 555.5 321 Q561 358 561 406 Q561 523 511 575 Q461 627 368 627 Q276 627 226 575 Q176 523 176 406 Q176 358 181 321 Q186 284 202.5 253 Q219 222 249 194 Q279 166 329 136 L329 0 L40 0 L40 155 L109 155 L109 86 L123 72 L254 72 L254 97 Q196 125 157 157.5 Q118 190 94 227.5 Q70 265 60 309.5 Q50 354 50 406 Q50 487 74.5 544.5 Q99 602 141.5 638.5 Q184 675 242 692.5 Q300 710 368 710 Q436 710 494.5 692.5 Q553 675 595.5 638.5 Q638 602 662.5 544.5 Q687 487 687 406 Q687 354 677 309.5 Q667 265 643 227.5 Q619 190 580 157.5 Q541 125 483 97 L483 72 L613 72 L627 86 L627 155 L697 155 L697 0 L408 0 L408 136 Z " />
<glyph glyph-name="uni03BC" unicode="&#x3bc;" horiz-adv-x="597" d="M98 -186 L71 -175 L71 522 L170 534 L193 517 L189 273 L189 187 Q189 126 215 102 Q241 78 282 78 Q305 78 331 87.5 Q357 97 376 123 L376 522 L472 534 L498 516 L493 273 L493 132 Q493 102 501 89 Q509 76 526 76 Q537 76 553 77 Q569 78 586 83 L586 22 Q560 8 531 0 Q502 -8 482 -8 Q434 -8 413.5 11 Q393 30 385 64 L380 64 Q365 29 337.5 9 Q310 -11 274 -11 Q240 -11 213.5 2.5 Q187 16 171 51 L186 -89 L186 -167 L98 -186 Z " />
<glyph glyph-name="Wgrave" unicode="&#x1e80;" horiz-adv-x="962" d="M511 752 L494 752 L344 856 L399 924 L422 924 L543 788 L511 752 Z M963 633 L913 633 L898 617 L720 -2 L615 -2 L484 469 L351 -2 L245 -2 L60 620 L48 633 L-2 633 L-2 700 L258 700 L258 633 L208 633 L193 617 L315 163 L458 700 L539 700 L683 166 L802 617 L789 633 L732 633 L732 700 L963 700 L963 633 Z " />
<glyph glyph-name="wgrave" unicode="&#x1e81;" horiz-adv-x="813" d="M460 528 L571 153 L660 444 L646 461 L596 461 L596 528 L805 528 L805 461 L759 461 L744 446 L599 -2 L511 -2 L409 324 L309 -2 L220 -2 L64 446 L51 461 L2 461 L2 528 L245 528 L245 461 L198 461 L184 444 L278 148 L390 528 L460 528 Z M443 579 L427 579 L277 684 L332 751 L354 751 L476 615 L443 579 Z " />
<glyph glyph-name="Wacute" unicode="&#x1e82;" horiz-adv-x="962" d="M490 752 L457 788 L579 924 L600 924 L656 856 L506 752 L490 752 Z M963 633 L913 633 L898 617 L720 -2 L615 -2 L484 469 L351 -2 L245 -2 L60 620 L48 633 L-2 633 L-2 700 L258 700 L258 633 L208 633 L193 617 L315 163 L458 700 L539 700 L683 166 L802 617 L789 633 L732 633 L732 700 L963 700 L963 633 Z " />
<glyph glyph-name="wacute" unicode="&#x1e83;" horiz-adv-x="813" d="M421 579 L388 615 L510 751 L532 751 L587 684 L438 579 L421 579 Z M460 528 L571 153 L660 444 L646 461 L596 461 L596 528 L805 528 L805 461 L759 461 L744 446 L599 -2 L511 -2 L409 324 L309 -2 L220 -2 L64 446 L51 461 L2 461 L2 528 L245 528 L245 461 L198 461 L184 444 L278 148 L390 528 L460 528 Z " />
<glyph glyph-name="Wdieresis" unicode="&#x1e84;" horiz-adv-x="962" d="M963 633 L913 633 L898 617 L720 -2 L615 -2 L484 469 L351 -2 L245 -2 L60 620 L48 633 L-2 633 L-2 700 L258 700 L258 633 L208 633 L193 617 L315 163 L458 700 L539 700 L683 166 L802 617 L789 633 L732 633 L732 700 L963 700 L963 633 Z M375 835 Q375 857 390.5 873 Q406 889 430 889 Q454 889 468.5 873 Q483 857 483 835 Q483 812 468.5 797 Q454 782 430 782 Q406 782 390.5 797 Q375 812 375 835 Z M524 835 Q524 857 539.5 873 Q555 889 579 889 Q603 889 618 873 Q633 857 633 835 Q633 812 618 797 Q603 782 579 782 Q555 782 539.5 797 Q524 812 524 835 Z " />
<glyph glyph-name="wdieresis" unicode="&#x1e85;" horiz-adv-x="813" d="M299 663 Q299 685 314 701 Q329 717 353 717 Q377 717 392 701 Q407 685 407 663 Q407 640 392 624.5 Q377 609 353 609 Q329 609 314 624.5 Q299 640 299 663 Z M448 663 Q448 685 463.5 701 Q479 717 502 717 Q526 717 541.5 701 Q557 685 557 663 Q557 640 541.5 624.5 Q526 609 502 609 Q479 609 463.5 624.5 Q448 640 448 663 Z M460 528 L571 153 L660 444 L646 461 L596 461 L596 528 L805 528 L805 461 L759 461 L744 446 L599 -2 L511 -2 L409 324 L309 -2 L220 -2 L64 446 L51 461 L2 461 L2 528 L245 528 L245 461 L198 461 L184 444 L278 148 L390 528 L460 528 Z " />
<glyph glyph-name="endash" unicode="&#x2013;" horiz-adv-x="558" d="M60 364 L498 364 L498 281 L60 281 L60 364 Z " />
<glyph glyph-name="emdash" unicode="&#x2014;" horiz-adv-x="847" d="M60 364 L787 364 L787 281 L60 281 L60 364 Z " />
<glyph glyph-name="quoteleft" unicode="&#x2018;" horiz-adv-x="238" d="M187.003 535.003 Q187.003 504.005 169.504 486.006 Q152.005 468.008 117.007 468.008 Q82.0095 468.008 64.0106 486.006 Q46.0117 504.005 46.0117 535.003 Q46.0117 548.003 51.0114 559.502 Q56.011 571.001 61.0107 582.001 L133.006 715.992 L184.003 687.994 L145.006 614.999 L153.005 595 Q187.003 579.001 187.003 535.003 Z " />
<glyph glyph-name="quoteright" unicode="&#x2019;" horiz-adv-x="236" d="M51 643 Q51 674 68.5 692 Q86 710 121 710 Q156 710 174 692 Q192 674 192 643 Q192 630 187 618.5 Q182 607 177 596 L105 462 L54 490 L93 563 L85 583 Q51 599 51 643 Z " />
<glyph glyph-name="quotesinglbase" unicode="&#x201a;" horiz-adv-x="241" d="M50 57 Q50 88 67.5 106 Q85 124 120 124 Q155 124 173 106 Q191 88 191 57 Q191 44 186 32.5 Q181 21 176 10 L104 -124 L53 -96 L92 -23 L84 -3 Q50 13 50 57 Z " />
<glyph glyph-name="quotedblleft" unicode="&#x201c;" horiz-adv-x="411" d="M360.003 535.003 Q360.003 504.005 342.504 486.006 Q325.005 468.008 290.007 468.008 Q255.009 468.008 237.011 486.006 Q219.012 504.005 219.012 535.003 Q219.012 548.003 224.011 559.502 Q229.011 571.001 234.011 582.001 L306.006 715.992 L357.003 687.994 L318.006 614.999 L326.005 595 Q360.003 579.001 360.003 535.003 Z M187.003 535.003 Q187.003 504.005 169.504 486.006 Q152.005 468.008 117.007 468.008 Q82.0095 468.008 64.0106 486.006 Q46.0117 504.005 46.0117 535.003 Q46.0117 548.003 51.0114 559.502 Q56.011 571.001 61.0107 582.001 L133.006 715.992 L184.003 687.994 L145.006 614.999 L153.005 595 Q187.003 579.001 187.003 535.003 Z " />
<glyph glyph-name="quotedblright" unicode="&#x201d;" horiz-adv-x="408" d="M51 643 Q51 674 68.5 692 Q86 710 121 710 Q156 710 174 692 Q192 674 192 643 Q192 630 187 618.5 Q182 607 177 596 L105 462 L54 490 L93 563 L85 583 Q51 599 51 643 Z M224 643 Q224 674 241.5 692 Q259 710 294 710 Q329 710 347 692 Q365 674 365 643 Q365 630 360 618.5 Q355 607 350 596 L278 462 L227 490 L266 563 L258 583 Q224 599 224 643 Z " />
<glyph glyph-name="quotedblbase" unicode="&#x201e;" horiz-adv-x="414" d="M50 57 Q50 88 67.5 106 Q85 124 120 124 Q155 124 173 106 Q191 88 191 57 Q191 44 186 32.5 Q181 21 176 10 L104 -124 L53 -96 L92 -23 L84 -3 Q50 13 50 57 Z M222 57 Q222 88 239.5 106 Q257 124 292 124 Q327 124 345 106 Q363 88 363 57 Q363 44 358 32.5 Q353 21 348 10 L276 -124 L225 -96 L264 -23 L256 -3 Q222 13 222 57 Z " />
<glyph glyph-name="dagger" unicode="&#x2020;" horiz-adv-x="475" d="M28 525 L148 507 L208 507 L182 700 L297 700 L269 507 L326 507 L446 525 L446 429 L321 448 L273 448 L297 340 L265 0 L214 0 L182 340 L205 448 L154 448 L28 429 L28 525 Z " />
<glyph glyph-name="daggerdbl" unicode="&#x2021;" horiz-adv-x="518" d="M50 271 L176 252 L226 252 L203 350 L226 448 L176 448 L50 429 L50 525 L170 507 L230 507 L203 700 L318 700 L291 507 L348 507 L468 525 L468 429 L343 448 L296 448 L318 350 L296 252 L343 252 L468 271 L468 175 L348 193 L291 193 L318 0 L203 0 L230 193 L170 193 L50 175 L50 271 Z " />
<glyph glyph-name="bullet" unicode="&#x2022;" horiz-adv-x="356" d="M72.5 373.5 Q72.5 412.5 103.25 443.25 Q134 474 177.5 474 Q221 474 252.5 443.25 Q284 412.5 284 373.5 Q284 333 252.5 303 Q221 273 177.5 273 Q134 273 103.25 303 Q72.5 333 72.5 373.5 Z " />
<glyph glyph-name="ellipsis" unicode="&#x2026;" horiz-adv-x="678" d="M489 57 Q489 83 509.5 103.5 Q530 124 559 124 Q588 124 609 103.5 Q630 83 630 57 Q630 30 609 10 Q588 -10 559 -10 Q530 -10 509.5 10 Q489 30 489 57 Z M49 57 Q49 83 69.5 103.5 Q90 124 119 124 Q148 124 169 103.5 Q190 83 190 57 Q190 30 169 10 Q148 -10 119 -10 Q90 -10 69.5 10 Q49 30 49 57 Z M269 57 Q269 83 289.5 103.5 Q310 124 339 124 Q368 124 389 103.5 Q410 83 410 57 Q410 30 389 10 Q368 -10 339 -10 Q310 -10 289.5 10 Q269 30 269 57 Z " />
<glyph glyph-name="perthousand" unicode="&#x2030;" horiz-adv-x="976" d="M299 539 Q299 452 263.5 412 Q228 372 167 372 Q106 372 70 412 Q34 452 34 540 Q34 627 70 666.5 Q106 706 167 706 Q228 706 263.5 666.5 Q299 627 299 539 Z M223 539 Q223 598 210.5 625.5 Q198 653 167 653 Q136 653 123.5 625.5 Q111 598 111 540 Q111 482 123.5 453.5 Q136 425 167 425 Q198 425 210.5 453.5 Q223 482 223 539 Z M633 162 Q633 75 597.5 35 Q562 -5 501 -5 Q440 -5 404 35 Q368 75 368 163 Q368 250 404 289.5 Q440 329 501 329 Q562 329 597.5 289.5 Q633 250 633 162 Z M557 162 Q557 221 544.5 248.5 Q532 276 501 276 Q470 276 457.5 248.5 Q445 221 445 163 Q445 105 457.5 76.5 Q470 48 501 48 Q532 48 544.5 76.5 Q557 105 557 162 Z M946 161 Q946 74 910.5 34 Q875 -6 814 -6 Q753 -6 717 34 Q681 74 681 162 Q681 249 717 288.5 Q753 328 814 328 Q875 328 910.5 288.5 Q946 249 946 161 Z M870 161 Q870 220 857.5 247.5 Q845 275 814 275 Q783 275 770.5 247.5 Q758 220 758 162 Q758 104 770.5 75.5 Q783 47 814 47 Q845 47 857.5 75.5 Q870 104 870 161 Z M71 0 L540 700 L601 700 L132 0 L71 0 Z " />
<glyph glyph-name="guilsinglleft" unicode="&#x2039;" horiz-adv-x="307" d="M34.0167 236 L200.007 46 L263.003 46 L136.01 256 L263.003 463 L200.007 463 L34.0167 274 L34.0167 236 Z " />
<glyph glyph-name="guilsinglright" unicode="&#x203a;" horiz-adv-x="307" d="M273 236 L107 46 L44 46 L171 256 L44 463 L107 463 L273 274 L273 236 Z " />
<glyph glyph-name="fraction" unicode="&#x2044;" horiz-adv-x="90" d="M-219 0 L250 700 L311 700 L-158 0 L-219 0 Z " />
<glyph glyph-name="franc" unicode="&#x20a3;" horiz-adv-x="634" d="M61 425 L131 425 L131 617 L115 633 L59 633 L59 700 L605 700 L605 523 L530 523 L530 605 L514 620 L258 620 L258 425 L430 425 L430 366 L258 366 L258 310 L430 310 L430 251 L258 251 L258 83 L273 67 L348 67 L348 0 L59 0 L59 67 L115 67 L131 83 L131 251 L61 251 L61 310 L131 310 L131 366 L61 366 L61 425 Z " />
<glyph glyph-name="lira" unicode="&#x20a4;" horiz-adv-x="617" d="M48 425 L118 425 L118 486 Q118 530 131.5 570.5 Q145 611 174 642 Q203 673 248.5 691.5 Q294 710 358 710 Q402 710 438 704 Q474 698 500 690 Q531 681 555 670 L555 523 L480 523 L480 606 L467 618 Q449 623 425 627 Q401 631 372 631 Q306 631 275.5 599 Q245 567 245 486 L245 425 L409 425 L409 366 L245 366 L245 310 L409 310 L409 251 L245 251 L245 205 Q245 170 238 137 Q231 104 222 84 L475 84 L491 100 L491 189 L564 189 L564 0 L48 0 L48 67 L102 67 L118 83 L118 251 L48 251 L48 310 L118 310 L118 366 L48 366 L48 425 Z " />
<glyph glyph-name="peseta" unicode="&#x20a7;" horiz-adv-x="1479" d="M116 617 L100 633 L44 633 L44 700 L353 700 Q476 700 546 648.5 Q616 597 616 485 Q616 369 545 313.5 Q474 258 351 258 L243 258 L243 83 L258 67 L324 67 L324 0 L44 0 L44 67 L100 67 L116 83 L116 617 Z M243 622 L243 336 L351 336 Q425 336 455.5 371 Q486 406 486 479 Q486 552 455.5 587 Q425 622 353 622 L243 622 Z M1438 161 Q1438 120 1422 88 Q1406 56 1377.5 34.5 Q1349 13 1309.5 1.5 Q1270 -10 1224 -10 Q1184 -10 1152.5 -7 Q1121 -4 1099 1 Q1073 6 1053 13 L1053 148 L1126 148 L1126 85 L1141 69 Q1157 66 1177.5 64 Q1198 62 1224 62 Q1272 62 1297.5 83 Q1323 104 1323 136 Q1323 152 1318.5 164.5 Q1314 177 1301.5 187 Q1289 197 1267.5 205 Q1246 213 1213 222 Q1166 234 1136 250.5 Q1106 267 1088 287.5 Q1070 308 1063 332 Q1056 356 1056 383 Q1056 417 1070 446 Q1084 475 1111 495 Q1138 515 1177 526.5 Q1216 538 1265 538 Q1297 538 1325 535 Q1353 532 1373 529 Q1397 525 1417 521 L1417 387 L1344 387 L1344 447 L1330 461 Q1316 463 1299 465 Q1282 467 1262 467 Q1216 467 1191 449 Q1166 431 1166 401 Q1166 388 1169.5 377 Q1173 366 1183 356 Q1193 346 1212 337.5 Q1231 329 1262 321 Q1309 308 1342.5 293.5 Q1376 279 1397 260 Q1418 241 1428 217 Q1438 193 1438 161 Z M867 461 L867 80 L883 63 L994 63 L994 0 Q970 -3 945 -5 Q924 -7 900.5 -8.5 Q877 -10 857 -10 Q803 -10 775.5 13 Q748 36 748 95 L748 461 L680 461 L680 526 L732 526 L748 542 L792 670 L867 670 L867 526 L982 526 L982 461 L867 461 Z " />
<glyph glyph-name="Euro" unicode="&#x20ac;" horiz-adv-x="664" d="M33 439 L122 439 Q143 578 228.5 644 Q314 710 447 710 Q477 710 504 707 Q531 704 552 700 Q573 696 586.5 692 Q600 688 603 686 L603 534 L529 534 L529 609 L515 624 Q499 629 483 631 Q467 633 447 633 Q354 633 307.5 583 Q261 533 249 439 L438 439 L438 380 L245 380 L245 340 Q245 331 246 322 L438 322 L438 263 L251 263 Q265 166 312 118 Q359 70 453 70 Q495 70 524 77 L539 93 L539 173 L613 173 L613 29 Q584 15 540.5 2.5 Q497 -10 432 -10 Q303 -10 222 56 Q141 122 121 263 L33 263 L33 322 L116 322 L116 380 L33 380 L33 439 Z " />
<glyph glyph-name="uni2113" unicode="&#x2113;" horiz-adv-x="430" d="M399 28 Q388 21 372 14.5 Q356 8 338 2.5 Q320 -3 302.5 -6.5 Q285 -10 272 -10 Q197 -10 156 18.5 Q115 47 115 120 L64 66 L18 120 Q24 126 34.5 137.5 Q45 149 58 163.5 Q71 178 86 194.5 Q101 211 115 227 L115 541 Q115 636 158 679 Q201 722 267 722 Q294 722 318 714.5 Q342 707 359.5 690.5 Q377 674 387.5 647.5 Q398 621 398 582 Q398 542 388 502 Q378 462 355.5 419 Q333 376 298 328 Q263 280 213 224 L213 129 Q213 94 227.5 81 Q242 68 275 68 Q300 68 329 75 Q358 82 376 92 L399 28 Z M213 343 Q264 413 282.5 470 Q301 527 301 579 Q301 619 290 636 Q279 653 259 653 Q239 653 226 621 Q213 589 213 524 L213 343 Z " />
<glyph glyph-name="trademark" unicode="&#x2122;" horiz-adv-x="830" d="M474 598 L474 438 L480 431 L514 431 L514 387 L371 387 L371 431 L404 431 L411 438 L411 650 L404 656 L371 656 L371 700 L495 700 L571 547 L644 700 L768 700 L768 656 L734 656 L727 650 L727 438 L734 431 L768 431 L768 387 L614 387 L614 431 L648 431 L654 438 L654 603 L595 480 L532 480 L474 598 Z M67 700 L332 700 L332 601 L291 601 L291 638 L284 645 L236 645 L236 438 L242 431 L280 431 L280 387 L119 387 L119 431 L156 431 L162 438 L162 645 L115 645 L108 638 L108 601 L67 601 L67 700 Z " />
<glyph glyph-name="estimated" unicode="&#x212e;" horiz-adv-x="790" d="M583 366 L593 379 L593 584 Q561 622 511.5 644 Q462 666 402 666 Q339 666 290.5 644.5 Q242 623 209 584 L209 379 L218 366 L583 366 Z M209 310 L209 134 Q242 85 293 58 Q344 31 411 31 Q484 31 542.5 58 Q601 85 640 134 L702 134 Q649 64 577.5 27 Q506 -10 411 -10 Q334 -10 267.5 18 Q201 46 151 95 Q101 144 72.5 209 Q44 274 44 349 Q44 424 72.5 489.5 Q101 555 150 603.5 Q199 652 264 679.5 Q329 707 402 707 Q474 707 537 680 Q600 653 648 606.5 Q696 560 726 497.5 Q756 435 761 365 L761 363 L729 323 L218 323 L209 310 Z " />
<glyph glyph-name="partialdiff" unicode="&#x2202;" horiz-adv-x="544" d="M506 264 Q506 194 487 142.5 Q468 91 436 57 Q404 23 361.5 6.5 Q319 -10 271 -10 Q223 -10 180.5 6.5 Q138 23 106 57 Q74 91 55 142.5 Q36 194 36 264 Q36 334 55 385.5 Q74 437 106 471 Q138 505 180.5 521.5 Q223 538 271 538 Q302 538 331 526 Q300 579 257.5 623 Q215 667 170 699 L207 741 Q277 709 332.5 660.5 Q388 612 426.5 550.5 Q465 489 485.5 416 Q506 343 506 264 Z M382 264 Q382 461 271 461 Q160 461 160 264 Q160 67 271 67 Q382 67 382 264 Z " />
<glyph glyph-name="product" unicode="&#x220f;" horiz-adv-x="734" d="M44 700 L690 700 L690 633 L633 633 L618 617 L618 83 L633 67 L690 67 L690 0 L419 0 L419 67 L475 67 L491 83 L491 617 L475 633 L258 633 L243 617 L243 83 L258 67 L315 67 L315 0 L44 0 L44 67 L100 67 L116 83 L116 617 L100 633 L44 633 L44 700 Z " />
<glyph glyph-name="summation" unicode="&#x2211;" horiz-adv-x="600" d="M38 700 L517 700 L549 543 L489 531 L462 619 L446 634 L188 634 L350 383 L146 82 L459 82 L476 97 L499 178 L557 166 L522 0 L38 0 L38 57 L241 353 L38 644 L38 700 Z " />
<glyph glyph-name="minus" unicode="&#x2212;" horiz-adv-x="538" d="M62 375 L476 375 L476 300 L62 300 L62 375 Z " />
<glyph glyph-name="uni2215" unicode="&#x2215;" horiz-adv-x="514" d="M-7 0 L462 700 L523 700 L54 0 L-7 0 Z " />
<glyph glyph-name="uni2219" unicode="&#x2219;" horiz-adv-x="250" d="M54 375 Q54 401 74.5 421.5 Q95 442 124 442 Q153 442 174 421.5 Q195 401 195 375 Q195 348 174 328 Q153 308 124 308 Q95 308 74.5 328 Q54 348 54 375 Z " />
<glyph glyph-name="radical" unicode="&#x221a;" horiz-adv-x="560" d="M97 438 L18 401 L-1 448 L168 532 L348 165 L504 951 L553 946 L355 -55 L97 438 Z " />
<glyph glyph-name="infinity" unicode="&#x221e;" horiz-adv-x="846" d="M44 332 Q44 367 56.5 398.5 Q69 430 93 453.5 Q117 477 151 490.5 Q185 504 228 504 Q260 504 287.5 494 Q315 484 339 468 Q363 452 384 432 Q405 412 424 392 Q442 412 462.5 432 Q483 452 507 468 Q531 484 558.5 494 Q586 504 619 504 Q662 504 696 490.5 Q730 477 753.5 453.5 Q777 430 789.5 398.5 Q802 367 802 332 Q802 297 790.5 266 Q779 235 756.5 211.5 Q734 188 699.5 174.5 Q665 161 619 161 Q589 161 561.5 171 Q534 181 509.5 196.5 Q485 212 464 231.5 Q443 251 425 270 Q406 250 385.5 230.5 Q365 211 341 195.5 Q317 180 289 170.5 Q261 161 228 161 Q181 161 146.5 174.5 Q112 188 89.5 211 Q67 234 55.5 265.5 Q44 297 44 332 Z M229 430 Q181 430 154 403.5 Q127 377 127 332 Q127 288 153.5 261.5 Q180 235 229 235 Q251 235 272 243.5 Q293 252 311.5 265.5 Q330 279 347.5 296 Q365 313 380 331 Q364 349 347 366.5 Q330 384 311 398.5 Q292 413 271.5 421.5 Q251 430 229 430 Z M618 430 Q596 430 575.5 421.5 Q555 413 536 398.5 Q517 384 500 366.5 Q483 349 468 331 Q483 314 500 296.5 Q517 279 536 265.5 Q555 252 575 243.5 Q595 235 618 235 Q666 235 692 261.5 Q718 288 718 332 Q718 377 692 403.5 Q666 430 618 430 Z " />
<glyph glyph-name="integral" unicode="&#x222b;" horiz-adv-x="574" d="M97 -136 Q69 -136 41.5 -132 Q14 -128 -7 -123 L8 -70 Q28 -74 50 -77 Q72 -80 88 -80 Q131 -80 158.5 -56 Q186 -32 192 36 L263 642 Q274 738 326 779.5 Q378 821 477 821 Q506 821 533.5 817 Q561 813 581 808 L566 755 Q547 759 525 762 Q503 765 486 765 Q445 765 417 740.5 Q389 716 382 649 L310 44 Q300 -53 249.5 -94.5 Q199 -136 97 -136 Z " />
<glyph glyph-name="approxequal" unicode="&#x2248;" horiz-adv-x="563" d="M58 218 Q82 266 116.5 295.5 Q151 325 195 325 Q226 325 252 313 Q278 301 299.5 287 Q321 273 340.5 261 Q360 249 380 249 Q394 249 405 260 L467 318 L509 283 Q484 235 450 206 Q416 177 371 177 Q341 177 315.5 188.5 Q290 200 267 214.5 Q244 229 223.5 240.5 Q203 252 182 252 Q168 252 158 242 L99 184 L58 218 Z M58 388 Q82 436 116.5 465 Q151 494 195 494 Q226 494 252 482.5 Q278 471 299.5 456.5 Q321 442 340.5 430.5 Q360 419 380 419 Q391 419 413 438 L467 487 L509 452 Q484 404 450 375.5 Q416 347 371 347 Q341 347 315.5 358.5 Q290 370 267.5 384.5 Q245 399 224.5 410.5 Q204 422 184 422 Q168 422 149 403 L99 354 L58 388 Z " />
<glyph glyph-name="notequal" unicode="&#x2260;" horiz-adv-x="535" d="M59 450 L298 450 L336 527 L383 527 L346 450 L473 450 L473 375 L311 375 L270 289 L473 289 L473 213 L234 213 L197 134 L149 134 L186 213 L59 213 L59 289 L222 289 L263 375 L59 375 L59 450 Z " />
<glyph glyph-name="lessequal" unicode="&#x2264;" horiz-adv-x="546" d="M61 161 L482 161 L482 86 L61 86 L61 161 Z M61 364 L61 419 L482 569 L482 492 L182 393 L482 290 L482 213 L61 364 Z " />
<glyph glyph-name="greaterequal" unicode="&#x2265;" horiz-adv-x="546" d="M64 86 L64 161 L485 161 L485 86 L64 86 Z M64 290 L364 393 L64 492 L64 569 L485 419 L485 364 L64 213 L64 290 Z " />
<glyph glyph-name="lozenge" unicode="&#x25ca;" horiz-adv-x="571" d="M230 -80 L26 343 L230 782 L342 782 L545 360 L342 -80 L230 -80 Z M122 353 L286 8 L449 349 L285 693 L122 353 Z " />
<glyph glyph-name="f_f" unicode="&#xfb00;" horiz-adv-x="718" d="M220 461 L220 80 L235 63 L306 63 L306 0 L28 0 L28 63 L85 63 L101 80 L101 461 L28 461 L28 526 L85 526 L101 542 L101 560 Q101 599 110 632 Q119 665 140 689 Q161 713 195 726.5 Q229 740 279 740 Q323 740 349.5 735.5 Q376 731 381 729 L381 620 L309 620 L309 665 L296 678 Q292 679 288 679 L282 679 Q245 679 232.5 648.5 Q220 618 220 567 L220 526 L342 526 L342 461 L220 461 Z M577 461 L577 80 L592 63 L663 63 L663 0 L385 0 L385 63 L442 63 L458 80 L458 461 L385 461 L385 526 L442 526 L458 542 L458 560 Q458 599 467 632 Q476 665 497 689 Q518 713 552 726.5 Q586 740 636 740 Q680 740 706.5 735.5 Q733 731 738 729 L738 620 L666 620 L666 665 L653 678 Q649 679 645 679 L639 679 Q602 679 589.5 648.5 Q577 618 577 567 L577 526 L699 526 L699 461 L577 461 Z " />
<glyph glyph-name="fi" unicode="&#xfb01;" horiz-adv-x="673" d="M538 528 Q565 528 573.5 515.5 Q582 503 582 486 L582 80 L597 63 L654 63 L654 0 L390 0 L390 63 L447 63 L463 80 L463 444 L447 461 L390 461 L390 528 L538 528 Z M443 671 Q443 701 460.5 719 Q478 737 513 737 Q547 737 564.5 719 Q582 701 582 671 Q582 642 564.5 623.5 Q547 605 513 605 Q478 605 460.5 623.5 Q443 642 443 671 Z M220 461 L220 80 L235 63 L306 63 L306 0 L28 0 L28 63 L85 63 L101 80 L101 461 L28 461 L28 526 L85 526 L101 542 L101 560 Q101 599 110 632 Q119 665 140 689 Q161 713 195 726.5 Q229 740 279 740 Q323 740 349.5 735.5 Q376 731 381 729 L381 620 L309 620 L309 665 L296 678 Q292 679 288 679 L282 679 Q245 679 232.5 648.5 Q220 618 220 567 L220 526 L342 526 L342 461 L220 461 Z " />
<glyph glyph-name="fl" unicode="&#xfb02;" horiz-adv-x="685" d="M550 730 Q577 730 585.5 717.5 Q594 705 594 688 L594 80 L609 63 L666 63 L666 0 L402 0 L402 63 L459 63 L475 80 L475 647 L459 663 L402 663 L402 730 L550 730 Z M220 461 L220 80 L235 63 L306 63 L306 0 L28 0 L28 63 L85 63 L101 80 L101 461 L28 461 L28 526 L85 526 L101 542 L101 560 Q101 599 110 632 Q119 665 140 689 Q161 713 195 726.5 Q229 740 279 740 Q323 740 349.5 735.5 Q376 731 381 729 L381 620 L309 620 L309 665 L296 678 Q292 679 288 679 L282 679 Q245 679 232.5 648.5 Q220 618 220 567 L220 526 L342 526 L342 461 L220 461 Z " />
<glyph glyph-name="f_f_i" unicode="&#xfb03;" horiz-adv-x="1035" d="M900 528 Q927 528 935.5 515.5 Q944 503 944 486 L944 80 L959 63 L1016 63 L1016 0 L752 0 L752 63 L809 63 L825 80 L825 444 L809 461 L752 461 L752 528 L900 528 Z M805 671 Q805 701 822.5 719 Q840 737 875 737 Q909 737 926.5 719 Q944 701 944 671 Q944 642 926.5 623.5 Q909 605 875 605 Q840 605 822.5 623.5 Q805 642 805 671 Z M220 461 L220 80 L235 63 L306 63 L306 0 L28 0 L28 63 L85 63 L101 80 L101 461 L28 461 L28 526 L85 526 L101 542 L101 560 Q101 599 110 632 Q119 665 140 689 Q161 713 195 726.5 Q229 740 279 740 Q323 740 349.5 735.5 Q376 731 381 729 L381 620 L309 620 L309 665 L296 678 Q292 679 288 679 L282 679 Q245 679 232.5 648.5 Q220 618 220 567 L220 526 L342 526 L342 461 L220 461 Z M582 461 L582 80 L597 63 L668 63 L668 0 L390 0 L390 63 L447 63 L463 80 L463 461 L390 461 L390 526 L447 526 L463 542 L463 560 Q463 599 472 632 Q481 665 502 689 Q523 713 557 726.5 Q591 740 641 740 Q685 740 711.5 735.5 Q738 731 743 729 L743 620 L671 620 L671 665 L658 678 Q654 679 650 679 L644 679 Q607 679 594.5 648.5 Q582 618 582 567 L582 526 L704 526 L704 461 L582 461 Z " />
</font>
</svg>
