<?xml version="1.0" encoding="UTF-8"?>
<svg xmlns="http://www.w3.org/2000/svg" xmlns:xlink="http://www.w3.org/1999/xlink" version="1.2" >
<font id="CO BdIt">
<font-face  font-family="CO" units-per-em="1000" ascent="1000" descent="-300" font-style="normal" font-weight="700" font-stretch="normal" cap-height="700" x-height="526" underline-position="-109" underline-thickness="73" />
<missing-glyph  horiz-adv-x="883" d="M70 349 Q70 424 98.5 490 Q127 556 176 604.5 Q225 653 291 681.5 Q357 710 432 710 Q507 710 573 681.5 Q639 653 687.5 604.5 Q736 556 764.5 490 Q793 424 793 349 Q793 274 764.5 209 Q736 144 686.5 95 Q637 46 571.5 18 Q506 -10 431 -10 Q356 -10 290 18 Q224 46 175.5 95 Q127 144 98.5 209 Q70 274 70 349 Z M145 349 Q145 289 167 237 Q189 185 228 146 Q267 107 319 84.5 Q371 62 431 62 Q491 62 543 84.5 Q595 107 633.5 146 Q672 185 694.5 237 Q717 289 717 349 Q717 409 695 461.5 Q673 514 634.5 553 Q596 592 544 614.5 Q492 637 432 637 Q372 637 319.5 614.5 Q267 592 228.5 553 Q190 514 167.5 461.5 Q145 409 145 349 Z M309 509 Q326 520 347 529 Q365 537 389 543 Q413 549 440 549 Q481 549 509 540 Q537 531 554.5 516 Q572 501 580 482 Q588 463 588 444 Q588 406 569 381.5 Q550 357 508 338 Q479 325 469 317.5 Q459 310 459 296 L459 285 L441 259 L395 259 L376 285 L376 296 Q376 316 381 329 Q386 342 395 351.5 Q404 361 417 368 Q430 375 446 383 Q477 398 483 413 Q489 428 489 439 Q489 459 475 474 Q461 489 429 489 Q412 489 398.5 485 Q385 481 373 477 L367 469 L367 421 L309 421 L309 509 Z M419 116 Q393 116 378 131.5 Q363 147 363 169 Q363 191 378 206 Q393 221 419 221 Q444 221 459 206 Q474 191 474 169 Q474 147 459 131.5 Q444 116 419 116 Z " />
<glyph glyph-name="NULL" d="" />
<glyph glyph-name="nonmarkingreturn" unicode="&#xd;" d="" />
<glyph glyph-name="space" unicode="&#x20;" horiz-adv-x="218" d="" />
<glyph glyph-name="exclam" unicode="&#x21;" horiz-adv-x="284" d="M5 61 Q5 80 13 98 Q21 116 35 129.5 Q49 143 68.5 151 Q88 159 112 159 Q143 159 163.5 137.5 Q184 116 184 88 Q184 68 176 50.5 Q168 33 154 19.5 Q140 6 120 -2 Q100 -10 76 -10 Q46 -10 25.5 11 Q5 32 5 61 Z M89 225 L67 269 L102 529 L139 700 L315 700 L278 529 L202 269 L163 225 L89 225 Z " />
<glyph glyph-name="quotedbl" unicode="&#x22;" horiz-adv-x="400" d="M99 442 L117 628 L133 700 L264 700 L248 628 L188 442 L99 442 Z M270 442 L287 628 L303 700 L435 700 L419 628 L358 442 L270 442 Z " />
<glyph glyph-name="numbersign" unicode="&#x23;" horiz-adv-x="548" d="M475 146 L365 146 L317 0 L225 0 L273 146 L181 146 L133 0 L41 0 L89 146 L17 146 L17 222 L114 222 L143 309 L57 309 L57 385 L168 385 L216 530 L308 530 L260 385 L352 385 L400 530 L492 530 L444 385 L515 385 L515 309 L419 309 L390 222 L475 222 L475 146 Z M206 222 L298 222 L327 309 L235 309 L206 222 Z " />
<glyph glyph-name="dollar" unicode="&#x24;" horiz-adv-x="565" d="M514 244 Q514 186 494 141.5 Q474 97 439 65.5 Q404 34 356 16 Q308 -2 252 -7 L232 -102 L172 -102 L191 -10 Q147 -9 111 -5 Q75 -1 49 4 Q18 9 -6 17 L32 198 L123 198 L103 105 L118 87 Q155 79 210 79 L254 285 Q170 314 126 359 Q82 404 82 480 Q82 530 102 570 Q122 610 157.5 639 Q193 668 240.5 685.5 Q288 703 344 708 L361 787 L421 787 L404 710 Q442 709 474.5 705 Q507 701 530 696 Q557 691 579 684 L542 511 L451 511 L469 596 L455 613 Q438 616 424 617.5 Q410 619 385 620 L343 423 Q382 408 414 391.5 Q446 375 468 354.5 Q490 334 502 307 Q514 280 514 244 Z M361 192 Q361 217 349.5 233 Q338 249 309 263 L271 84 Q298 90 315.5 101 Q333 112 343 126.5 Q353 141 357 157.5 Q361 174 361 192 Z M230 524 Q230 494 241 478 Q252 462 288 446 L324 615 Q282 607 256 585.5 Q230 564 230 524 Z " />
<glyph glyph-name="percent" unicode="&#x25;" horiz-adv-x="724" d="M168 486 Q168 437 197 437 Q215 437 229 454 Q243 471 252.5 495 Q262 519 266.5 545.5 Q271 572 271 591 Q271 639 242 639 Q224 639 210 623 Q196 607 187 583.5 Q178 560 173 533.5 Q168 507 168 486 Z M362 582 Q362 538 349.5 499.5 Q337 461 314.5 432.5 Q292 404 261.5 387.5 Q231 371 194 371 Q137 371 106.5 402.5 Q76 434 76 494 Q76 537 87.5 575.5 Q99 614 121 643 Q143 672 175 689.5 Q207 707 247 707 Q301 707 331.5 676 Q362 645 362 582 Z M475 110 Q475 61 504 61 Q522 61 536 78 Q550 95 559.5 119 Q569 143 573.5 169.5 Q578 196 578 215 Q578 263 549 263 Q531 263 517 247 Q503 231 494 207.5 Q485 184 480 157.5 Q475 131 475 110 Z M669 206 Q669 162 656.5 123.5 Q644 85 621.5 56.5 Q599 28 568.5 11.5 Q538 -5 501 -5 Q444 -5 413.5 26.5 Q383 58 383 118 Q383 161 394.5 199.5 Q406 238 428 267 Q450 296 482 313.5 Q514 331 554 331 Q608 331 638.5 300 Q669 269 669 206 Z M585 700 L657 700 L161 0 L89 0 L585 700 Z " />
<glyph glyph-name="ampersand" unicode="&#x26;" horiz-adv-x="728" d="M697 317 L651 317 L630 299 Q614 269 593.5 234.5 Q573 200 547 165 L587 101 L604 85 L662 85 L643 0 L522 0 Q489 0 468 13.5 Q447 27 434 46 L430 52 Q387 23 334 6.5 Q281 -10 215 -10 Q158 -10 117.5 5 Q77 20 51.5 44.5 Q26 69 14.5 99.5 Q3 130 3 162 Q3 222 29.5 261 Q56 300 93 323.5 Q130 347 168 358 Q206 369 230 372 L226 379 Q202 422 196 456 Q190 490 190 513 Q190 557 206 593.5 Q222 630 250.5 656 Q279 682 319.5 696 Q360 710 408 710 Q454 710 486.5 699 Q519 688 539.5 670 Q560 652 569.5 628 Q579 604 579 579 Q579 544 565 515.5 Q551 487 527.5 463.5 Q504 440 473.5 421 Q443 402 410 387 L499 243 Q520 272 539 305 Q552 329 561 347 Q570 365 579.5 377 Q589 389 602 395.5 Q615 402 636 402 L714 402 L697 317 Z M277 90 Q330 90 384 125 L261 322 Q249 317 232 307 Q215 297 199.5 281 Q184 265 173 242.5 Q162 220 162 189 Q162 150 190 120 Q218 90 277 90 Z M330 558 Q330 539 337.5 516.5 Q345 494 359 471 L381 435 Q397 445 413.5 459 Q430 473 444 490 Q458 507 467 528 Q476 549 476 573 Q476 608 458.5 623 Q441 638 409 638 Q374 638 352 615.5 Q330 593 330 558 Z " />
<glyph glyph-name="quotesingle" unicode="&#x27;" horiz-adv-x="233" d="M99 442 L117 628 L133 700 L267 700 L251 628 L191 442 L99 442 Z " />
<glyph glyph-name="parenleft" unicode="&#x28;" horiz-adv-x="351" d="M220 -113 Q178 -83 142.5 -49 Q107 -15 81 24 Q55 63 40.5 106.5 Q26 150 26 198 Q26 233 33 265 L65 416 Q82 495 114.5 551.5 Q147 608 192 651 Q237 694 292.5 727.5 Q348 761 412 796 L435 756 Q390 721 353.5 684 Q317 647 288.5 606 Q260 565 240 518 Q220 471 208 416 L176 265 Q165 213 165 170 Q165 100 189 40 Q213 -20 258 -73 L220 -113 Z " />
<glyph glyph-name="parenright" unicode="&#x29;" horiz-adv-x="350" d="M148 796 Q190 766 225.5 732 Q261 698 287 659 Q313 620 327.5 576.5 Q342 533 342 485 Q342 450 335 418 L303 267 Q286 187 253.5 131 Q221 75 176 32 Q131 -11 75.5 -45 Q20 -79 -44 -113 L-67 -73 Q-22 -38 14.5 -1.5 Q51 35 79.5 76.5 Q108 118 128 165 Q148 212 160 267 L192 418 Q203 470 203 513 Q203 583 179 643 Q155 703 110 756 L148 796 Z " />
<glyph glyph-name="asterisk" unicode="&#x2a;" horiz-adv-x="457" d="M305 563 L366 623 L418 650 L467 553 L416 527 L319 509 L392 456 L426 410 L340 345 L305 391 L275 474 L245 391 L210 345 L124 410 L158 456 L231 509 L134 527 L83 553 L132 650 L184 623 L245 563 L221 643 L221 700 L329 700 L329 643 L305 563 Z " />
<glyph glyph-name="plus" unicode="&#x2b;" horiz-adv-x="504" d="M46 386 L211 386 L211 552 L309 552 L309 386 L474 386 L474 291 L309 291 L309 124 L211 124 L211 291 L46 291 L46 386 Z " />
<glyph glyph-name="comma" unicode="&#x2c;" horiz-adv-x="254" d="M-6 57 Q-6 75 0.5 91.5 Q7 108 19.5 121.5 Q32 135 49.5 143 Q67 151 90 151 Q125 151 145.5 131.5 Q166 112 166 83 Q166 62 157.5 46 Q149 30 138 16 L27 -130 L-28 -96 L24 -24 L20 3 Q7 12 0.5 26 Q-6 40 -6 57 Z " />
<glyph glyph-name="hyphen" unicode="&#x2d;" horiz-adv-x="348" d="M63 335 L299 335 L276 230 L40 230 L63 335 Z " />
<glyph glyph-name="period" unicode="&#x2e;" horiz-adv-x="252" d="M-7 57 Q-7 75 0.5 92 Q8 109 21.5 122 Q35 135 53.5 143 Q72 151 95 151 Q127 151 146 130.5 Q165 110 165 83 Q165 45 136 17.5 Q107 -10 61 -10 Q29 -10 11 10 Q-7 30 -7 57 Z " />
<glyph glyph-name="slash" unicode="&#x2f;" horiz-adv-x="435" d="M-63 -102 L417 787 L517 787 L36 -102 L-63 -102 Z " />
<glyph glyph-name="zero" unicode="0" horiz-adv-x="642" d="M279 -10 Q220 -10 175.5 10 Q131 30 102 65 Q73 100 58.5 147 Q44 194 44 247 Q44 299 53 353.5 Q62 408 81 459.5 Q100 511 128 557 Q156 603 194 637 Q232 671 280 691 Q328 711 387 711 Q446 711 490 690.5 Q534 670 563 635 Q592 600 606 552.5 Q620 505 620 450 Q620 373 599 292 Q578 211 535.5 143.5 Q493 76 429 33 Q365 -10 279 -10 Z M280 92 Q312 92 337.5 112.5 Q363 133 383 166 Q403 199 417.5 241 Q432 283 441 326.5 Q450 370 454.5 411 Q459 452 459 484 Q459 541 441.5 574.5 Q424 608 383 608 Q351 608 325 587.5 Q299 567 279 534 Q259 501 245 459 Q231 417 222 373.5 Q213 330 208.5 288.5 Q204 247 204 216 Q204 158 221 125 Q238 92 280 92 Z " />
<glyph glyph-name="one" unicode="1" horiz-adv-x="416" d="M184 651 Q232 651 264 668.5 Q296 686 309 710 L389 710 L260 103 L273 85 L356 85 L338 0 L-21 0 L-3 85 L80 85 L101 103 L195 545 L181 563 L99 563 L117 651 L184 651 Z " />
<glyph glyph-name="two" unicode="2" horiz-adv-x="575" d="M133 662 Q142 666 161 674 Q180 682 208 690 Q236 698 271 704 Q306 710 347 710 Q407 710 448.5 694.5 Q490 679 516 654.5 Q542 630 553.5 599.5 Q565 569 565 540 Q565 493 548.5 457.5 Q532 422 500 390 Q468 358 420 327.5 Q372 297 308 261 Q267 238 242.5 222 Q218 206 203.5 192.5 Q189 179 182.5 165.5 Q176 152 172 134 L169 122 L379 122 L400 139 L417 219 L508 219 L463 0 L-14 0 L12 129 Q19 165 32.5 193.5 Q46 222 71 247.5 Q96 273 134.5 299 Q173 325 231 358 Q273 382 304 401.5 Q335 421 355.5 440.5 Q376 460 386.5 481.5 Q397 503 397 530 Q397 564 375.5 584 Q354 604 305 604 Q283 604 265.5 600.5 Q248 597 231 592 L211 576 L194 502 L97 502 L133 662 Z " />
<glyph glyph-name="three" unicode="3" horiz-adv-x="560" d="M134 666 Q140 669 158 676 Q176 683 203.5 690.5 Q231 698 265.5 704 Q300 710 338 710 Q395 710 435.5 696 Q476 682 501.5 659.5 Q527 637 539 608.5 Q551 580 551 551 Q551 470 506 421.5 Q461 373 386 359 L386 355 Q434 338 465 307 Q496 276 496 220 Q496 178 480 136.5 Q464 95 430 62 Q396 29 342.5 8.5 Q289 -12 214 -12 Q164 -12 123.5 -5 Q83 2 54 10 Q20 20 -8 32 L26 196 L121 196 L104 116 L114 102 Q131 95 151 91 Q171 87 197 87 Q233 87 258.5 98 Q284 109 300.5 128.5 Q317 148 325 174.5 Q333 201 333 232 Q333 272 315 292 Q297 312 253 312 L180 312 L200 405 L272 405 Q323 405 355.5 437.5 Q388 470 388 529 Q388 545 384 560 Q380 575 369.5 586.5 Q359 598 341.5 604.5 Q324 611 297 611 Q275 611 258.5 606.5 Q242 602 228 596 L211 582 L192 502 L99 502 L134 666 Z " />
<glyph glyph-name="four" unicode="4" horiz-adv-x="598" d="M16 284 L414 710 L564 710 L473 284 L554 284 L536 192 L455 192 L435 103 L449 85 L513 85 L494 0 L164 0 L183 85 L256 85 L277 103 L296 192 L-2 192 L16 284 Z M315 284 L371 544 L131 284 L315 284 Z " />
<glyph glyph-name="five" unicode="5" horiz-adv-x="554" d="M241 577 L208 426 L262 426 Q311 426 355 416 Q399 406 432 384.5 Q465 363 484 327.5 Q503 292 503 241 Q503 196 485.5 151 Q468 106 431 70 Q394 34 336.5 11.5 Q279 -11 200 -11 Q153 -11 115 -4 Q77 3 49 12 Q16 22 -9 35 L26 196 L123 196 L107 124 L120 107 Q154 94 199 94 Q235 94 261.5 105 Q288 116 305.5 134.5 Q323 153 331 177.5 Q339 202 339 228 Q339 276 309 296.5 Q279 317 223 317 L73 317 L154 700 L560 700 L518 497 L425 497 L438 560 L423 577 L241 577 Z " />
<glyph glyph-name="six" unicode="6" horiz-adv-x="590" d="M427 617 Q388 617 353.5 600 Q319 583 291 551 Q263 519 241.5 474 Q220 429 207 372 Q236 395 271 410.5 Q306 426 348 426 Q386 426 421.5 415.5 Q457 405 484 384 Q511 363 527 330.5 Q543 298 543 253 Q543 188 519 138.5 Q495 89 456 56 Q417 23 366.5 6.5 Q316 -10 263 -10 Q159 -10 98 48 Q37 106 37 228 Q37 268 45.5 319 Q54 370 73 423.5 Q92 477 122.5 528.5 Q153 580 197.5 620.5 Q242 661 301 685.5 Q360 710 437 710 Q471 710 499 706.5 Q527 703 547 699 Q570 695 588 689 L554 521 L457 521 L473 596 L459 613 Q451 615 443.5 615.5 Q436 616 427 617 Z M391 244 Q391 282 371.5 305.5 Q352 329 312 329 Q279 329 247 315.5 Q215 302 191 277 Q188 239 188 198 Q188 142 207 114 Q226 86 277 86 Q298 86 318.5 95 Q339 104 355 123 Q371 142 381 172 Q391 202 391 244 Z " />
<glyph glyph-name="seven" unicode="7" horiz-adv-x="514" d="M579 700 L561 618 L219 0 L48 0 L433 578 L197 578 L177 561 L161 493 L69 493 L113 700 L579 700 Z " />
<glyph glyph-name="eight" unicode="8" horiz-adv-x="583" d="M569 559 Q569 524 559 495 Q549 466 532 443 Q515 420 492 402.5 Q469 385 442 373 Q480 346 501 311.5 Q522 277 522 228 Q522 172 500 128 Q478 84 440 53 Q402 22 350.5 6 Q299 -10 239 -10 Q172 -10 129 4 Q86 18 60.5 41 Q35 64 25 93.5 Q15 123 15 154 Q15 200 31.5 233.5 Q48 267 72.5 289.5 Q97 312 124 325.5 Q151 339 172 346 Q141 371 122 405 Q103 439 103 489 Q103 538 123 578.5 Q143 619 178 648 Q213 677 260.5 693.5 Q308 710 364 710 Q423 710 462.5 696 Q502 682 525.5 660.5 Q549 639 559 612 Q569 585 569 559 Z M228 310 Q219 303 205.5 291.5 Q192 280 179.5 262.5 Q167 245 157.5 221.5 Q148 198 148 168 Q148 151 153 136 Q158 121 169.5 110 Q181 99 200 92 Q219 85 247 85 Q277 85 299.5 94.5 Q322 104 337 119.5 Q352 135 359.5 153.5 Q367 172 367 190 Q367 219 346.5 243.5 Q326 268 275 290 L228 310 Z M246 530 Q246 516 250.5 503 Q255 490 268 476.5 Q281 463 302.5 448.5 Q324 434 359 418 L376 410 Q400 430 419 461.5 Q438 493 438 538 Q438 574 415 594.5 Q392 615 350 615 Q302 615 274 591.5 Q246 568 246 530 Z " />
<glyph glyph-name="nine" unicode="9" horiz-adv-x="589" d="M184 84 Q262 84 320 149.5 Q378 215 404 329 Q375 305 340 290 Q305 275 263 275 Q225 275 189.5 285.5 Q154 296 127 317 Q100 338 84 371 Q68 404 68 449 Q68 513 92 562 Q116 611 155 644 Q194 677 244.5 694 Q295 711 348 711 Q452 711 512.5 653 Q573 595 573 472 Q573 432 564.5 381 Q556 330 537.5 276.5 Q519 223 488.5 171.5 Q458 120 413.5 79.5 Q369 39 309.5 14.5 Q250 -10 174 -10 Q141 -10 113.5 -7 Q86 -4 66 1 Q42 5 24 12 L58 180 L153 180 L138 105 L152 87 Q167 84 184 84 Z M221 456 Q221 418 240 394.5 Q259 371 299 371 Q332 371 363.5 384 Q395 397 419 423 Q421 442 422 462 Q423 482 423 502 Q423 558 404 586 Q385 614 334 614 Q312 614 291.5 605 Q271 596 255.5 577 Q240 558 230.5 528 Q221 498 221 456 Z " />
<glyph glyph-name="colon" unicode="&#x3a;" horiz-adv-x="283" d="M7 57 Q7 75 14.5 92 Q22 109 35.5 122 Q49 135 67.5 143 Q86 151 109 151 Q141 151 160 130.5 Q179 110 179 83 Q179 45 150 17.5 Q121 -10 75 -10 Q43 -10 25 10 Q7 30 7 57 Z M88 446 Q88 464 95.5 481 Q103 498 116.5 511 Q130 524 148.5 532 Q167 540 190 540 Q222 540 241 519.5 Q260 499 260 472 Q260 434 231 406.5 Q202 379 156 379 Q124 379 106 399 Q88 419 88 446 Z " />
<glyph glyph-name="semicolon" unicode="&#x3b;" horiz-adv-x="284" d="M7 57 Q7 75 13.5 91.5 Q20 108 32.5 121.5 Q45 135 62.5 143 Q80 151 103 151 Q138 151 158.5 131.5 Q179 112 179 83 Q179 62 170.5 46 Q162 30 151 16 L40 -130 L-15 -96 L37 -24 L33 3 Q20 12 13.5 26 Q7 40 7 57 Z M89 446 Q89 464 96.5 481 Q104 498 117.5 511 Q131 524 149.5 532 Q168 540 191 540 Q223 540 242 519.5 Q261 499 261 472 Q261 434 232 406.5 Q203 379 157 379 Q125 379 107 399 Q89 419 89 446 Z " />
<glyph glyph-name="less" unicode="&#x3c;" horiz-adv-x="541" d="M45 313 L45 380 L473 553 L473 450 L199 348 L473 241 L473 139 L45 313 Z " />
<glyph glyph-name="equal" unicode="&#x3d;" horiz-adv-x="586" d="M84 470 L512 470 L512 375 L84 375 L84 470 Z M81 305 L509 305 L509 210 L81 210 L81 305 Z " />
<glyph glyph-name="greater" unicode="&#x3e;" horiz-adv-x="535" d="M80 241 L354 348 L80 450 L80 553 L508 380 L508 313 L80 139 L80 241 Z " />
<glyph glyph-name="question" unicode="&#x3f;" horiz-adv-x="519" d="M109 658 Q136 673 169 684 Q198 694 236 702 Q274 710 321 710 Q378 710 419.5 697.5 Q461 685 488 664.5 Q515 644 528 617 Q541 590 541 562 Q541 529 533.5 501 Q526 473 506.5 448 Q487 423 454 401 Q421 379 370 358 Q344 347 327 339.5 Q310 332 299 324.5 Q288 317 282.5 309 Q277 301 275 289 L271 269 L232 225 L158 225 L136 269 L141 299 Q146 330 158.5 350 Q171 370 189.5 384 Q208 398 232 408.5 Q256 419 285 433 Q313 446 330.5 459.5 Q348 473 358 486.5 Q368 500 371.5 514.5 Q375 529 375 544 Q375 573 351.5 591.5 Q328 610 271 610 Q254 610 241.5 608 Q229 606 220 604 Q209 601 202 598 L185 584 L168 506 L77 506 L109 658 Z M75 61 Q75 80 83 98 Q91 116 105 129.5 Q119 143 138.5 151 Q158 159 182 159 Q213 159 233.5 137.5 Q254 116 254 88 Q254 68 246 50.5 Q238 33 224 19.5 Q210 6 190 -2 Q170 -10 146 -10 Q116 -10 95.5 11 Q75 32 75 61 Z " />
<glyph glyph-name="at" unicode="&#x40;" horiz-adv-x="878" d="M655 -51 Q615 -70 562 -82.5 Q509 -95 446 -95 Q420 -95 380.5 -91 Q341 -87 296 -74.5 Q251 -62 206 -38.5 Q161 -15 125 25 Q89 65 66.5 123 Q44 181 44 263 Q44 359 77 441 Q110 523 170 583 Q230 643 314.5 676.5 Q399 710 502 710 Q591 710 657.5 683 Q724 656 768.5 610.5 Q813 565 835.5 505.5 Q858 446 858 382 Q858 304 834.5 250.5 Q811 197 775.5 163.5 Q740 130 697 115.5 Q654 101 615 101 Q567 101 533.5 117.5 Q500 134 485 167 Q476 156 462.5 144 Q449 132 432.5 122.5 Q416 113 398 107 Q380 101 362 101 Q302 101 264 139 Q226 177 226 262 Q226 330 246 380.5 Q266 431 296.5 464 Q327 497 363.5 513.5 Q400 530 434 530 Q466 530 492.5 512.5 Q519 495 530 475 L549 504 Q556 515 563 518.5 Q570 522 587 522 L663 522 L605 255 Q603 247 602 240 Q601 233 601 225 Q601 205 612.5 191 Q624 177 656 177 Q676 177 696 189.5 Q716 202 732 227 Q748 252 758 290.5 Q768 329 768 382 Q768 433 751.5 479.5 Q735 526 701.5 562 Q668 598 618 619 Q568 640 502 640 Q419 640 351.5 611.5 Q284 583 235.5 533 Q187 483 160.5 413.5 Q134 344 134 263 Q134 197 152.5 150.5 Q171 104 200 72 Q229 40 265.5 21 Q302 2 337.5 -8 Q373 -18 404.5 -21 Q436 -24 456 -24 Q517 -24 563.5 -16.5 Q610 -9 650 2 L655 -51 Z M407 195 Q433 195 474 220 L474 227 Q474 244 480 273 L512 418 Q499 429 484.5 432.5 Q470 436 459 436 Q430 436 411 416.5 Q392 397 380.5 369 Q369 341 364 310 Q359 279 359 256 Q359 195 407 195 Z " />
<glyph glyph-name="A" unicode="A" horiz-adv-x="654" d="M395 181 L178 181 L136 101 L149 85 L187 85 L168 0 L-71 0 L-52 85 L-14 85 L7 103 L338 702 L482 702 L567 101 L581 85 L620 85 L601 0 L337 0 L356 85 L386 85 L404 101 L395 181 Z M227 276 L384 276 L356 522 L227 276 Z " />
<glyph glyph-name="B" unicode="B" horiz-adv-x="652" d="M-5 85 L38 85 L59 103 L164 597 L150 615 L107 615 L126 700 L411 700 Q519 700 579 661.5 Q639 623 639 543 Q639 473 601 430 Q563 387 498 363 L498 360 Q546 340 571.5 308.5 Q597 277 597 222 Q597 165 575 123.5 Q553 82 513 54.5 Q473 27 416.5 13.5 Q360 0 291 0 L-23 0 L-5 85 Z M282 407 L341 407 Q413 407 445 441 Q477 475 477 532 Q477 570 451.5 586 Q426 602 380 602 L325 602 L282 407 Z M216 98 L300 98 Q374 98 404.5 136.5 Q435 175 435 236 Q435 274 412 291.5 Q389 309 343 309 L262 309 L216 98 Z " />
<glyph glyph-name="C" unicode="C" horiz-adv-x="584" d="M493 24 Q464 11 420 0.5 Q376 -10 312 -10 Q182 -10 111 59 Q40 128 40 256 Q40 360 70 444 Q100 528 154 587 Q208 646 283.5 678 Q359 710 451 710 Q488 710 518.5 705.5 Q549 701 572 696 Q598 690 619 682 L581 499 L486 499 L504 584 L491 601 Q481 603 470.5 604 Q460 605 448 605 Q397 605 353 585.5 Q309 566 276.5 525.5 Q244 485 225.5 421 Q207 357 207 269 Q207 231 214.5 199.5 Q222 168 238.5 145.5 Q255 123 282 111 Q309 99 348 99 Q372 99 395 102 L417 119 L437 211 L532 211 L493 24 Z " />
<glyph glyph-name="D" unicode="D" horiz-adv-x="701" d="M-4 85 L39 85 L60 103 L164 597 L150 615 L107 615 L126 700 L404 700 Q466 700 517 683.5 Q568 667 604 634.5 Q640 602 660 553 Q680 504 680 439 Q680 333 650.5 251 Q621 169 568 113.5 Q515 58 440.5 29 Q366 0 275 0 L-23 0 L-4 85 Z M218 104 L300 104 Q340 104 378 125 Q416 146 446 188 Q476 230 494.5 293.5 Q513 357 513 442 Q513 520 484 558 Q455 596 383 596 L325 596 L218 104 Z " />
<glyph glyph-name="E" unicode="E" horiz-adv-x="612" d="M325 600 L284 406 L386 406 L406 422 L414 462 L498 462 L454 253 L370 253 L378 293 L365 308 L262 308 L218 100 L424 100 L445 117 L463 197 L554 197 L512 0 L-23 0 L-4 85 L39 85 L60 103 L164 597 L150 615 L107 615 L126 700 L651 700 L609 503 L518 503 L535 583 L521 600 L325 600 Z " />
<glyph glyph-name="F" unicode="F" horiz-adv-x="604" d="M325 598 L281 396 L397 396 L418 413 L426 452 L510 452 L466 243 L382 243 L390 283 L377 298 L260 298 L219 103 L232 85 L296 85 L277 0 L-23 0 L-4 85 L39 85 L60 103 L164 597 L150 615 L107 615 L126 700 L665 700 L623 503 L534 503 L551 581 L537 598 L325 598 Z " />
<glyph glyph-name="G" unicode="G" horiz-adv-x="631" d="M501 24 Q472 12 428.5 1 Q385 -10 318 -10 Q250 -10 198 9.5 Q146 29 111 64 Q76 99 58 147.5 Q40 196 40 253 Q40 359 70 444 Q100 529 154 588 Q208 647 283 678.5 Q358 710 448 710 Q487 710 519.5 706.5 Q552 703 576 698.5 Q600 694 615.5 689 Q631 684 636 682 L597 499 L506 499 L525 588 L512 603 Q498 606 482.5 608 Q467 610 447 610 Q394 610 349.5 590 Q305 570 273.5 528 Q242 486 224.5 420.5 Q207 355 207 264 Q207 186 241.5 136 Q276 86 346 86 Q356 86 362.5 86.5 Q369 87 374 88 L406 240 L391 258 L354 258 L373 343 L613 343 L594 258 L565 258 L546 240 L501 24 Z " />
<glyph glyph-name="H" unicode="H" horiz-adv-x="727" d="M468 305 L261 305 L218 103 L231 85 L275 85 L256 0 L-24 0 L-5 85 L38 85 L59 103 L164 597 L150 615 L107 615 L125 700 L405 700 L387 615 L343 615 L323 597 L283 409 L490 409 L530 597 L517 615 L474 615 L492 700 L772 700 L754 615 L710 615 L689 597 L584 103 L598 85 L642 85 L623 0 L343 0 L362 85 L405 85 L425 103 L468 305 Z " />
<glyph glyph-name="I" unicode="I" horiz-adv-x="361" d="M164 597 L150 615 L107 615 L126 700 L406 700 L387 615 L343 615 L323 597 L219 103 L232 85 L276 85 L257 0 L-23 0 L-4 85 L39 85 L60 103 L164 597 Z " />
<glyph glyph-name="J" unicode="J" horiz-adv-x="519" d="M333 597 L320 615 L277 615 L296 700 L576 700 L557 615 L513 615 L492 597 L408 197 Q388 102 326 46 Q264 -10 156 -10 Q100 -10 64 -0.5 Q28 9 7 21 Q-18 34 -31 52 L2 208 L105 208 L87 123 L97 107 Q108 102 119 98.5 Q130 95 139 95 Q187 95 212 117 Q237 139 246 183 L333 597 Z " />
<glyph glyph-name="K" unicode="K" horiz-adv-x="696" d="M257 0 L-23 0 L-4 85 L39 85 L60 103 L164 597 L150 615 L107 615 L126 700 L406 700 L387 615 L343 615 L324 598 L283 402 L323 402 L537 604 L530 615 L500 615 L519 700 L760 700 L741 615 L701 615 L674 600 L451 391 L585 100 L601 85 L643 85 L624 0 L352 0 L371 85 L407 85 L414 92 L318 315 L264 315 L219 102 L232 85 L276 85 L257 0 Z " />
<glyph glyph-name="L" unicode="L" horiz-adv-x="556" d="M219 102 L385 102 L406 119 L426 211 L517 211 L472 0 L-23 0 L-4 85 L39 85 L60 103 L164 597 L150 615 L107 615 L126 700 L406 700 L387 615 L343 615 L323 597 L219 102 Z " />
<glyph glyph-name="M" unicode="M" horiz-adv-x="825" d="M613 457 L424 197 L324 197 L248 430 L179 103 L193 85 L237 85 L218 0 L-24 0 L-5 85 L38 85 L59 103 L164 597 L150 615 L107 615 L125 700 L312 700 L418 346 L664 700 L870 700 L852 615 L809 615 L787 597 L682 103 L696 85 L740 85 L721 0 L456 0 L475 85 L518 85 L538 103 L613 457 Z " />
<glyph glyph-name="N" unicode="N" horiz-adv-x="710" d="M467 -3 L252 460 L177 103 L191 85 L235 85 L216 0 L-24 0 L-5 85 L38 85 L59 103 L163 597 L149 615 L106 615 L125 700 L304 700 L495 283 L562 597 L548 615 L505 615 L524 700 L764 700 L745 615 L701 615 L680 597 L553 -3 L467 -3 Z " />
<glyph glyph-name="O" unicode="O" horiz-adv-x="684" d="M406 710 Q474 710 523 689 Q572 668 604 632 Q636 596 651 547 Q666 498 666 443 Q666 391 656 337.5 Q646 284 625.5 234 Q605 184 575 139.5 Q545 95 504.5 61.5 Q464 28 413 9 Q362 -10 301 -10 Q233 -10 184 11 Q135 32 102.5 68 Q70 104 54.5 151.5 Q39 199 39 253 Q39 305 49 359 Q59 413 79 463.5 Q99 514 129 559 Q159 604 200 637.5 Q241 671 292 690.5 Q343 710 406 710 Z M399 603 Q364 603 336.5 583.5 Q309 564 287.5 532.5 Q266 501 250.5 460.5 Q235 420 225 377.5 Q215 335 210.5 294.5 Q206 254 206 222 Q206 162 227.5 129.5 Q249 97 304 97 Q338 97 365.5 115.5 Q393 134 414.5 165 Q436 196 452 235.5 Q468 275 478.5 316.5 Q489 358 494 398.5 Q499 439 499 471 Q499 536 477.5 569.5 Q456 603 399 603 Z " />
<glyph glyph-name="P" unicode="P" horiz-adv-x="629" d="M164 597 L150 615 L107 615 L126 700 L408 700 Q519 700 583.5 653.5 Q648 607 648 512 Q648 445 624.5 395.5 Q601 346 558.5 314 Q516 282 456.5 266 Q397 250 324 250 L250 250 L219 103 L232 85 L288 85 L269 0 L-23 0 L-4 85 L39 85 L60 103 L164 597 Z M325 602 L271 348 L343 348 Q406 348 445 386 Q484 424 484 506 Q484 552 462 577 Q440 602 387 602 L325 602 Z " />
<glyph glyph-name="Q" unicode="Q" horiz-adv-x="684" d="M406 710 Q474 710 523 689 Q572 668 604 632 Q636 596 651 547 Q666 498 666 443 Q666 381 651.5 316 Q637 251 607.5 193 Q578 135 533.5 88.5 Q489 42 430 16 L477 -42 L511 -57 L565 -57 L548 -142 L404 -142 Q367 -142 348.5 -131 Q330 -120 318 -100 L262 -8 Q205 -2 163 21 Q121 44 93.5 79 Q66 114 52.5 158.5 Q39 203 39 253 Q39 305 49 359 Q59 413 79 463.5 Q99 514 129 559 Q159 604 200 637.5 Q241 671 292 690.5 Q343 710 406 710 Z M399 603 Q364 603 336.5 583.5 Q309 564 287.5 532.5 Q266 501 250.5 460.5 Q235 420 225 377.5 Q215 335 210.5 294.5 Q206 254 206 222 Q206 162 227.5 129.5 Q249 97 304 97 Q338 97 365.5 115.5 Q393 134 414.5 165 Q436 196 452 235.5 Q468 275 478.5 316.5 Q489 358 494 398.5 Q499 439 499 471 Q499 536 477.5 569.5 Q456 603 399 603 Z " />
<glyph glyph-name="R" unicode="R" horiz-adv-x="664" d="M325 602 L278 378 L345 378 Q407 378 443.5 414 Q480 450 480 525 Q480 561 460.5 581.5 Q441 602 392 602 L325 602 Z M265 0 L-23 0 L-4 85 L39 85 L60 103 L164 597 L150 615 L107 615 L126 700 L417 700 Q523 700 583.5 658.5 Q644 617 644 531 Q644 481 625.5 444.5 Q607 408 578.5 383.5 Q550 359 517 346 Q484 333 456 330 L456 326 Q494 321 516 297.5 Q538 274 543 223 L555 101 L571 85 L606 85 L587 0 L446 0 Q418 0 406 14 Q394 28 392 52 L376 222 Q374 241 372 252.5 Q370 264 366.5 270 Q363 276 356.5 278 Q350 280 339 280 L257 280 L219 102 L232 85 L284 85 L265 0 Z " />
<glyph glyph-name="S" unicode="S" horiz-adv-x="551" d="M502 225 Q502 171 482 127.5 Q462 84 424 53.5 Q386 23 332 6.5 Q278 -10 209 -10 Q161 -10 123 -3.5 Q85 3 57 11 Q24 21 -2 33 L35 211 L131 211 L111 120 L126 102 Q143 98 165 95.5 Q187 93 213 93 Q253 93 279 101.5 Q305 110 319.5 124 Q334 138 339.5 156 Q345 174 345 192 Q345 206 340 217 Q335 228 324 239 Q313 250 294 261 Q275 272 248 286 Q216 302 186 320.5 Q156 339 133 362 Q110 385 96 415 Q82 445 82 484 Q82 540 103.5 582 Q125 624 163 652.5 Q201 681 252.5 695.5 Q304 710 363 710 Q411 710 447.5 704 Q484 698 510 690 Q539 681 561 671 L522 499 L426 499 L444 582 L430 599 Q410 604 391.5 605.5 Q373 607 354 607 Q299 607 264 585.5 Q229 564 229 522 Q229 505 233.5 492.5 Q238 480 250.5 468.5 Q263 457 284.5 444.5 Q306 432 339 415 Q416 376 459 332.5 Q502 289 502 225 Z " />
<glyph glyph-name="T" unicode="T" horiz-adv-x="590" d="M108 700 L652 700 L609 499 L517 499 L532 578 L519 596 L437 596 L334 103 L348 85 L405 85 L386 0 L82 0 L101 85 L154 85 L175 103 L278 596 L195 596 L174 578 L159 499 L65 499 L108 700 Z " />
<glyph glyph-name="U" unicode="U" horiz-adv-x="669" d="M523 597 L509 615 L466 615 L484 700 L728 700 L710 615 L666 615 L645 597 L567 230 Q553 165 528.5 119.5 Q504 74 469.5 45 Q435 16 392 3 Q349 -10 298 -10 Q189 -10 126 32.5 Q63 75 63 166 Q63 198 70 230 L148 597 L134 615 L91 615 L109 700 L391 700 L373 615 L329 615 L308 597 L230 228 Q227 212 225 198.5 Q223 185 223 173 Q223 142 244.5 119 Q266 96 315 96 Q345 96 366.5 104.5 Q388 113 403 129.5 Q418 146 428 170.5 Q438 195 445 228 L523 597 Z " />
<glyph glyph-name="V" unicode="V" horiz-adv-x="645" d="M109 599 L96 615 L58 615 L77 700 L341 700 L322 615 L291 615 L272 599 L312 197 L522 599 L510 615 L471 615 L490 700 L732 700 L713 615 L679 615 L660 599 L333 -2 L187 -2 L109 599 Z " />
<glyph glyph-name="W" unicode="W" horiz-adv-x="947" d="M108 600 L96 615 L61 615 L80 700 L343 700 L324 615 L289 615 L270 599 L294 245 L511 700 L634 700 L662 245 L833 597 L820 615 L780 615 L799 700 L1032 700 L1013 615 L981 615 L962 599 L663 -2 L528 -2 L496 406 L296 -2 L160 -2 L108 600 Z " />
<glyph glyph-name="X" unicode="X" horiz-adv-x="667" d="M-48 0 L-29 85 L3 85 L19 96 L260 356 L149 602 L136 615 L86 615 L105 700 L391 700 L373 615 L343 615 L329 602 L383 470 L512 605 L506 615 L479 615 L498 700 L724 700 L705 615 L673 615 L648 599 L429 379 L556 96 L567 85 L616 85 L597 0 L308 0 L327 85 L356 85 L371 99 L306 256 L165 96 L174 85 L195 85 L176 0 L-48 0 Z " />
<glyph glyph-name="Y" unicode="Y" horiz-adv-x="612" d="M109 0 L128 85 L171 85 L192 103 L225 259 L105 598 L92 615 L55 615 L73 700 L340 700 L322 615 L290 615 L272 600 L346 391 L491 599 L479 615 L446 615 L464 700 L695 700 L677 615 L640 615 L621 599 L391 292 L351 102 L364 85 L409 85 L390 0 L109 0 Z " />
<glyph glyph-name="Z" unicode="Z" horiz-adv-x="597" d="M-27 0 L-9 86 L410 597 L223 597 L203 581 L185 500 L90 500 L133 700 L628 700 L610 614 L196 104 L410 104 L429 120 L446 201 L541 201 L498 0 L-27 0 Z " />
<glyph glyph-name="bracketleft" unicode="&#x5b;" horiz-adv-x="312" d="M-27 -102 L162 786 L388 786 L373 716 L286 716 L127 -33 L214 -33 L199 -102 L-27 -102 Z " />
<glyph glyph-name="backslash" unicode="&#x5c;" horiz-adv-x="416" d="M123 787 L213 787 L310 -102 L220 -102 L123 787 Z " />
<glyph glyph-name="bracketright" unicode="&#x5d;" horiz-adv-x="313" d="M356.998 785.994 L168.01 -101.952 L-57.9763 -101.952 L-42.9772 -31.9563 L44.0175 -31.9563 L203.008 716.998 L116.013 716.998 L131.012 785.994 L356.998 785.994 Z " />
<glyph glyph-name="asciicircum" unicode="&#x5e;" horiz-adv-x="437" d="M325 387 L243 593 L164 387 L65 387 L195 700 L292 700 L425 387 L325 387 Z " />
<glyph glyph-name="underscore" unicode="&#x5f;" horiz-adv-x="508" d="M-81 -80 L427 -80 L410 -158 L-98 -158 L-81 -80 Z " />
<glyph glyph-name="grave" unicode="&#x60;" horiz-adv-x="409" d="M125 668 L214 756 L237 756 L337 623 L286 577 L269 577 L125 668 Z " />
<glyph glyph-name="a" unicode="a" horiz-adv-x="582" d="M14 175 Q14 244 32.5 310 Q51 376 86.5 427 Q122 478 172.5 509 Q223 540 288 540 Q364 540 403 493 L415 512 Q422 523 429 526.5 Q436 530 453 530 L552 530 L460 98 L475 80 L519 80 L501 0 L403 0 Q385 0 367.5 1 Q350 2 336.5 8 Q323 14 315.5 25.5 Q308 37 310 58 L312 78 L309 78 Q285 38 248 14 Q211 -10 165 -10 Q128 -10 99.5 4 Q71 18 52 42.5 Q33 67 23.5 101 Q14 135 14 175 Z M232 103 Q249 103 274 115 Q299 127 323 154 L377 411 Q364 419 350 424 Q336 429 319 429 Q282 429 254 408 Q226 387 207 353.5 Q188 320 178 276.5 Q168 233 168 188 Q168 149 182 126 Q196 103 232 103 Z " />
<glyph glyph-name="b" unicode="b" horiz-adv-x="581" d="M14 80 L34 98 L147 627 L134 645 L90 645 L107 730 L272 730 Q301 730 306.5 717 Q312 704 308 686 L259 457 Q283 495 319 517.5 Q355 540 400 540 Q437 540 465.5 526 Q494 512 513 487 Q532 462 541.5 428.5 Q551 395 551 355 Q551 286 532.5 220 Q514 154 478.5 103 Q443 52 392 21 Q341 -10 277 -10 Q203 -10 164 34 L161 34 L160 30 Q157 18 146.5 9 Q136 0 108 0 L-48 0 L-30 80 L14 80 Z M333 427 Q316 427 291 415 Q266 403 242 376 L187 118 Q213 101 246 101 Q283 101 311 122 Q339 143 358 176.5 Q377 210 387 253.5 Q397 297 397 342 Q397 381 383 404 Q369 427 333 427 Z " />
<glyph glyph-name="c" unicode="c" horiz-adv-x="474" d="M420 109 Q393 49 341.5 19.5 Q290 -10 218 -10 Q179 -10 142.5 1.5 Q106 13 77.5 38 Q49 63 32 102.5 Q15 142 15 197 Q15 278 40.5 341.5 Q66 405 109 449.5 Q152 494 208.5 517 Q265 540 328 540 Q360 540 387 536.5 Q414 533 433 529 Q455 524 473 518 L437 348 L342 348 L359 429 L344 446 Q340 447 333 447 L319 447 Q276 447 247 424 Q218 401 200.5 366.5 Q183 332 175.5 290.5 Q168 249 168 213 Q168 150 195 120 Q222 90 270 90 Q289 90 305.5 96.5 Q322 103 335.5 113 Q349 123 359.5 134.5 Q370 146 378 156 L420 109 Z " />
<glyph glyph-name="d" unicode="d" horiz-adv-x="582" d="M502 0 L404 0 Q386 0 368.5 1 Q351 2 337.5 8 Q324 14 316.5 25.5 Q309 37 311 58 L313 78 L309 78 Q285 38 248 14 Q211 -10 165 -10 Q128 -10 99.5 4 Q71 18 52 42.5 Q33 67 23.5 101 Q14 135 14 175 Q14 244 32.5 310 Q51 376 86.5 427 Q122 478 172.5 509 Q223 540 288 540 Q322 540 349.5 529.5 Q377 519 396 500 L424 627 L410 645 L366 645 L384 730 L549 730 Q578 730 584 717.5 Q590 705 586 686 L461 98 L476 80 L520 80 L502 0 Z M168 188 Q168 149 182 126 Q196 103 232 103 Q248 103 273 114.5 Q298 126 322 153 L377 411 Q364 419 350 424 Q336 429 319 429 Q282 429 254 408 Q226 387 207 353.5 Q188 320 178 276.5 Q168 233 168 188 Z " />
<glyph glyph-name="e" unicode="e" horiz-adv-x="492" d="M225 -10 Q182 -10 144 1 Q106 12 77.5 37 Q49 62 32.5 101 Q16 140 16 196 Q16 276 40 339.5 Q64 403 104.5 447.5 Q145 492 197.5 516 Q250 540 307 540 Q387 540 434 505 Q481 470 481 406 Q481 370 466.5 342 Q452 314 428 292 Q404 270 372 254.5 Q340 239 305.5 228.5 Q271 218 236 211 Q201 204 170 201 L170 200 Q170 144 196 117 Q222 90 272 90 Q310 90 339.5 108.5 Q369 127 387 146 L427 94 Q416 78 398.5 59.5 Q381 41 356.5 25.5 Q332 10 299.5 0 Q267 -10 225 -10 Z M296 451 Q279 451 260 441 Q241 431 224.5 410 Q208 389 194.5 355.5 Q181 322 175 276 Q203 280 232.5 285.5 Q262 291 286 303 Q310 315 325.5 336 Q341 357 341 393 Q341 451 296 451 Z " />
<glyph glyph-name="f" unicode="f" horiz-adv-x="344" d="M-133 -57 L-48 -57 L-57 -98 L-47 -111 L-46 -111 Q-32 -111 -20.5 -102.5 Q-9 -94 -1 -79.5 Q7 -65 13 -46 Q19 -27 23 -7 L107 445 L46 445 L63 528 L106 528 L128 546 L130 558 Q136 597 152.5 630.5 Q169 664 196.5 688 Q224 712 263 726 Q302 740 354 740 Q378 740 397 738 Q416 736 430 734 Q446 731 458 729 L433 612 L348 612 L358 658 L348 671 L347 671 Q333 671 322 662.5 Q311 654 303 639.5 Q295 625 289.5 606 Q284 587 280 567 L273 528 L383 528 L366 445 L256 445 L174 2 Q167 -36 150.5 -69.5 Q134 -103 106.5 -127.5 Q79 -152 39.5 -166 Q0 -180 -53 -180 Q-80 -180 -99.5 -178.5 Q-119 -177 -132 -175 Q-147 -172 -157 -169 L-133 -57 Z " />
<glyph glyph-name="g" unicode="g" horiz-adv-x="539" d="M48 354 Q48 398 66.5 432.5 Q85 467 116 491 Q147 515 187.5 527.5 Q228 540 272 540 Q294 540 315 537.5 Q336 535 356 530 L548 530 L531 445 L475 445 L466 438 Q472 420 472 398 Q472 350 453 313 Q434 276 402.5 251.5 Q371 227 330 214 Q289 201 244 201 Q227 201 211.5 202 Q196 203 181 206 Q165 198 155.5 188.5 Q146 179 146 168 Q146 140 189 140 L320 140 Q352 140 381 132.5 Q410 125 431.5 109.5 Q453 94 465.5 69.5 Q478 45 478 12 Q478 -38 455.5 -74 Q433 -110 393 -133.5 Q353 -157 298 -168.5 Q243 -180 178 -180 Q133 -180 94.5 -174.5 Q56 -169 28 -156.5 Q0 -144 -15.5 -124 Q-31 -104 -31 -74 Q-31 -53 -22.5 -36.5 Q-14 -20 -0.5 -8 Q13 4 29.5 13 Q46 22 62 28 Q14 53 14 109 Q14 144 37.5 174.5 Q61 205 113 231 Q83 250 65.5 279.5 Q48 309 48 354 Z M121 12 Q113 4 105 -11.5 Q97 -27 97 -52 Q97 -64 102 -74.5 Q107 -85 119 -93.5 Q131 -102 151 -106.5 Q171 -111 201 -111 Q230 -111 255.5 -106 Q281 -101 299.5 -90.5 Q318 -80 328.5 -65.5 Q339 -51 339 -31 Q339 -2 321.5 5 Q304 12 265 12 L121 12 Z M188 357 Q188 279 250 279 Q288 279 310.5 309.5 Q333 340 333 385 Q333 463 270 463 Q232 463 210 432.5 Q188 402 188 357 Z " />
<glyph glyph-name="h" unicode="h" horiz-adv-x="580" d="M260 730 Q287 730 293.5 717 Q300 704 296 686 L248 459 Q259 473 274.5 487.5 Q290 502 309 513.5 Q328 525 351.5 532.5 Q375 540 403 540 Q463 540 494.5 507.5 Q526 475 526 419 Q526 395 520 370 L462 98 L477 80 L521 80 L503 0 L400 0 Q377 0 358 2.5 Q339 5 326 14 Q313 23 308.5 41 Q304 59 311 91 L368 356 Q370 364 371 371 Q372 378 372 386 Q372 403 363 415 Q354 427 327 427 Q312 427 298 422 Q284 417 271.5 410 Q259 403 248.5 394.5 Q238 386 231 380 L150 0 L1 0 L134 627 L121 645 L77 645 L95 730 L260 730 Z " />
<glyph glyph-name="i" unicode="i" horiz-adv-x="309" d="M107 427 L93 445 L49 445 L68 530 L233 530 Q248 530 256 526 Q264 522 267.5 515.5 Q271 509 270.5 501 Q270 493 269 486 L186 98 L201 80 L245 80 L228 0 L125 0 Q105 0 86 2 Q67 4 53.5 12.5 Q40 21 34.5 39.5 Q29 58 36 91 L107 427 Z M138 648 Q138 692 162.5 718.5 Q187 745 238 745 Q273 745 291.5 727 Q310 709 310 682 Q310 638 286 611.5 Q262 585 210 585 Q175 585 156.5 603 Q138 621 138 648 Z " />
<glyph glyph-name="j" unicode="j" horiz-adv-x="297" d="M238 530 Q267 530 271.5 516 Q276 502 273 486 L172 10 Q163 -30 147.5 -64.5 Q132 -99 105.5 -124.5 Q79 -150 39.5 -165 Q0 -180 -56 -180 Q-83 -180 -102.5 -178.5 Q-122 -177 -135 -175 Q-150 -172 -160 -169 L-136 -53 L-51 -53 L-60 -98 L-50 -111 L-48 -111 Q-34 -111 -23 -100.5 Q-12 -90 -3.5 -74 Q5 -58 11 -38 Q17 -18 21 1 L111 427 L98 445 L49 445 L68 530 L238 530 Z M142 648 Q142 692 166.5 718.5 Q191 745 242 745 Q277 745 295.5 727 Q314 709 314 682 Q314 638 290 611.5 Q266 585 214 585 Q179 585 160.5 603 Q142 621 142 648 Z " />
<glyph glyph-name="k" unicode="k" horiz-adv-x="582" d="M367 318 L473 94 L488 80 L532 80 L515 0 L408 0 Q383 0 366.5 6 Q350 12 338 23 Q326 34 317.5 50 Q309 66 301 86 L234 249 L203 249 L150 0 L1 0 L134 627 L121 645 L77 645 L95 730 L260 730 Q287 730 293.5 717.5 Q300 705 296 686 L218 322 L242 322 L388 437 L383 445 L350 445 L367 530 L601 530 L584 445 L542 445 L524 439 L367 318 Z " />
<glyph glyph-name="l" unicode="l" horiz-adv-x="293" d="M133 627 L119 645 L75 645 L93 730 L258 730 Q287 730 292.5 716 Q298 702 295 686 L170 98 L185 80 L229 80 L211 0 L108 0 Q87 0 68 2 Q49 4 36 13 Q23 22 17.5 40 Q12 58 19 91 L133 627 Z " />
<glyph glyph-name="m" unicode="m" horiz-adv-x="876" d="M14 0 L106 427 L92 445 L47 445 L66 530 L225 530 Q240 530 248 526 Q256 522 259.5 515.5 Q263 509 262.5 501 Q262 493 261 486 L254 457 L259 457 Q271 472 286.5 487 Q302 502 321 514 Q340 526 362.5 533 Q385 540 412 540 Q464 540 494.5 515 Q525 490 533 445 Q545 461 560.5 478 Q576 495 596.5 508.5 Q617 522 642 531 Q667 540 698 540 Q758 540 789.5 507.5 Q821 475 821 419 Q821 395 815 370 L757 98 L772 80 L816 80 L798 0 L695 0 Q674 0 655 2 Q636 4 622.5 12.5 Q609 21 604 39.5 Q599 58 606 91 L663 356 Q665 364 666 371 Q667 378 667 386 Q667 403 658 415 Q649 427 622 427 Q608 427 594.5 422 Q581 417 569 410 Q557 403 547.5 395 Q538 387 531 381 Q531 378 530.5 375.5 Q530 373 529 370 L449 0 L300 0 L377 356 Q379 364 380 371 Q381 378 381 386 Q381 403 372 415 Q363 427 336 427 Q307 427 283 410.5 Q259 394 245 381 L163 0 L14 0 Z " />
<glyph glyph-name="n" unicode="n" horiz-adv-x="594" d="M14 0 L106 427 L92 445 L47 445 L66 530 L225 530 Q240 530 248 526 Q256 522 259.5 515.5 Q263 509 262.5 501 Q262 493 261 486 L254 457 L260 457 Q272 472 287 486.5 Q302 501 321.5 513 Q341 525 364.5 532.5 Q388 540 417 540 Q477 540 508.5 507.5 Q540 475 540 419 Q540 395 534 370 L476 98 L491 80 L535 80 L517 0 L414 0 Q393 0 374 1.5 Q355 3 341.5 12 Q328 21 323 39.5 Q318 58 325 91 L382 356 Q384 364 385 371 Q386 378 386 386 Q386 403 377 415 Q368 427 341 427 Q327 427 313 422 Q299 417 286 410 Q273 403 262.5 395 Q252 387 245 381 L163 0 L14 0 Z " />
<glyph glyph-name="o" unicode="o" horiz-adv-x="549" d="M172 201 Q172 141 186 114.5 Q200 88 235 88 Q271 88 295.5 114 Q320 140 334.5 179 Q349 218 355.5 262.5 Q362 307 362 343 Q362 392 348 417 Q334 442 299 442 Q263 442 238.5 416 Q214 390 199.5 353 Q185 316 178.5 274 Q172 232 172 201 Z M18 207 Q18 289 42.5 351.5 Q67 414 107 456 Q147 498 198 519 Q249 540 302 540 Q347 540 386 527.5 Q425 515 454 489 Q483 463 499.5 424 Q516 385 516 331 Q516 247 491.5 183.5 Q467 120 427 77 Q387 34 336 12 Q285 -10 232 -10 Q188 -10 149 3 Q110 16 81 42.5 Q52 69 35 110 Q18 151 18 207 Z " />
<glyph glyph-name="p" unicode="p" horiz-adv-x="582" d="M-86 -170 L-69 -90 L-25 -90 L-3 -72 L105 428 L93 445 L47 445 L66 530 L226 530 Q241 530 249 526 Q257 522 260.5 515.5 Q264 509 263.5 501 Q263 493 262 486 L255 452 L258 452 Q282 491 318.5 515.5 Q355 540 402 540 Q439 540 467.5 526 Q496 512 515 487 Q534 462 543.5 428.5 Q553 395 553 355 Q553 286 534.5 220 Q516 154 480.5 103 Q445 52 394 21 Q343 -10 279 -10 Q209 -10 170 29 L149 -72 L162 -90 L212 -90 L195 -170 L-86 -170 Z M335 427 Q318 427 293 415 Q268 403 244 376 L189 118 Q215 101 248 101 Q285 101 313 122 Q341 143 360 176.5 Q379 210 389 253.5 Q399 297 399 342 Q399 381 385 404 Q371 427 335 427 Z " />
<glyph glyph-name="q" unicode="q" horiz-adv-x="580" d="M550 445 L529 427 L424 -72 L437 -90 L481 -90 L464 -170 L187 -170 L204 -90 L254 -90 L275 -72 L305 72 Q281 35 245.5 12.5 Q210 -10 165 -10 Q128 -10 99.5 4 Q71 18 52 42.5 Q33 67 23.5 101 Q14 135 14 175 Q14 244 32.5 310 Q51 376 86.5 427 Q122 478 172.5 509 Q223 540 288 540 Q360 540 399 496 L403 496 L404 500 Q407 512 417.5 521 Q428 530 457 530 L613 530 L594 445 L550 445 Z M232 103 Q249 103 273.5 115 Q298 127 322 153 L377 412 Q364 420 350 424.5 Q336 429 319 429 Q282 429 254 408 Q226 387 207 353.5 Q188 320 178 276.5 Q168 233 168 188 Q168 149 182 126 Q196 103 232 103 Z " />
<glyph glyph-name="r" unicode="r" horiz-adv-x="414" d="M106 427 L92 445 L47 445 L66 530 L225 530 Q240 530 248.5 526 Q257 522 260 515.5 Q263 509 262.5 501 Q262 493 261 486 L252 447 L257 447 Q264 458 277.5 474 Q291 490 310.5 504.5 Q330 519 355.5 529.5 Q381 540 412 540 Q420 540 428 539.5 Q436 539 441 538 Q447 537 452 537 L408 328 L320 328 L335 398 L322 414 Q296 406 275.5 394.5 Q255 383 244 375 L163 0 L14 0 L106 427 Z " />
<glyph glyph-name="s" unicode="s" horiz-adv-x="456" d="M400 176 Q400 132 382 97.5 Q364 63 332 39 Q300 15 256 2.5 Q212 -10 161 -10 Q119 -10 87.5 -3.5 Q56 3 33 11 Q7 20 -14 32 L17 181 L103 181 L89 105 L102 87 Q110 85 126 82 Q142 79 159 79 Q187 79 205.5 85 Q224 91 235.5 100 Q247 109 251.5 120.5 Q256 132 256 144 Q256 158 252 168 Q248 178 238 186 Q228 194 211 201 Q194 208 169 216 Q102 238 75 276 Q48 314 48 362 Q48 399 63.5 431.5 Q79 464 109.5 488 Q140 512 184.5 526 Q229 540 287 540 Q320 540 349 535 Q378 530 399 525 Q424 519 444 511 L414 366 L328 366 L339 431 L327 447 Q320 449 309 450.5 Q298 452 284 452 Q242 452 213 438.5 Q184 425 184 394 Q184 370 200.5 357.5 Q217 345 260 330 Q326 307 363 271.5 Q400 236 400 176 Z " />
<glyph glyph-name="t" unicode="t" horiz-adv-x="354" d="M259 445 L185 98 L200 80 L296 80 L279 0 Q259 -3 236 -5 Q216 -7 191.5 -8.5 Q167 -10 141 -10 Q76 -10 50.5 19.5 Q25 49 40 120 L110 445 L49 445 L66 528 L110 528 L131 546 L209 670 L306 670 L276 528 L386 528 L369 445 L259 445 Z " />
<glyph glyph-name="u" unicode="u" horiz-adv-x="589" d="M410 0 Q392 0 374 1.5 Q356 3 342 9 Q328 15 320.5 26.5 Q313 38 316 59 L318 73 L314 73 Q302 58 286.5 43 Q271 28 252.5 16.5 Q234 5 211.5 -2.5 Q189 -10 162 -10 Q102 -10 70.5 22.5 Q39 55 39 111 Q39 134 45 160 L102 427 L87 445 L43 445 L62 530 L165 530 Q186 530 205 528 Q224 526 237.5 517 Q251 508 256 490 Q261 472 254 439 L197 174 Q195 166 194 159 Q193 152 193 144 Q193 127 202 115 Q211 103 238 103 Q251 103 264.5 108 Q278 113 289.5 120 Q301 127 311 135.5 Q321 144 329 151 L411 530 L560 530 L466 100 L481 80 L525 80 L508 0 L410 0 Z " />
<glyph glyph-name="v" unicode="v" horiz-adv-x="548" d="M84 428 L69 445 L33 445 L52 530 L135 530 Q150 530 165.5 528 Q181 526 195.5 517.5 Q210 509 220.5 492.5 Q231 476 235 447 L273 171 L411 427 L399 445 L368 445 L387 530 L480 530 Q506 530 522 522.5 Q538 515 544.5 502 Q551 489 548.5 473 Q546 457 536 439 L287 -2 L157 -2 L84 428 Z " />
<glyph glyph-name="w" unicode="w" horiz-adv-x="771" d="M82 429 L70 445 L34 445 L52 530 L131 530 Q144 530 159 527.5 Q174 525 187.5 517 Q201 509 210.5 493 Q220 477 223 449 L243 200 L402 530 L507 530 L528 195 L645 427 L633 445 L602 445 L620 530 L709 530 Q761 530 771 503.5 Q781 477 761 441 L528 -2 L416 -2 L393 288 L250 -2 L134 -2 L82 429 Z " />
<glyph glyph-name="x" unicode="x" horiz-adv-x="572" d="M159 0 L-47 0 L-29 80 L0 80 L15 90 L199 261 L115 428 L98 445 L47 445 L66 530 L173 530 Q197 530 213 525 Q229 520 240.5 509.5 Q252 499 260 484 Q268 469 277 449 L316 363 L394 435 L387 445 L372 445 L391 530 L594 530 L575 445 L537 445 L521 434 L356 287 L455 97 L472 80 L518 80 L502 0 L396 0 Q371 0 355 5.5 Q339 11 327.5 21.5 Q316 32 307.5 47 Q299 62 290 82 L243 182 L148 91 L156 80 L177 80 L159 0 Z " />
<glyph glyph-name="y" unicode="y" horiz-adv-x="557" d="M148 530 Q163 530 178 528 Q193 526 206 517.5 Q219 509 229 492.5 Q239 476 243 447 L280 184 L418 427 L406 445 L380 445 L399 530 L488 530 Q514 530 530 522.5 Q546 515 553 502 Q560 489 557.5 473 Q555 457 545 439 L252 -72 L264 -90 L306 -90 L291 -170 L44 -170 L59 -90 L113 -90 L135 -72 L169 -12 L93 428 L78 445 L33 445 L52 530 L148 530 Z " />
<glyph glyph-name="z" unicode="z" horiz-adv-x="505" d="M-31 0 L-17 66 L308 442 L175 442 L156 426 L142 358 L47 358 L83 530 L513 530 L499 464 L175 88 L321 88 L340 104 L354 172 L449 172 L413 0 L-31 0 Z " />
<glyph glyph-name="braceleft" unicode="&#x7b;" horiz-adv-x="355" d="M245 -103 Q230 -105 216.5 -106 Q203 -107 189 -107 Q119 -107 81 -80 Q43 -53 43 8 Q43 30 49 59 L81 214 Q85 232 87 245 Q89 258 89 269 Q89 291 76 299.5 Q63 308 29 311 L45 386 Q70 388 85.5 393 Q101 398 111 408.5 Q121 419 127 436.5 Q133 454 139 483 L169 624 Q178 668 192.5 699.5 Q207 731 231 751 Q255 771 291 780.5 Q327 790 380 790 Q394 790 407 789 Q420 788 434 786 L422 731 L397 729 Q383 727 370.5 724 Q358 721 348.5 712.5 Q339 704 331.5 690 Q324 676 319 653 L292 526 Q280 472 268.5 440.5 Q257 409 242 391 Q227 373 206.5 365 Q186 357 157 350 L157 347 Q193 337 210.5 319 Q228 301 228 260 Q228 226 216 171 L186 30 Q182 14 182 -1 Q182 -27 195.5 -35.5 Q209 -44 231 -46 L257 -48 L245 -103 Z " />
<glyph glyph-name="bar" unicode="&#x7c;" horiz-adv-x="281" d="M103 -102 L103 787 L195 787 L195 -102 L103 -102 Z " />
<glyph glyph-name="braceright" unicode="&#x7d;" horiz-adv-x="354" d="M127.015 785.994 Q142.014 787.994 155.513 788.994 Q169.012 789.993 183.012 789.993 Q253.007 789.993 291.005 762.995 Q329.003 735.997 329.003 675 Q329.003 653.002 323.003 624.004 L291.005 469.013 Q287.005 451.014 285.005 438.015 Q283.005 425.016 283.005 414.016 Q283.005 392.018 296.005 383.518 Q309.004 375.019 343.002 372.019 L327.003 297.024 Q302.004 295.024 286.505 290.024 Q271.006 285.024 261.007 274.525 Q251.007 264.026 245.008 246.527 Q239.008 229.028 233.008 200.029 L203.01 59.0381 Q194.011 15.0408 179.512 -16.4573 Q165.013 -47.9554 141.014 -67.9542 Q117.016 -87.9529 81.0178 -97.4524 Q45.02 -106.952 -7.97681 -106.952 Q-21.976 -106.952 -34.9752 -105.952 Q-47.9744 -104.952 -61.9735 -102.952 L-49.9742 -47.9554 L-24.9758 -45.9555 Q-10.9766 -43.9556 1.52261 -40.9558 Q14.0219 -37.956 23.5213 -29.4565 Q33.0207 -20.957 40.5202 -6.95789 Q48.0198 7.04126 53.0195 30.0399 L80.0178 157.032 Q92.0171 211.029 103.516 242.527 Q115.016 274.025 130.015 292.024 Q145.014 310.023 165.513 318.022 Q186.011 326.022 215.01 333.021 L215.01 336.021 Q179.012 346.021 161.513 364.019 Q144.014 382.018 144.014 423.016 Q144.014 457.014 156.013 512.01 L186.011 653.002 Q190.011 669.001 190.011 684 Q190.011 709.998 176.512 718.498 Q163.013 726.997 141.014 728.997 L115.016 730.997 L127.015 785.994 Z " />
<glyph glyph-name="asciitilde" unicode="&#x7e;" horiz-adv-x="638" d="M44 278 Q71 329 116 361.5 Q161 394 221 394 Q258 394 288.5 382 Q319 370 345.5 355 Q372 340 396 328 Q420 316 444 316 Q462 316 480 325 L542 389 L598 341 Q570 290 525 258 Q480 226 420 226 Q383 226 352.5 238 Q322 250 295.5 265 Q269 280 245 292 Q221 304 197 304 Q179 304 161 295 L99 231 L44 278 Z " />
<glyph glyph-name="uni00A0" unicode="&#xa0;" horiz-adv-x="218" d="" />
<glyph glyph-name="exclamdown" unicode="&#xa1;" horiz-adv-x="276" d="M260 469.004 Q260 450.005 252.001 432.006 Q244.001 414.007 230.002 400.508 Q216.003 387.009 196.504 379.009 Q177.005 371.01 153.007 371.01 Q122.009 371.01 101.51 392.508 Q81.0112 414.007 81.0112 442.005 Q81.0112 462.004 89.0107 479.503 Q97.0103 497.002 111.009 510.501 Q125.009 524 145.007 532 Q165.006 539.999 189.005 539.999 Q219.003 539.999 239.502 519.001 Q260 498.002 260 469.004 Z M176.005 305.014 L198.004 261.016 L163.006 1.03229 L126.008 -169.957 L-49.9808 -169.957 L-12.983 1.03229 L63.0123 261.016 L102.01 305.014 L176.005 305.014 Z " />
<glyph glyph-name="cent" unicode="&#xa2;" horiz-adv-x="500" d="M438 159 Q411 122 369 101.5 Q327 81 275 78 L257 -10 L194 -10 L213 80 Q178 85 147 99 Q116 113 93 137.5 Q70 162 57 197 Q44 232 44 278 Q44 358 66.5 420 Q89 482 128 525.5 Q167 569 218.5 594 Q270 619 329 625 L347 710 L410 710 L392 626 Q419 624 441 621 Q463 618 479 614 Q497 610 512 605 L477 439 L386 439 L403 518 L388 535 L383 535 Q381 535 378 535.5 Q375 536 373 536 L295 171 L303 171 Q320 171 336.5 175.5 Q353 180 367.5 186.5 Q382 193 393.5 200.5 Q405 208 411 214 L438 159 Z M193 305 Q193 260 203 231 Q213 202 236 187 L308 528 Q275 517 253 492.5 Q231 468 217.5 437 Q204 406 198.5 371.5 Q193 337 193 305 Z " />
<glyph glyph-name="sterling" unicode="&#xa3;" horiz-adv-x="608" d="M-6 73 L37 73 L58 91 L104 307 L43 307 L59 380 L119 380 L140 474 Q149 518 170 560.5 Q191 603 225 636 Q259 669 307 689.5 Q355 710 418 710 Q466 710 504.5 704 Q543 698 570 690 Q602 681 627 670 L594 514 L503 514 L520 586 L509 598 Q500 601 489 604 Q479 606 465.5 608.5 Q452 611 434 611 Q406 611 384.5 604.5 Q363 598 346.5 582.5 Q330 567 318.5 540.5 Q307 514 299 474 L279 380 L412 380 L396 307 L263 307 L248 233 Q240 195 224 163.5 Q208 132 190 106 L413 106 L433 123 L452 211 L540 211 L495 0 L-22 0 L-6 73 Z " />
<glyph glyph-name="currency" unicode="&#xa4;" horiz-adv-x="546" d="M134 542 L213 462 Q241 477 277 477 Q294 477 310.5 473 Q327 469 341 462 L421 542 L493 471 L412 391 Q428 359 428 326 Q428 292 412 260 L492 182 L420 111 L341 190 Q310 176 277 176 Q242 176 212 191 L133 111 L61 182 L141 262 Q127 292 127 326 Q127 343 131 359.5 Q135 376 142 391 L62 471 L134 542 Z M210 326 Q210 296 230.5 275 Q251 254 278 254 Q305 254 325 275 Q345 296 345 326 Q345 356 325 377 Q305 398 278 398 Q251 398 230.5 377 Q210 356 210 326 Z " />
<glyph glyph-name="yen" unicode="&#xa5;" horiz-adv-x="679" d="M121 383 L220 383 L144 598 L131 615 L94 615 L112 700 L379 700 L361 615 L329 615 L311 600 L385 391 L530 599 L518 615 L485 615 L503 700 L734 700 L716 615 L679 615 L660 599 L498 383 L581 383 L566 310 L443 310 L430 292 L423 261 L555 261 L540 188 L408 188 L390 102 L403 85 L448 85 L429 0 L148 0 L167 85 L210 85 L231 103 L249 188 L80 188 L95 261 L263 261 L246 310 L106 310 L121 383 Z " />
<glyph glyph-name="brokenbar" unicode="&#xa6;" horiz-adv-x="289" d="M107 -102 L107 270 L199 270 L199 -102 L107 -102 Z M107 416 L107 787 L199 787 L199 416 L107 416 Z " />
<glyph glyph-name="section" unicode="&#xa7;" horiz-adv-x="576" d="M530 300 Q530 235 499 194 Q468 153 418 131 Q436 111 445.5 87 Q455 63 455 31 Q455 -19 431.5 -58 Q408 -97 368.5 -124 Q329 -151 276 -165.5 Q223 -180 165 -180 Q122 -180 85.5 -176.5 Q49 -173 23 -168 Q-8 -163 -33 -156 L4 15 L89 15 L70 -71 L82 -87 Q99 -89 124.5 -91 Q150 -93 173 -93 Q236 -93 275 -68.5 Q314 -44 314 1 Q314 13 309.5 22.5 Q305 32 293 41 Q281 50 260 59.5 Q239 69 206 80 Q167 93 134.5 105.5 Q102 118 79 134.5 Q56 151 43.5 174 Q31 197 31 230 Q31 295 62 336 Q93 377 142 398 Q106 438 106 499 Q106 549 129.5 588 Q153 627 192.5 654 Q232 681 284.5 695.5 Q337 710 396 710 Q439 710 475.5 706.5 Q512 703 538 698 Q569 693 594 686 L557 515 L472 515 L491 601 L479 617 Q462 619 436.5 621 Q411 623 388 623 Q325 623 286 598.5 Q247 574 247 529 Q247 517 251.5 507.5 Q256 498 268 489 Q280 480 301 470.5 Q322 461 355 450 Q394 437 426.5 424.5 Q459 412 482 395.5 Q505 379 517.5 356 Q530 333 530 300 Z M282 321 Q252 332 227 342.5 Q202 353 182 366 Q170 352 163.5 335 Q157 318 157 295 Q157 279 163.5 268 Q170 257 184 248 Q198 239 221.5 230 Q245 221 279 209 Q339 188 378 164 Q404 192 404 235 Q404 251 397.5 262 Q391 273 377 282 Q363 291 339.5 300 Q316 309 282 321 Z " />
<glyph glyph-name="dieresis" unicode="&#xa8;" horiz-adv-x="336" d="M78 660 Q78 689 100.5 712 Q123 735 160 735 Q186 735 201 718.5 Q216 702 216 680 Q216 650 192.5 628 Q169 606 133 606 Q107 606 92.5 622 Q78 638 78 660 Z M247 660 Q247 689 269.5 712 Q292 735 329 735 Q355 735 370 718.5 Q385 702 385 680 Q385 650 361.5 628 Q338 606 302 606 Q276 606 261.5 622 Q247 638 247 660 Z " />
<glyph glyph-name="copyright" unicode="&#xa9;" horiz-adv-x="810" d="M56 349 Q56 423 84 488.5 Q112 554 161 603 Q210 652 275 680.5 Q340 709 415 709 Q489 709 554.5 680.5 Q620 652 669 603 Q718 554 746.5 488.5 Q775 423 775 349 Q775 274 746.5 209 Q718 144 669 95 Q620 46 554.5 18 Q489 -10 415 -10 Q340 -10 275 18 Q210 46 161 95 Q112 144 84 209 Q56 274 56 349 Z M114 349 Q114 285 137.5 229 Q161 173 202 131.5 Q243 90 298 66 Q353 42 415 42 Q477 42 532 66 Q587 90 628 131.5 Q669 173 692.5 229 Q716 285 716 349 Q716 413 692.5 469 Q669 525 628 567 Q587 609 532 633 Q477 657 415 657 Q353 657 298 633 Q243 609 202 567 Q161 525 137.5 469 Q114 413 114 349 Z M560 145 Q539 136 507 127.5 Q475 119 424 119 Q316 119 257.5 178 Q199 237 199 349 Q199 457 261.5 518 Q324 579 438 579 Q461 579 482 576.5 Q503 574 519 572 Q537 568 552 565 L552 438 L484 438 L484 489 L473 500 Q466 501 456.5 501.5 Q447 502 438 502 Q380 501 355.5 463 Q331 425 331 358 Q331 280 357 239 Q383 198 443 198 L461 198 Q472 198 480 199 L492 211 L492 267 L560 267 L560 145 Z " />
<glyph glyph-name="ordfeminine" unicode="&#xaa;" horiz-adv-x="408" d="M319 386 Q308 386 297.5 387 Q287 388 278.5 391.5 Q270 395 265.5 402 Q261 409 263 422 L265 435 L263 435 Q249 416 226 398 Q203 380 173 380 Q130 380 107.5 412.5 Q85 445 85 494 Q85 534 95 573 Q105 612 124.5 642.5 Q144 673 173 691.5 Q202 710 239 710 Q265 710 284 698.5 Q303 687 313 672 L327 693 Q331 699 335 701.5 Q339 704 350 704 L414 704 L359 446 L368 435 L394 435 L383 386 L319 386 Z M218 456 Q228 456 243 463.5 Q258 471 273 488 L301 619 Q286 637 263 637 Q244 637 229.5 626 Q215 615 205 597.5 Q195 580 189.5 557.5 Q184 535 184 511 Q184 488 191 472 Q198 456 218 456 Z " />
<glyph glyph-name="guillemotleft" unicode="&#xab;" horiz-adv-x="504" d="M29.0158 283.014 L224.004 463.003 L304.999 463.003 L145.009 253.016 L212.005 46.0283 L141.009 46.0283 L18.0165 232.017 L29.0158 283.014 Z M225.016 283.014 L420.004 463.003 L500.999 463.003 L341.009 253.016 L408.005 46.0283 L337.009 46.0283 L214.016 232.017 L225.016 283.014 Z " />
<glyph glyph-name="logicalnot" unicode="&#xac;" horiz-adv-x="573" d="M66 386 L494 386 L494 157 L399 157 L399 292 L66 292 L66 386 Z " />
<glyph glyph-name="uni00AD" unicode="&#xad;" horiz-adv-x="348" d="M63 335 L299 335 L276 230 L40 230 L63 335 Z " />
<glyph glyph-name="registered" unicode="&#xae;" horiz-adv-x="665" d="M72 421 Q72 481 94.5 533.5 Q117 586 156 625 Q195 664 247 687 Q299 710 358 710 Q418 710 470 687 Q522 664 561 625 Q600 586 622.5 533.5 Q645 481 645 421 Q645 361 622.5 308.5 Q600 256 561 217 Q522 178 470 155 Q418 132 358 132 Q299 132 247 155 Q195 178 156 217 Q117 256 94.5 308.5 Q72 361 72 421 Z M122 421 Q122 370 140.5 325.5 Q159 281 191.5 248 Q224 215 267 195.5 Q310 176 359 176 Q408 176 451 195.5 Q494 215 526 249 Q558 283 576.5 327 Q595 371 595 421 Q595 472 576.5 516.5 Q558 561 526 594 Q494 627 451 646.5 Q408 666 359 666 Q310 666 267 646.5 Q224 627 191.5 594 Q159 561 140.5 516.5 Q122 472 122 421 Z M232 318 L240 326 L240 518 L232 525 L212 525 L212 578 L369 578 Q429 578 464 557.5 Q499 537 499 491 Q499 471 492.5 457 Q486 443 476 434 Q466 425 454 420 Q442 415 430 414 L430 412 Q447 409 456 398.5 Q465 388 475 365 L493 325 L503 318 L516 318 L516 265 L431 265 Q407 265 402 288 L383 354 Q378 371 375 375.5 Q372 380 362 380 L332 380 L332 326 L340 318 L363 318 L363 265 L212 265 L212 318 L232 318 Z M332 514 L332 445 L367 445 Q389 445 396.5 453.5 Q404 462 404 481 Q404 496 396.5 505 Q389 514 367 514 L332 514 Z " />
<glyph glyph-name="macron" unicode="&#xaf;" horiz-adv-x="392" d="M144 706 L402 706 L383 618 L125 618 L144 706 Z " />
<glyph glyph-name="degree" unicode="&#xb0;" horiz-adv-x="373" d="M89 559 Q89 590 101 617.5 Q113 645 133.5 665.5 Q154 686 181 698 Q208 710 239 710 Q270 710 297.5 698 Q325 686 345.5 665.5 Q366 645 378 617.5 Q390 590 390 559 Q390 528 378 501 Q366 474 345.5 453.5 Q325 433 297.5 421 Q270 409 239 409 Q208 409 181 421 Q154 433 133.5 453.5 Q113 474 101 501 Q89 528 89 559 Z M171 559 Q171 529 191.5 508 Q212 487 239 487 Q266 487 286 508 Q306 529 306 559 Q306 589 286 610 Q266 631 239 631 Q212 631 191.5 610 Q171 589 171 559 Z " />
<glyph glyph-name="plusminus" unicode="&#xb1;" horiz-adv-x="570" d="M67 461 L234 461 L234 603 L328 603 L328 461 L495 461 L495 367 L328 367 L328 225 L234 225 L234 367 L67 367 L67 461 Z M67 182 L495 182 L495 88 L67 88 L67 182 Z " />
<glyph glyph-name="twosuperior" unicode="&#xb2;" horiz-adv-x="290" d="M140 813 Q155 819 173 824 Q188 828 208 831.5 Q228 835 251 835 Q279 835 298 828.5 Q317 822 329 811.5 Q341 801 346 787 Q351 773 351 759 Q351 737 345 720.5 Q339 704 325 688.5 Q311 673 288.5 657.5 Q266 642 232 623 Q216 614 206 608 Q196 602 190 598 Q184 594 181.5 589.5 Q179 585 178 579 L177 573 L254 573 L262 581 L270 615 L329 615 L305 506 L71 506 L84 565 Q88 586 95 600 Q102 614 114 626 Q126 638 144 650 Q162 662 189 678 Q226 699 240.5 712.5 Q255 726 255 750 Q255 759 249.5 766 Q244 773 230 773 Q211 773 200 769 L191 761 L184 733 L123 733 L140 813 Z " />
<glyph glyph-name="threesuperior" unicode="&#xb3;" horiz-adv-x="279" d="M90 601 L151 601 L144 572 L151 564 Q153 562 160 560.5 Q167 559 178 559 Q203 559 215.5 575.5 Q228 592 228 615 Q228 645 200 645 L158 645 L169 700 L211 700 Q229 700 240 713.5 Q251 727 251 750 Q251 761 244.5 768.5 Q238 776 222 776 Q213 776 207 775 Q201 774 199 773 L189 765 L182 737 L122 737 L139 818 Q154 822 172 826 Q187 829 206 832 Q225 835 246 835 Q273 835 291.5 829 Q310 823 321 812.5 Q332 802 337 788.5 Q342 775 342 760 Q342 728 325 705 Q308 682 275 672 L275 669 Q318 654 318 610 Q318 590 310.5 570.5 Q303 551 286.5 535.5 Q270 520 244.5 510.5 Q219 501 182 501 Q159 501 139.5 503.5 Q120 506 105 510 Q87 514 73 520 L90 601 Z " />
<glyph glyph-name="acute" unicode="&#xb4;" horiz-adv-x="409" d="M327 756 L378 668 L196 577 L174 577 L142 623 L299 756 L327 756 Z " />
<glyph glyph-name="paragraph" unicode="&#xb6;" horiz-adv-x="637" d="M464 700 L279 -170 L201 -170 L290 250 Q184 251 124 300 Q64 349 64 447 Q64 512 86 559.5 Q108 607 148 638.5 Q188 670 244.5 685 Q301 700 370 700 L464 700 Z M599 597 L436 -170 L358 -170 L543 700 L682 700 L664 615 L621 615 L599 597 Z " />
<glyph glyph-name="periodcentered" unicode="&#xb7;" horiz-adv-x="260" d="M58 364 Q58 382 65.5 399 Q73 416 86.5 429 Q100 442 118.5 450 Q137 458 160 458 Q192 458 211 437.5 Q230 417 230 390 Q230 352 201 324.5 Q172 297 126 297 Q94 297 76 317 Q58 337 58 364 Z " />
<glyph glyph-name="cedilla" unicode="&#xb8;" horiz-adv-x="392" d="M77 -46 L141 15 L219 15 L168 -36 Q206 -36 227.5 -50 Q249 -64 249 -90 Q249 -116 236.5 -133 Q224 -150 204.5 -160.5 Q185 -171 160.5 -175.5 Q136 -180 112 -180 Q80 -180 53 -171.5 Q26 -163 12 -151 L41 -109 Q49 -114 69 -122 Q89 -130 109 -130 Q124 -130 135 -124.5 Q146 -119 146 -103 Q146 -89 126 -80 Q106 -71 73 -66 L77 -46 Z " />
<glyph glyph-name="onesuperior" unicode="&#xb9;" horiz-adv-x="232" d="M173 805 Q189 805 203.5 813.5 Q218 822 223 833 L280 833 L222 562 L229 554 L267 554 L256 506 L70 506 L81 554 L118 554 L127 562 L167 749 L161 757 L124 757 L134 805 L173 805 Z " />
<glyph glyph-name="ordmasculine" unicode="&#xba;" horiz-adv-x="365" d="M380 583 Q380 532 365.5 494 Q351 456 327 430.5 Q303 405 272.5 392.5 Q242 380 211 380 Q185 380 162 387.5 Q139 395 122 410.5 Q105 426 95 450 Q85 474 85 506 Q85 557 99.5 595 Q114 633 138 658.5 Q162 684 192 697 Q222 710 254 710 Q280 710 303 702 Q326 694 343 678.5 Q360 663 370 639 Q380 615 380 583 Z M286 603 Q286 623 279.5 635.5 Q273 648 251 648 Q230 648 216.5 629.5 Q203 611 194.5 585.5 Q186 560 182.5 532.5 Q179 505 179 487 Q179 467 185.5 454.5 Q192 442 214 442 Q235 442 248.5 460 Q262 478 270.5 503.5 Q279 529 282.5 556.5 Q286 584 286 603 Z " />
<glyph glyph-name="guillemotright" unicode="&#xbb;" horiz-adv-x="504" d="M259 226 L64 46 L-17 46 L143 256 L76 463 L147 463 L270 277 L259 226 Z M455 226 L260 46 L179 46 L339 256 L272 463 L343 463 L466 277 L455 226 Z " />
<glyph glyph-name="onequarter" unicode="&#xbc;" horiz-adv-x="617" d="M288 133 L469 327 L558 327 L518 139 L554 139 L542 87 L506 87 L500 56 L506 48 L534 48 L524 0 L353 0 L363 48 L397 48 L407 56 L413 87 L278 87 L288 133 Z M425 139 L444 229 L361 139 L425 139 Z M156 675 Q172 675 186.5 683.5 Q201 692 206 703 L263 703 L205 432 L212 424 L250 424 L239 376 L53 376 L64 424 L101 424 L110 432 L150 619 L144 627 L107 627 L117 675 L156 675 Z M524 700 L596 700 L100 0 L28 0 L524 700 Z " />
<glyph glyph-name="onehalf" unicode="&#xbd;" horiz-adv-x="633" d="M373 307 Q388 313 406 318 Q421 322 441 325.5 Q461 329 484 329 Q512 329 531 322.5 Q550 316 562 305.5 Q574 295 579 281 Q584 267 584 253 Q584 231 578 214.5 Q572 198 558 182.5 Q544 167 521.5 151.5 Q499 136 465 117 Q449 108 439 102 Q429 96 423 92 Q417 88 414.5 83.5 Q412 79 411 73 L410 67 L487 67 L495 75 L503 109 L562 109 L538 0 L304 0 L317 59 Q321 80 328 94 Q335 108 347 120 Q359 132 377 144 Q395 156 422 172 Q459 193 473.5 206.5 Q488 220 488 244 Q488 253 482.5 260 Q477 267 463 267 Q444 267 433 263 L424 255 L417 227 L356 227 L373 307 Z M156 675 Q172 675 186.5 683.5 Q201 692 206 703 L263 703 L205 432 L212 424 L250 424 L239 376 L53 376 L64 424 L101 424 L110 432 L150 619 L144 627 L107 627 L117 675 L156 675 Z M524 700 L596 700 L100 0 L28 0 L524 700 Z " />
<glyph glyph-name="threequarters" unicode="&#xbe;" horiz-adv-x="650" d="M321 133 L502 327 L591 327 L551 139 L587 139 L575 87 L539 87 L533 56 L539 48 L567 48 L557 0 L386 0 L396 48 L430 48 L440 56 L446 87 L311 87 L321 133 Z M458 139 L477 229 L394 139 L458 139 Z M557 700 L629 700 L133 0 L61 0 L557 700 Z M72 471 L133 471 L126 442 L133 434 Q135 432 142 430.5 Q149 429 160 429 Q185 429 197.5 445.5 Q210 462 210 485 Q210 515 182 515 L140 515 L151 570 L193 570 Q211 570 222 583.5 Q233 597 233 620 Q233 631 226.5 638.5 Q220 646 204 646 Q195 646 189 645 Q183 644 181 643 L171 635 L164 607 L104 607 L121 688 Q136 692 154 696 Q169 699 188 702 Q207 705 228 705 Q255 705 273.5 699 Q292 693 303 682.5 Q314 672 319 658.5 Q324 645 324 630 Q324 598 307 575 Q290 552 257 542 L257 539 Q300 524 300 480 Q300 460 292.5 440.5 Q285 421 268.5 405.5 Q252 390 226.5 380.5 Q201 371 164 371 Q141 371 121.5 373.5 Q102 376 87 380 Q69 384 55 390 L72 471 Z " />
<glyph glyph-name="questiondown" unicode="&#xbf;" horiz-adv-x="515" d="M393.007 -127.96 Q366.008 -142.959 333.01 -153.958 Q304.012 -163.958 266.014 -171.957 Q228.017 -179.957 181.02 -179.957 Q124.023 -179.957 82.5256 -167.457 Q41.0281 -154.958 14.0298 -134.459 Q-12.9686 -113.961 -25.9678 -86.9623 Q-38.967 -59.964 -38.967 -31.9657 Q-38.967 1.03229 -31.4674 29.0306 Q-23.9679 57.0289 -4.46909 82.0273 Q15.0297 107.026 48.0277 129.024 Q81.0257 151.023 132.023 172.022 Q158.021 183.021 175.02 190.521 Q192.019 198.02 203.018 205.52 Q214.018 213.019 219.517 221.019 Q225.017 229.018 227.017 241.018 L231.017 261.016 L270.014 305.014 L344.01 305.014 L366.008 261.016 L361.009 231.018 Q356.009 200.02 343.51 180.021 Q331.01 160.023 312.512 146.023 Q294.013 132.024 270.014 121.525 Q246.016 111.026 217.017 97.0264 Q189.019 84.0272 171.52 70.528 Q154.021 57.0289 144.022 43.5297 Q134.022 30.0305 130.523 15.5314 Q127.023 1.03229 127.023 -13.9668 Q127.023 -42.965 150.521 -61.4639 Q174.02 -79.9628 231.017 -79.9628 Q248.016 -79.9628 260.515 -77.9629 Q273.014 -75.963 282.013 -73.9631 Q293.013 -70.9633 300.012 -67.9635 L317.011 -53.9644 L334.01 24.0309 L425.005 24.0309 L393.007 -127.96 Z M427.005 469.004 Q427.005 450.005 419.005 432.006 Q411.006 414.007 397.006 400.508 Q383.007 387.009 363.508 379.009 Q344.01 371.01 320.011 371.01 Q289.013 371.01 268.514 392.508 Q248.016 414.007 248.016 442.005 Q248.016 462.004 256.015 479.503 Q264.015 497.002 278.014 510.501 Q292.013 524 312.012 532 Q332.01 539.999 356.009 539.999 Q386.007 539.999 406.506 519.001 Q427.005 498.002 427.005 469.004 Z " />
<glyph glyph-name="Agrave" unicode="&#xc0;" horiz-adv-x="654" d="M395 181 L178 181 L136 101 L149 85 L187 85 L168 0 L-71 0 L-52 85 L-14 85 L7 103 L338 702 L482 702 L567 101 L581 85 L620 85 L601 0 L337 0 L356 85 L386 85 L404 101 L395 181 Z M227 276 L384 276 L356 522 L227 276 Z M388 747 L244 838 L333 926 L356 926 L456 793 L405 747 L388 747 Z " />
<glyph glyph-name="Aacute" unicode="&#xc1;" horiz-adv-x="654" d="M395 181 L178 181 L136 101 L149 85 L187 85 L168 0 L-71 0 L-52 85 L-14 85 L7 103 L338 702 L482 702 L567 101 L581 85 L620 85 L601 0 L337 0 L356 85 L386 85 L404 101 L395 181 Z M227 276 L384 276 L356 522 L227 276 Z M406 747 L374 793 L531 926 L559 926 L610 838 L428 747 L406 747 Z " />
<glyph glyph-name="Acircumflex" unicode="&#xc2;" horiz-adv-x="654" d="M395 181 L178 181 L136 101 L149 85 L187 85 L168 0 L-71 0 L-52 85 L-14 85 L7 103 L338 702 L482 702 L567 101 L581 85 L620 85 L601 0 L337 0 L356 85 L386 85 L404 101 L395 181 Z M227 276 L384 276 L356 522 L227 276 Z M268 746 L248 780 L416 929 L463 929 L568 780 L533 746 L517 746 L421 821 L295 746 L268 746 Z " />
<glyph glyph-name="Atilde" unicode="&#xc3;" horiz-adv-x="654" d="M395 181 L178 181 L136 101 L149 85 L187 85 L168 0 L-71 0 L-52 85 L-14 85 L7 103 L338 702 L482 702 L567 101 L581 85 L620 85 L601 0 L337 0 L356 85 L386 85 L404 101 L395 181 Z M227 276 L384 276 L356 522 L227 276 Z M589 898 L579 853 Q568 803 545 780 Q522 757 477 757 Q460 757 442.5 762.5 Q425 768 407.5 775 Q390 782 373 787.5 Q356 793 341 793 Q334 793 329.5 791.5 Q325 790 322 788 Q318 786 316 784 L307 746 L244 746 L253 787 Q266 845 287.5 868.5 Q309 892 349 892 Q366 892 383.5 885.5 Q401 879 419.5 871.5 Q438 864 456.5 857.5 Q475 851 493 851 Q509 851 516 858 Q520 861 521 865 L528 898 L589 898 Z " />
<glyph glyph-name="Adieresis" unicode="&#xc4;" horiz-adv-x="654" d="M395 181 L178 181 L136 101 L149 85 L187 85 L168 0 L-71 0 L-52 85 L-14 85 L7 103 L338 702 L482 702 L567 101 L581 85 L620 85 L601 0 L337 0 L356 85 L386 85 L404 101 L395 181 Z M227 276 L384 276 L356 522 L227 276 Z M272 830 Q272 859 294.5 882 Q317 905 354 905 Q380 905 395 888.5 Q410 872 410 850 Q410 820 386.5 798 Q363 776 327 776 Q301 776 286.5 792 Q272 808 272 830 Z M441 830 Q441 859 463.5 882 Q486 905 523 905 Q549 905 564 888.5 Q579 872 579 850 Q579 820 555.5 798 Q532 776 496 776 Q470 776 455.5 792 Q441 808 441 830 Z " />
<glyph glyph-name="Aring" unicode="&#xc5;" horiz-adv-x="654" d="M395 181 L178 181 L136 101 L149 85 L187 85 L168 0 L-71 0 L-52 85 L-14 85 L7 103 L338 702 L482 702 L567 101 L581 85 L620 85 L601 0 L337 0 L356 85 L386 85 L404 101 L395 181 Z M227 276 L384 276 L356 522 L227 276 Z M438 914 Q489 914 519.5 893.5 Q550 873 550 834 Q550 809 538.5 791 Q527 773 508 761 Q489 749 464 743.5 Q439 738 411 738 Q362 738 331 757 Q300 776 300 812 Q300 839 310.5 858 Q321 877 340 889.5 Q359 902 384 908 Q409 914 438 914 Z M380 816 Q380 782 417 782 Q446 782 458 797 Q470 812 470 835 Q470 852 461.5 861 Q453 870 432 870 Q404 870 392 855 Q380 840 380 816 Z " />
<glyph glyph-name="AE" unicode="&#xc6;" horiz-adv-x="958" d="M-12 85 L8 102 L452 700 L997 700 L955 503 L868 503 L884 583 L870 600 L669 600 L629 406 L736 406 L756 422 L764 462 L844 462 L800 253 L720 253 L728 293 L715 308 L607 308 L564 100 L775 100 L796 117 L813 197 L900 197 L858 0 L323 0 L342 85 L385 85 L406 103 L423 184 L205 184 L141 94 L149 85 L185 85 L166 0 L-71 0 L-52 85 L-12 85 Z M501 599 L272 278 L443 278 L511 599 L501 599 Z " />
<glyph glyph-name="Ccedilla" unicode="&#xc7;" horiz-adv-x="584" d="M493 24 Q464 11 420 0.5 Q376 -10 312 -10 Q182 -10 111 59 Q40 128 40 256 Q40 360 70 444 Q100 528 154 587 Q208 646 283.5 678 Q359 710 451 710 Q488 710 518.5 705.5 Q549 701 572 696 Q598 690 619 682 L581 499 L486 499 L504 584 L491 601 Q481 603 470.5 604 Q460 605 448 605 Q397 605 353 585.5 Q309 566 276.5 525.5 Q244 485 225.5 421 Q207 357 207 269 Q207 231 214.5 199.5 Q222 168 238.5 145.5 Q255 123 282 111 Q309 99 348 99 Q372 99 395 102 L417 119 L437 211 L532 211 L493 24 Z M180 -46 L244 15 L322 15 L271 -36 Q309 -36 330.5 -50 Q352 -64 352 -90 Q352 -116 339.5 -133 Q327 -150 307.5 -160.5 Q288 -171 263.5 -175.5 Q239 -180 215 -180 Q183 -180 156 -171.5 Q129 -163 115 -151 L144 -109 Q152 -114 172 -122 Q192 -130 212 -130 Q227 -130 238 -124.5 Q249 -119 249 -103 Q249 -89 229 -80 Q209 -71 176 -66 L180 -46 Z " />
<glyph glyph-name="Egrave" unicode="&#xc8;" horiz-adv-x="612" d="M395 747 L251 838 L340 926 L363 926 L463 793 L412 747 L395 747 Z M325 600 L284 406 L386 406 L406 422 L414 462 L498 462 L454 253 L370 253 L378 293 L365 308 L262 308 L218 100 L424 100 L445 117 L463 197 L554 197 L512 0 L-23 0 L-4 85 L39 85 L60 103 L164 597 L150 615 L107 615 L126 700 L651 700 L609 503 L518 503 L535 583 L521 600 L325 600 Z " />
<glyph glyph-name="Eacute" unicode="&#xc9;" horiz-adv-x="612" d="M325 600 L284 406 L386 406 L406 422 L414 462 L498 462 L454 253 L370 253 L378 293 L365 308 L262 308 L218 100 L424 100 L445 117 L463 197 L554 197 L512 0 L-23 0 L-4 85 L39 85 L60 103 L164 597 L150 615 L107 615 L126 700 L651 700 L609 503 L518 503 L535 583 L521 600 L325 600 Z M413 747 L381 793 L538 926 L566 926 L617 838 L435 747 L413 747 Z " />
<glyph glyph-name="Ecircumflex" unicode="&#xca;" horiz-adv-x="612" d="M275 746 L255 780 L423 929 L470 929 L575 780 L540 746 L524 746 L428 821 L302 746 L275 746 Z M325 600 L284 406 L386 406 L406 422 L414 462 L498 462 L454 253 L370 253 L378 293 L365 308 L262 308 L218 100 L424 100 L445 117 L463 197 L554 197 L512 0 L-23 0 L-4 85 L39 85 L60 103 L164 597 L150 615 L107 615 L126 700 L651 700 L609 503 L518 503 L535 583 L521 600 L325 600 Z " />
<glyph glyph-name="Edieresis" unicode="&#xcb;" horiz-adv-x="612" d="M325 600 L284 406 L386 406 L406 422 L414 462 L498 462 L454 253 L370 253 L378 293 L365 308 L262 308 L218 100 L424 100 L445 117 L463 197 L554 197 L512 0 L-23 0 L-4 85 L39 85 L60 103 L164 597 L150 615 L107 615 L126 700 L651 700 L609 503 L518 503 L535 583 L521 600 L325 600 Z M279 830 Q279 859 301.5 882 Q324 905 361 905 Q387 905 402 888.5 Q417 872 417 850 Q417 820 393.5 798 Q370 776 334 776 Q308 776 293.5 792 Q279 808 279 830 Z M448 830 Q448 859 470.5 882 Q493 905 530 905 Q556 905 571 888.5 Q586 872 586 850 Q586 820 562.5 798 Q539 776 503 776 Q477 776 462.5 792 Q448 808 448 830 Z " />
<glyph glyph-name="Igrave" unicode="&#xcc;" horiz-adv-x="361" d="M164 597 L150 615 L107 615 L126 700 L406 700 L387 615 L343 615 L323 597 L219 103 L232 85 L276 85 L257 0 L-23 0 L-4 85 L39 85 L60 103 L164 597 Z M260 747 L116 838 L205 926 L228 926 L328 793 L277 747 L260 747 Z " />
<glyph glyph-name="Iacute" unicode="&#xcd;" horiz-adv-x="361" d="M164 597 L150 615 L107 615 L126 700 L406 700 L387 615 L343 615 L323 597 L219 103 L232 85 L276 85 L257 0 L-23 0 L-4 85 L39 85 L60 103 L164 597 Z M278 747 L246 793 L403 926 L431 926 L482 838 L300 747 L278 747 Z " />
<glyph glyph-name="Icircumflex" unicode="&#xce;" horiz-adv-x="361" d="M164 597 L150 615 L107 615 L126 700 L406 700 L387 615 L343 615 L323 597 L219 103 L232 85 L276 85 L257 0 L-23 0 L-4 85 L39 85 L60 103 L164 597 Z M140 746 L120 780 L288 929 L335 929 L440 780 L405 746 L389 746 L293 821 L167 746 L140 746 Z " />
<glyph glyph-name="Idieresis" unicode="&#xcf;" horiz-adv-x="361" d="M164 597 L150 615 L107 615 L126 700 L406 700 L387 615 L343 615 L323 597 L219 103 L232 85 L276 85 L257 0 L-23 0 L-4 85 L39 85 L60 103 L164 597 Z M144 830 Q144 859 166.5 882 Q189 905 226 905 Q252 905 267 888.5 Q282 872 282 850 Q282 820 258.5 798 Q235 776 199 776 Q173 776 158.5 792 Q144 808 144 830 Z M313 830 Q313 859 335.5 882 Q358 905 395 905 Q421 905 436 888.5 Q451 872 451 850 Q451 820 427.5 798 Q404 776 368 776 Q342 776 327.5 792 Q313 808 313 830 Z " />
<glyph glyph-name="Eth" unicode="&#xd0;" horiz-adv-x="702" d="M55 393 L122 393 L165 597 L151 615 L108 615 L127 700 L405 700 Q467 700 518 683.5 Q569 667 605 634.5 Q641 602 661 553 Q681 504 681 439 Q681 333 651.5 251 Q622 169 569 113.5 Q516 58 441.5 29 Q367 0 276 0 L-22 0 L-3 85 L40 85 L61 103 L106 320 L35 320 L55 393 Z M282 393 L416 393 L396 320 L266 320 L219 104 L301 104 Q341 104 379 125 Q417 146 447 188 Q477 230 495.5 293.5 Q514 357 514 442 Q514 520 485 558 Q456 596 384 596 L326 596 L282 393 Z " />
<glyph glyph-name="Ntilde" unicode="&#xd1;" horiz-adv-x="710" d="M617 898 L607 853 Q596 803 573 780 Q550 757 505 757 Q488 757 470.5 762.5 Q453 768 435.5 775 Q418 782 401 787.5 Q384 793 369 793 Q362 793 357.5 791.5 Q353 790 350 788 Q346 786 344 784 L335 746 L272 746 L281 787 Q294 845 315.5 868.5 Q337 892 377 892 Q394 892 411.5 885.5 Q429 879 447.5 871.5 Q466 864 484.5 857.5 Q503 851 521 851 Q537 851 544 858 Q548 861 549 865 L556 898 L617 898 Z M467 -3 L252 460 L177 103 L191 85 L235 85 L216 0 L-24 0 L-5 85 L38 85 L59 103 L163 597 L149 615 L106 615 L125 700 L304 700 L495 283 L562 597 L548 615 L505 615 L524 700 L764 700 L745 615 L701 615 L680 597 L553 -3 L467 -3 Z " />
<glyph glyph-name="Ograve" unicode="&#xd2;" horiz-adv-x="684" d="M411 747 L267 838 L356 926 L379 926 L479 793 L428 747 L411 747 Z M406 710 Q474 710 523 689 Q572 668 604 632 Q636 596 651 547 Q666 498 666 443 Q666 391 656 337.5 Q646 284 625.5 234 Q605 184 575 139.5 Q545 95 504.5 61.5 Q464 28 413 9 Q362 -10 301 -10 Q233 -10 184 11 Q135 32 102.5 68 Q70 104 54.5 151.5 Q39 199 39 253 Q39 305 49 359 Q59 413 79 463.5 Q99 514 129 559 Q159 604 200 637.5 Q241 671 292 690.5 Q343 710 406 710 Z M399 603 Q364 603 336.5 583.5 Q309 564 287.5 532.5 Q266 501 250.5 460.5 Q235 420 225 377.5 Q215 335 210.5 294.5 Q206 254 206 222 Q206 162 227.5 129.5 Q249 97 304 97 Q338 97 365.5 115.5 Q393 134 414.5 165 Q436 196 452 235.5 Q468 275 478.5 316.5 Q489 358 494 398.5 Q499 439 499 471 Q499 536 477.5 569.5 Q456 603 399 603 Z " />
<glyph glyph-name="Oacute" unicode="&#xd3;" horiz-adv-x="684" d="M429 747 L397 793 L554 926 L582 926 L633 838 L451 747 L429 747 Z M406 710 Q474 710 523 689 Q572 668 604 632 Q636 596 651 547 Q666 498 666 443 Q666 391 656 337.5 Q646 284 625.5 234 Q605 184 575 139.5 Q545 95 504.5 61.5 Q464 28 413 9 Q362 -10 301 -10 Q233 -10 184 11 Q135 32 102.5 68 Q70 104 54.5 151.5 Q39 199 39 253 Q39 305 49 359 Q59 413 79 463.5 Q99 514 129 559 Q159 604 200 637.5 Q241 671 292 690.5 Q343 710 406 710 Z M399 603 Q364 603 336.5 583.5 Q309 564 287.5 532.5 Q266 501 250.5 460.5 Q235 420 225 377.5 Q215 335 210.5 294.5 Q206 254 206 222 Q206 162 227.5 129.5 Q249 97 304 97 Q338 97 365.5 115.5 Q393 134 414.5 165 Q436 196 452 235.5 Q468 275 478.5 316.5 Q489 358 494 398.5 Q499 439 499 471 Q499 536 477.5 569.5 Q456 603 399 603 Z " />
<glyph glyph-name="Ocircumflex" unicode="&#xd4;" horiz-adv-x="684" d="M291 746 L271 780 L439 929 L486 929 L591 780 L556 746 L540 746 L444 821 L318 746 L291 746 Z M406 710 Q474 710 523 689 Q572 668 604 632 Q636 596 651 547 Q666 498 666 443 Q666 391 656 337.5 Q646 284 625.5 234 Q605 184 575 139.5 Q545 95 504.5 61.5 Q464 28 413 9 Q362 -10 301 -10 Q233 -10 184 11 Q135 32 102.5 68 Q70 104 54.5 151.5 Q39 199 39 253 Q39 305 49 359 Q59 413 79 463.5 Q99 514 129 559 Q159 604 200 637.5 Q241 671 292 690.5 Q343 710 406 710 Z M399 603 Q364 603 336.5 583.5 Q309 564 287.5 532.5 Q266 501 250.5 460.5 Q235 420 225 377.5 Q215 335 210.5 294.5 Q206 254 206 222 Q206 162 227.5 129.5 Q249 97 304 97 Q338 97 365.5 115.5 Q393 134 414.5 165 Q436 196 452 235.5 Q468 275 478.5 316.5 Q489 358 494 398.5 Q499 439 499 471 Q499 536 477.5 569.5 Q456 603 399 603 Z " />
<glyph glyph-name="Otilde" unicode="&#xd5;" horiz-adv-x="684" d="M406 710 Q474 710 523 689 Q572 668 604 632 Q636 596 651 547 Q666 498 666 443 Q666 391 656 337.5 Q646 284 625.5 234 Q605 184 575 139.5 Q545 95 504.5 61.5 Q464 28 413 9 Q362 -10 301 -10 Q233 -10 184 11 Q135 32 102.5 68 Q70 104 54.5 151.5 Q39 199 39 253 Q39 305 49 359 Q59 413 79 463.5 Q99 514 129 559 Q159 604 200 637.5 Q241 671 292 690.5 Q343 710 406 710 Z M399 603 Q364 603 336.5 583.5 Q309 564 287.5 532.5 Q266 501 250.5 460.5 Q235 420 225 377.5 Q215 335 210.5 294.5 Q206 254 206 222 Q206 162 227.5 129.5 Q249 97 304 97 Q338 97 365.5 115.5 Q393 134 414.5 165 Q436 196 452 235.5 Q468 275 478.5 316.5 Q489 358 494 398.5 Q499 439 499 471 Q499 536 477.5 569.5 Q456 603 399 603 Z M612 898 L602 853 Q591 803 568 780 Q545 757 500 757 Q483 757 465.5 762.5 Q448 768 430.5 775 Q413 782 396 787.5 Q379 793 364 793 Q357 793 352.5 791.5 Q348 790 345 788 Q341 786 339 784 L330 746 L267 746 L276 787 Q289 845 310.5 868.5 Q332 892 372 892 Q389 892 406.5 885.5 Q424 879 442.5 871.5 Q461 864 479.5 857.5 Q498 851 516 851 Q532 851 539 858 Q543 861 544 865 L551 898 L612 898 Z " />
<glyph glyph-name="Odieresis" unicode="&#xd6;" horiz-adv-x="684" d="M406 710 Q474 710 523 689 Q572 668 604 632 Q636 596 651 547 Q666 498 666 443 Q666 391 656 337.5 Q646 284 625.5 234 Q605 184 575 139.5 Q545 95 504.5 61.5 Q464 28 413 9 Q362 -10 301 -10 Q233 -10 184 11 Q135 32 102.5 68 Q70 104 54.5 151.5 Q39 199 39 253 Q39 305 49 359 Q59 413 79 463.5 Q99 514 129 559 Q159 604 200 637.5 Q241 671 292 690.5 Q343 710 406 710 Z M399 603 Q364 603 336.5 583.5 Q309 564 287.5 532.5 Q266 501 250.5 460.5 Q235 420 225 377.5 Q215 335 210.5 294.5 Q206 254 206 222 Q206 162 227.5 129.5 Q249 97 304 97 Q338 97 365.5 115.5 Q393 134 414.5 165 Q436 196 452 235.5 Q468 275 478.5 316.5 Q489 358 494 398.5 Q499 439 499 471 Q499 536 477.5 569.5 Q456 603 399 603 Z M295 830 Q295 859 317.5 882 Q340 905 377 905 Q403 905 418 888.5 Q433 872 433 850 Q433 820 409.5 798 Q386 776 350 776 Q324 776 309.5 792 Q295 808 295 830 Z M464 830 Q464 859 486.5 882 Q509 905 546 905 Q572 905 587 888.5 Q602 872 602 850 Q602 820 578.5 798 Q555 776 519 776 Q493 776 478.5 792 Q464 808 464 830 Z " />
<glyph glyph-name="multiply" unicode="&#xd7;" horiz-adv-x="516" d="M61 204 L192 334 L61 465 L133 536 L263 405 L393 536 L465 465 L333 334 L465 204 L394 132 L263 264 L132 132 L61 204 Z " />
<glyph glyph-name="Oslash" unicode="&#xd8;" horiz-adv-x="685" d="M406 710 Q469 710 515.5 692 Q562 674 594 642 L656 710 L735 710 L630 595 Q666 530 666 443 Q666 392 656 338 Q646 284 625.5 234 Q605 184 575 139.5 Q545 95 504.5 61.5 Q464 28 413 9 Q362 -10 301 -10 Q244 -10 200.5 5 Q157 20 125 46 L74 -10 L-6 -10 L85 89 Q62 123 50.5 164.5 Q39 206 39 253 Q39 305 49 359 Q59 413 79 463.5 Q99 514 129 559 Q159 604 200 637.5 Q241 671 292 690.5 Q343 710 406 710 Z M399 603 Q364 603 336.5 583.5 Q309 564 287.5 532.5 Q266 501 250.5 460.5 Q235 420 225 377.5 Q215 335 210.5 294.5 Q206 254 206 222 L206 220 L493 533 Q484 568 462 585.5 Q440 603 399 603 Z M304 97 Q336 97 362.5 114 Q389 131 410.5 159.5 Q432 188 447.5 225 Q463 262 474 301.5 Q485 341 491 380 Q497 419 498 452 L218 147 Q229 122 249 109.5 Q269 97 304 97 Z " />
<glyph glyph-name="Ugrave" unicode="&#xd9;" horiz-adv-x="669" d="M426 747 L282 838 L371 926 L394 926 L494 793 L443 747 L426 747 Z M523 597 L509 615 L466 615 L484 700 L728 700 L710 615 L666 615 L645 597 L567 230 Q553 165 528.5 119.5 Q504 74 469.5 45 Q435 16 392 3 Q349 -10 298 -10 Q189 -10 126 32.5 Q63 75 63 166 Q63 198 70 230 L148 597 L134 615 L91 615 L109 700 L391 700 L373 615 L329 615 L308 597 L230 228 Q227 212 225 198.5 Q223 185 223 173 Q223 142 244.5 119 Q266 96 315 96 Q345 96 366.5 104.5 Q388 113 403 129.5 Q418 146 428 170.5 Q438 195 445 228 L523 597 Z " />
<glyph glyph-name="Uacute" unicode="&#xda;" horiz-adv-x="669" d="M523 597 L509 615 L466 615 L484 700 L728 700 L710 615 L666 615 L645 597 L567 230 Q553 165 528.5 119.5 Q504 74 469.5 45 Q435 16 392 3 Q349 -10 298 -10 Q189 -10 126 32.5 Q63 75 63 166 Q63 198 70 230 L148 597 L134 615 L91 615 L109 700 L391 700 L373 615 L329 615 L308 597 L230 228 Q227 212 225 198.5 Q223 185 223 173 Q223 142 244.5 119 Q266 96 315 96 Q345 96 366.5 104.5 Q388 113 403 129.5 Q418 146 428 170.5 Q438 195 445 228 L523 597 Z M444 747 L412 793 L569 926 L597 926 L648 838 L466 747 L444 747 Z " />
<glyph glyph-name="Ucircumflex" unicode="&#xdb;" horiz-adv-x="669" d="M306 746 L286 780 L454 929 L501 929 L606 780 L571 746 L555 746 L459 821 L333 746 L306 746 Z M523 597 L509 615 L466 615 L484 700 L728 700 L710 615 L666 615 L645 597 L567 230 Q553 165 528.5 119.5 Q504 74 469.5 45 Q435 16 392 3 Q349 -10 298 -10 Q189 -10 126 32.5 Q63 75 63 166 Q63 198 70 230 L148 597 L134 615 L91 615 L109 700 L391 700 L373 615 L329 615 L308 597 L230 228 Q227 212 225 198.5 Q223 185 223 173 Q223 142 244.5 119 Q266 96 315 96 Q345 96 366.5 104.5 Q388 113 403 129.5 Q418 146 428 170.5 Q438 195 445 228 L523 597 Z " />
<glyph glyph-name="Udieresis" unicode="&#xdc;" horiz-adv-x="669" d="M523 597 L509 615 L466 615 L484 700 L728 700 L710 615 L666 615 L645 597 L567 230 Q553 165 528.5 119.5 Q504 74 469.5 45 Q435 16 392 3 Q349 -10 298 -10 Q189 -10 126 32.5 Q63 75 63 166 Q63 198 70 230 L148 597 L134 615 L91 615 L109 700 L391 700 L373 615 L329 615 L308 597 L230 228 Q227 212 225 198.5 Q223 185 223 173 Q223 142 244.5 119 Q266 96 315 96 Q345 96 366.5 104.5 Q388 113 403 129.5 Q418 146 428 170.5 Q438 195 445 228 L523 597 Z M310 830 Q310 859 332.5 882 Q355 905 392 905 Q418 905 433 888.5 Q448 872 448 850 Q448 820 424.5 798 Q401 776 365 776 Q339 776 324.5 792 Q310 808 310 830 Z M479 830 Q479 859 501.5 882 Q524 905 561 905 Q587 905 602 888.5 Q617 872 617 850 Q617 820 593.5 798 Q570 776 534 776 Q508 776 493.5 792 Q479 808 479 830 Z " />
<glyph glyph-name="Yacute" unicode="&#xdd;" horiz-adv-x="612" d="M109 0 L128 85 L171 85 L192 103 L225 259 L105 598 L92 615 L55 615 L73 700 L340 700 L322 615 L290 615 L272 600 L346 391 L491 599 L479 615 L446 615 L464 700 L695 700 L677 615 L640 615 L621 599 L391 292 L351 102 L364 85 L409 85 L390 0 L109 0 Z M426 747 L394 793 L551 926 L579 926 L630 838 L448 747 L426 747 Z " />
<glyph glyph-name="Ygrave" unicode="&#x1ef2;" horiz-adv-x="612" d="M109 0 L128 85 L171 85 L192 103 L225 259 L105 598 L92 615 L55 615 L73 700 L340 700 L322 615 L290 615 L272 600 L346 391 L491 599 L479 615 L446 615 L464 700 L695 700 L677 615 L640 615 L621 599 L391 292 L351 102 L364 85 L409 85 L390 0 L109 0 Z M393 747 L249 838 L338 926 L361 926 L461 793 L410 747 L393 747 Z " />
<glyph glyph-name="Thorn" unicode="&#xde;" horiz-adv-x="634" d="M257 0 L-23 0 L-4 85 L39 85 L60 103 L164 597 L150 615 L107 615 L126 700 L406 700 L387 615 L343 615 L323 597 L317 570 L380 570 Q493 570 558.5 525.5 Q624 481 624 387 Q624 324 600.5 278 Q577 232 534.5 201 Q492 170 432.5 155 Q373 140 300 140 L227 140 L219 103 L232 85 L276 85 L257 0 Z M297 472 L247 238 L320 238 Q382 238 420 273.5 Q458 309 458 386 Q458 428 435.5 450 Q413 472 358 472 L297 472 Z " />
<glyph glyph-name="germandbls" unicode="&#xdf;" horiz-adv-x="605" d="M361 141 L349 83 L360 67 L365 67 Q396 67 408 83 Q420 99 420 127 Q420 149 403 174 Q386 199 361 225 Q333 256 319 284 Q305 312 305 341 Q305 371 315.5 390 Q326 409 342.5 424 Q359 439 377.5 453 Q396 467 412.5 486 Q429 505 439.5 533 Q450 561 450 604 Q450 625 444 639 Q438 653 428.5 660.5 Q419 668 407.5 671 Q396 674 386 674 Q369 674 353 669 Q337 664 323 651 Q309 638 298 616 Q287 594 280 560 L161 2 Q153 -33 137 -66 Q121 -99 93.5 -124.5 Q66 -150 27 -165 Q-12 -180 -64 -180 Q-91 -180 -110.5 -178.5 Q-130 -177 -143 -175 Q-158 -172 -168 -169 L-143 -57 L-58 -57 L-68 -98 L-58 -111 L-57 -111 Q-43 -111 -31.5 -102.5 Q-20 -94 -11.5 -79.5 Q-3 -65 3 -46 Q9 -27 14 -7 L111 445 L47 445 L64 528 L110 528 L132 546 L132 547 Q139 581 160 615.5 Q181 650 214 677.5 Q247 705 292 722.5 Q337 740 392 740 Q422 740 454.5 733.5 Q487 727 514 712 Q541 697 558.5 671.5 Q576 646 576 607 Q576 557 554 526 Q532 495 506 474 Q480 453 458 436 Q436 419 436 397 Q436 378 447.5 362.5 Q459 347 478 321 Q493 301 507.5 280.5 Q522 260 534 239 Q546 218 553 196 Q560 174 560 149 Q560 116 547 87 Q534 58 510.5 36.5 Q487 15 454 2.5 Q421 -10 381 -10 Q350 -10 327.5 -7 Q305 -4 289 1 Q271 6 257 13 L284 141 L361 141 Z " />
<glyph glyph-name="agrave" unicode="&#xe0;" horiz-adv-x="582" d="M14 175 Q14 244 32.5 310 Q51 376 86.5 427 Q122 478 172.5 509 Q223 540 288 540 Q364 540 403 493 L415 512 Q422 523 429 526.5 Q436 530 453 530 L552 530 L460 98 L475 80 L519 80 L501 0 L403 0 Q385 0 367.5 1 Q350 2 336.5 8 Q323 14 315.5 25.5 Q308 37 310 58 L312 78 L309 78 Q285 38 248 14 Q211 -10 165 -10 Q128 -10 99.5 4 Q71 18 52 42.5 Q33 67 23.5 101 Q14 135 14 175 Z M232 103 Q249 103 274 115 Q299 127 323 154 L377 411 Q364 419 350 424 Q336 429 319 429 Q282 429 254 408 Q226 387 207 353.5 Q188 320 178 276.5 Q168 233 168 188 Q168 149 182 126 Q196 103 232 103 Z M159 668 L248 756 L271 756 L371 623 L320 577 L303 577 L159 668 Z " />
<glyph glyph-name="aacute" unicode="&#xe1;" horiz-adv-x="582" d="M14 175 Q14 244 32.5 310 Q51 376 86.5 427 Q122 478 172.5 509 Q223 540 288 540 Q364 540 403 493 L415 512 Q422 523 429 526.5 Q436 530 453 530 L552 530 L460 98 L475 80 L519 80 L501 0 L403 0 Q385 0 367.5 1 Q350 2 336.5 8 Q323 14 315.5 25.5 Q308 37 310 58 L312 78 L309 78 Q285 38 248 14 Q211 -10 165 -10 Q128 -10 99.5 4 Q71 18 52 42.5 Q33 67 23.5 101 Q14 135 14 175 Z M232 103 Q249 103 274 115 Q299 127 323 154 L377 411 Q364 419 350 424 Q336 429 319 429 Q282 429 254 408 Q226 387 207 353.5 Q188 320 178 276.5 Q168 233 168 188 Q168 149 182 126 Q196 103 232 103 Z M471 756 L522 668 L340 577 L318 577 L286 623 L443 756 L471 756 Z " />
<glyph glyph-name="acircumflex" unicode="&#xe2;" horiz-adv-x="582" d="M14 175 Q14 244 32.5 310 Q51 376 86.5 427 Q122 478 172.5 509 Q223 540 288 540 Q364 540 403 493 L415 512 Q422 523 429 526.5 Q436 530 453 530 L552 530 L460 98 L475 80 L519 80 L501 0 L403 0 Q385 0 367.5 1 Q350 2 336.5 8 Q323 14 315.5 25.5 Q308 37 310 58 L312 78 L309 78 Q285 38 248 14 Q211 -10 165 -10 Q128 -10 99.5 4 Q71 18 52 42.5 Q33 67 23.5 101 Q14 135 14 175 Z M232 103 Q249 103 274 115 Q299 127 323 154 L377 411 Q364 419 350 424 Q336 429 319 429 Q282 429 254 408 Q226 387 207 353.5 Q188 320 178 276.5 Q168 233 168 188 Q168 149 182 126 Q196 103 232 103 Z M191 573 L171 607 L339 756 L386 756 L491 607 L456 573 L440 573 L344 648 L218 573 L191 573 Z " />
<glyph glyph-name="atilde" unicode="&#xe3;" horiz-adv-x="582" d="M14 175 Q14 244 32.5 310 Q51 376 86.5 427 Q122 478 172.5 509 Q223 540 288 540 Q364 540 403 493 L415 512 Q422 523 429 526.5 Q436 530 453 530 L552 530 L460 98 L475 80 L519 80 L501 0 L403 0 Q385 0 367.5 1 Q350 2 336.5 8 Q323 14 315.5 25.5 Q308 37 310 58 L312 78 L309 78 Q285 38 248 14 Q211 -10 165 -10 Q128 -10 99.5 4 Q71 18 52 42.5 Q33 67 23.5 101 Q14 135 14 175 Z M232 103 Q249 103 274 115 Q299 127 323 154 L377 411 Q364 419 350 424 Q336 429 319 429 Q282 429 254 408 Q226 387 207 353.5 Q188 320 178 276.5 Q168 233 168 188 Q168 149 182 126 Q196 103 232 103 Z M424 681 Q440 681 447 688 Q451 691 452 695 L459 728 L520 728 L510 683 Q499 633 476 610 Q453 587 408 587 Q391 587 373.5 592.5 Q356 598 338.5 605 Q321 612 304 617.5 Q287 623 272 623 Q265 623 260.5 621.5 Q256 620 253 618 Q249 616 247 614 L238 576 L175 576 L184 617 Q197 675 218.5 698.5 Q240 722 280 722 Q297 722 314.5 715.5 Q332 709 350.5 701.5 Q369 694 387.5 687.5 Q406 681 424 681 Z " />
<glyph glyph-name="adieresis" unicode="&#xe4;" horiz-adv-x="582" d="M14 175 Q14 244 32.5 310 Q51 376 86.5 427 Q122 478 172.5 509 Q223 540 288 540 Q364 540 403 493 L415 512 Q422 523 429 526.5 Q436 530 453 530 L552 530 L460 98 L475 80 L519 80 L501 0 L403 0 Q385 0 367.5 1 Q350 2 336.5 8 Q323 14 315.5 25.5 Q308 37 310 58 L312 78 L309 78 Q285 38 248 14 Q211 -10 165 -10 Q128 -10 99.5 4 Q71 18 52 42.5 Q33 67 23.5 101 Q14 135 14 175 Z M232 103 Q249 103 274 115 Q299 127 323 154 L377 411 Q364 419 350 424 Q336 429 319 429 Q282 429 254 408 Q226 387 207 353.5 Q188 320 178 276.5 Q168 233 168 188 Q168 149 182 126 Q196 103 232 103 Z M196 660 Q196 689 218.5 712 Q241 735 278 735 Q304 735 319 718.5 Q334 702 334 680 Q334 650 310.5 628 Q287 606 251 606 Q225 606 210.5 622 Q196 638 196 660 Z M365 660 Q365 689 387.5 712 Q410 735 447 735 Q473 735 488 718.5 Q503 702 503 680 Q503 650 479.5 628 Q456 606 420 606 Q394 606 379.5 622 Q365 638 365 660 Z " />
<glyph glyph-name="aring" unicode="&#xe5;" horiz-adv-x="582" d="M14 175 Q14 244 32.5 310 Q51 376 86.5 427 Q122 478 172.5 509 Q223 540 288 540 Q364 540 403 493 L415 512 Q422 523 429 526.5 Q436 530 453 530 L552 530 L460 98 L475 80 L519 80 L501 0 L403 0 Q385 0 367.5 1 Q350 2 336.5 8 Q323 14 315.5 25.5 Q308 37 310 58 L312 78 L309 78 Q285 38 248 14 Q211 -10 165 -10 Q128 -10 99.5 4 Q71 18 52 42.5 Q33 67 23.5 101 Q14 135 14 175 Z M232 103 Q249 103 274 115 Q299 127 323 154 L377 411 Q364 419 350 424 Q336 429 319 429 Q282 429 254 408 Q226 387 207 353.5 Q188 320 178 276.5 Q168 233 168 188 Q168 149 182 126 Q196 103 232 103 Z M361 744 Q412 744 442.5 723.5 Q473 703 473 664 Q473 639 461.5 621 Q450 603 431 591 Q412 579 387 573.5 Q362 568 334 568 Q285 568 254 587 Q223 606 223 642 Q223 669 233.5 688 Q244 707 263 719.5 Q282 732 307 738 Q332 744 361 744 Z M303 646 Q303 612 340 612 Q369 612 381 627 Q393 642 393 665 Q393 682 384.5 691 Q376 700 355 700 Q327 700 315 685 Q303 670 303 646 Z " />
<glyph glyph-name="ae" unicode="&#xe6;" horiz-adv-x="759" d="M114 516 Q139 523 168 528 Q193 533 226 536.5 Q259 540 297 540 Q405 540 431 480 Q499 540 582 540 Q660 540 705.5 506 Q751 472 751 409 Q751 354 720 318 Q689 282 643.5 260 Q598 238 545 228.5 Q492 219 447 217 L447 195 Q447 140 471.5 113 Q496 86 550 86 Q579 86 605 97 Q631 108 655 127 L686 67 Q673 53 655.5 39.5 Q638 26 615 15 Q592 4 563.5 -3 Q535 -10 501 -10 Q440 -10 391.5 12 Q343 34 317 85 Q306 73 288.5 57 Q271 41 248 26 Q225 11 196 0.5 Q167 -10 133 -10 Q94 -10 67.5 1 Q41 12 24 31 Q7 50 -0.5 74.5 Q-8 99 -8 126 Q-8 168 7 200 Q22 232 49 254 Q76 276 114 287 Q152 298 198 298 L309 298 L320 346 Q322 357 324 367.5 Q326 378 326 387 Q326 413 309.5 427 Q293 441 248 441 Q228 441 203 438 L186 423 L172 356 L80 356 L114 516 Z M572 449 Q556 449 538.5 441 Q521 433 505.5 415 Q490 397 476.5 368 Q463 339 456 298 Q483 298 512 301.5 Q541 305 564 315.5 Q587 326 602 345 Q617 364 617 396 Q617 449 572 449 Z M296 186 L296 201 Q296 209 297 217 L222 217 Q142 217 142 155 Q142 129 153.5 116 Q165 103 192 103 Q223 103 250.5 114 Q278 125 299 138 Q296 160 296 186 Z " />
<glyph glyph-name="ccedilla" unicode="&#xe7;" horiz-adv-x="474" d="M420 109 Q393 49 341.5 19.5 Q290 -10 218 -10 Q179 -10 142.5 1.5 Q106 13 77.5 38 Q49 63 32 102.5 Q15 142 15 197 Q15 278 40.5 341.5 Q66 405 109 449.5 Q152 494 208.5 517 Q265 540 328 540 Q360 540 387 536.5 Q414 533 433 529 Q455 524 473 518 L437 348 L342 348 L359 429 L344 446 Q340 447 333 447 L319 447 Q276 447 247 424 Q218 401 200.5 366.5 Q183 332 175.5 290.5 Q168 249 168 213 Q168 150 195 120 Q222 90 270 90 Q289 90 305.5 96.5 Q322 103 335.5 113 Q349 123 359.5 134.5 Q370 146 378 156 L420 109 Z M106 -46 L170 15 L248 15 L197 -36 Q235 -36 256.5 -50 Q278 -64 278 -90 Q278 -116 265.5 -133 Q253 -150 233.5 -160.5 Q214 -171 189.5 -175.5 Q165 -180 141 -180 Q109 -180 82 -171.5 Q55 -163 41 -151 L70 -109 Q78 -114 98 -122 Q118 -130 138 -130 Q153 -130 164 -124.5 Q175 -119 175 -103 Q175 -89 155 -80 Q135 -71 102 -66 L106 -46 Z " />
<glyph glyph-name="egrave" unicode="&#xe8;" horiz-adv-x="492" d="M225 -10 Q182 -10 144 1 Q106 12 77.5 37 Q49 62 32.5 101 Q16 140 16 196 Q16 276 40 339.5 Q64 403 104.5 447.5 Q145 492 197.5 516 Q250 540 307 540 Q387 540 434 505 Q481 470 481 406 Q481 370 466.5 342 Q452 314 428 292 Q404 270 372 254.5 Q340 239 305.5 228.5 Q271 218 236 211 Q201 204 170 201 L170 200 Q170 144 196 117 Q222 90 272 90 Q310 90 339.5 108.5 Q369 127 387 146 L427 94 Q416 78 398.5 59.5 Q381 41 356.5 25.5 Q332 10 299.5 0 Q267 -10 225 -10 Z M296 451 Q279 451 260 441 Q241 431 224.5 410 Q208 389 194.5 355.5 Q181 322 175 276 Q203 280 232.5 285.5 Q262 291 286 303 Q310 315 325.5 336 Q341 357 341 393 Q341 451 296 451 Z M144 668 L233 756 L256 756 L356 623 L305 577 L288 577 L144 668 Z " />
<glyph glyph-name="eacute" unicode="&#xe9;" horiz-adv-x="492" d="M456 756 L507 668 L325 577 L303 577 L271 623 L428 756 L456 756 Z M225 -10 Q182 -10 144 1 Q106 12 77.5 37 Q49 62 32.5 101 Q16 140 16 196 Q16 276 40 339.5 Q64 403 104.5 447.5 Q145 492 197.5 516 Q250 540 307 540 Q387 540 434 505 Q481 470 481 406 Q481 370 466.5 342 Q452 314 428 292 Q404 270 372 254.5 Q340 239 305.5 228.5 Q271 218 236 211 Q201 204 170 201 L170 200 Q170 144 196 117 Q222 90 272 90 Q310 90 339.5 108.5 Q369 127 387 146 L427 94 Q416 78 398.5 59.5 Q381 41 356.5 25.5 Q332 10 299.5 0 Q267 -10 225 -10 Z M296 451 Q279 451 260 441 Q241 431 224.5 410 Q208 389 194.5 355.5 Q181 322 175 276 Q203 280 232.5 285.5 Q262 291 286 303 Q310 315 325.5 336 Q341 357 341 393 Q341 451 296 451 Z " />
<glyph glyph-name="ecircumflex" unicode="&#xea;" horiz-adv-x="492" d="M176 573 L156 607 L324 756 L371 756 L476 607 L441 573 L425 573 L329 648 L203 573 L176 573 Z M225 -10 Q182 -10 144 1 Q106 12 77.5 37 Q49 62 32.5 101 Q16 140 16 196 Q16 276 40 339.5 Q64 403 104.5 447.5 Q145 492 197.5 516 Q250 540 307 540 Q387 540 434 505 Q481 470 481 406 Q481 370 466.5 342 Q452 314 428 292 Q404 270 372 254.5 Q340 239 305.5 228.5 Q271 218 236 211 Q201 204 170 201 L170 200 Q170 144 196 117 Q222 90 272 90 Q310 90 339.5 108.5 Q369 127 387 146 L427 94 Q416 78 398.5 59.5 Q381 41 356.5 25.5 Q332 10 299.5 0 Q267 -10 225 -10 Z M296 451 Q279 451 260 441 Q241 431 224.5 410 Q208 389 194.5 355.5 Q181 322 175 276 Q203 280 232.5 285.5 Q262 291 286 303 Q310 315 325.5 336 Q341 357 341 393 Q341 451 296 451 Z " />
<glyph glyph-name="edieresis" unicode="&#xeb;" horiz-adv-x="492" d="M181 660 Q181 689 203.5 712 Q226 735 263 735 Q289 735 304 718.5 Q319 702 319 680 Q319 650 295.5 628 Q272 606 236 606 Q210 606 195.5 622 Q181 638 181 660 Z M350 660 Q350 689 372.5 712 Q395 735 432 735 Q458 735 473 718.5 Q488 702 488 680 Q488 650 464.5 628 Q441 606 405 606 Q379 606 364.5 622 Q350 638 350 660 Z M225 -10 Q182 -10 144 1 Q106 12 77.5 37 Q49 62 32.5 101 Q16 140 16 196 Q16 276 40 339.5 Q64 403 104.5 447.5 Q145 492 197.5 516 Q250 540 307 540 Q387 540 434 505 Q481 470 481 406 Q481 370 466.5 342 Q452 314 428 292 Q404 270 372 254.5 Q340 239 305.5 228.5 Q271 218 236 211 Q201 204 170 201 L170 200 Q170 144 196 117 Q222 90 272 90 Q310 90 339.5 108.5 Q369 127 387 146 L427 94 Q416 78 398.5 59.5 Q381 41 356.5 25.5 Q332 10 299.5 0 Q267 -10 225 -10 Z M296 451 Q279 451 260 441 Q241 431 224.5 410 Q208 389 194.5 355.5 Q181 322 175 276 Q203 280 232.5 285.5 Q262 291 286 303 Q310 315 325.5 336 Q341 357 341 393 Q341 451 296 451 Z " />
<glyph glyph-name="igrave" unicode="&#xec;" horiz-adv-x="311" d="M108 427 L94 445 L50 445 L69 530 L234 530 Q264 530 268.5 516 Q273 502 270 486 L187 98 L202 80 L246 80 L229 0 L126 0 Q106 0 87 2 Q68 4 54.5 12.5 Q41 21 35.5 39.5 Q30 58 37 91 L108 427 Z M44 668 L133 756 L156 756 L256 623 L205 577 L188 577 L44 668 Z " />
<glyph glyph-name="iacute" unicode="&#xed;" horiz-adv-x="309" d="M343 756 L394 668 L212 577 L190 577 L158 623 L315 756 L343 756 Z M107 427 L93 445 L49 445 L68 530 L233 530 Q263 530 267.5 516 Q272 502 269 486 L186 98 L201 80 L245 80 L228 0 L125 0 Q105 0 86 2 Q67 4 53.5 12.5 Q40 21 34.5 39.5 Q29 58 36 91 L107 427 Z " />
<glyph glyph-name="icircumflex" unicode="&#xee;" horiz-adv-x="310" d="M66 573 L46 607 L214 756 L261 756 L366 607 L331 573 L315 573 L219 648 L93 573 L66 573 Z M108 427 L94 445 L50 445 L69 530 L234 530 Q264 530 268.5 516 Q273 502 270 486 L187 98 L202 80 L246 80 L229 0 L126 0 Q106 0 87 2 Q68 4 54.5 12.5 Q41 21 35.5 39.5 Q30 58 37 91 L108 427 Z " />
<glyph glyph-name="idieresis" unicode="&#xef;" horiz-adv-x="309" d="M70 660 Q70 689 92.5 712 Q115 735 152 735 Q178 735 193 718.5 Q208 702 208 680 Q208 650 184.5 628 Q161 606 125 606 Q99 606 84.5 622 Q70 638 70 660 Z M239 660 Q239 689 261.5 712 Q284 735 321 735 Q347 735 362 718.5 Q377 702 377 680 Q377 650 353.5 628 Q330 606 294 606 Q268 606 253.5 622 Q239 638 239 660 Z M107 427 L93 445 L49 445 L68 530 L233 530 Q263 530 267.5 516 Q272 502 269 486 L186 98 L201 80 L245 80 L228 0 L125 0 Q105 0 86 2 Q67 4 53.5 12.5 Q40 21 34.5 39.5 Q29 58 36 91 L107 427 Z " />
<glyph glyph-name="eth" unicode="&#xf0;" horiz-adv-x="550" d="M236 622 L286 643 Q276 655 266 666.5 Q256 678 245 690 L305 741 Q348 717 383 684 L462 717 L476 663 L422 640 Q448 606 466 567.5 Q484 529 495.5 489 Q507 449 512 408.5 Q517 368 517 331 Q517 247 492.5 183 Q468 119 428 76 Q388 33 337 11.5 Q286 -10 233 -10 Q189 -10 150 3 Q111 16 82 42.5 Q53 69 36 110 Q19 151 19 207 Q19 289 42.5 351.5 Q66 414 105 456 Q144 498 193.5 519 Q243 540 294 540 Q309 540 324.5 538 Q340 536 351 529 Q344 549 336 565.5 Q328 582 318 598 L248 569 L236 622 Z M173 201 Q173 141 187 114.5 Q201 88 236 88 Q272 88 296.5 114 Q321 140 335.5 179 Q350 218 356.5 262.5 Q363 307 363 343 Q363 392 349 417 Q335 442 300 442 Q264 442 239.5 416 Q215 390 200.5 353 Q186 316 179.5 274 Q173 232 173 201 Z " />
<glyph glyph-name="ntilde" unicode="&#xf1;" horiz-adv-x="594" d="M14 0 L106 427 L92 445 L47 445 L66 530 L225 530 Q240 530 248 526 Q256 522 259.5 515.5 Q263 509 262.5 501 Q262 493 261 486 L254 457 L260 457 Q272 472 287 486.5 Q302 501 321.5 513 Q341 525 364.5 532.5 Q388 540 417 540 Q477 540 508.5 507.5 Q540 475 540 419 Q540 395 534 370 L476 98 L491 80 L535 80 L517 0 L414 0 Q393 0 374 1.5 Q355 3 341.5 12 Q328 21 323 39.5 Q318 58 325 91 L382 356 Q384 364 385 371 Q386 378 386 386 Q386 403 377 415 Q368 427 341 427 Q327 427 313 422 Q299 417 286 410 Q273 403 262.5 395 Q252 387 245 381 L163 0 L14 0 Z M440 681 Q456 681 463 688 Q467 691 468 695 L475 728 L536 728 L526 683 Q515 633 492 610 Q469 587 424 587 Q407 587 389.5 592.5 Q372 598 354.5 605 Q337 612 320 617.5 Q303 623 288 623 Q281 623 276.5 621.5 Q272 620 269 618 Q265 616 263 614 L254 576 L191 576 L200 617 Q213 675 234.5 698.5 Q256 722 296 722 Q313 722 330.5 715.5 Q348 709 366.5 701.5 Q385 694 403.5 687.5 Q422 681 440 681 Z " />
<glyph glyph-name="ograve" unicode="&#xf2;" horiz-adv-x="549" d="M172 201 Q172 141 186 114.5 Q200 88 235 88 Q271 88 295.5 114 Q320 140 334.5 179 Q349 218 355.5 262.5 Q362 307 362 343 Q362 392 348 417 Q334 442 299 442 Q263 442 238.5 416 Q214 390 199.5 353 Q185 316 178.5 274 Q172 232 172 201 Z M18 207 Q18 289 42.5 351.5 Q67 414 107 456 Q147 498 198 519 Q249 540 302 540 Q347 540 386 527.5 Q425 515 454 489 Q483 463 499.5 424 Q516 385 516 331 Q516 247 491.5 183.5 Q467 120 427 77 Q387 34 336 12 Q285 -10 232 -10 Q188 -10 149 3 Q110 16 81 42.5 Q52 69 35 110 Q18 151 18 207 Z M160 668 L249 756 L272 756 L372 623 L321 577 L304 577 L160 668 Z " />
<glyph glyph-name="oacute" unicode="&#xf3;" horiz-adv-x="549" d="M472 756 L523 668 L341 577 L319 577 L287 623 L444 756 L472 756 Z M172 201 Q172 141 186 114.5 Q200 88 235 88 Q271 88 295.5 114 Q320 140 334.5 179 Q349 218 355.5 262.5 Q362 307 362 343 Q362 392 348 417 Q334 442 299 442 Q263 442 238.5 416 Q214 390 199.5 353 Q185 316 178.5 274 Q172 232 172 201 Z M18 207 Q18 289 42.5 351.5 Q67 414 107 456 Q147 498 198 519 Q249 540 302 540 Q347 540 386 527.5 Q425 515 454 489 Q483 463 499.5 424 Q516 385 516 331 Q516 247 491.5 183.5 Q467 120 427 77 Q387 34 336 12 Q285 -10 232 -10 Q188 -10 149 3 Q110 16 81 42.5 Q52 69 35 110 Q18 151 18 207 Z " />
<glyph glyph-name="ocircumflex" unicode="&#xf4;" horiz-adv-x="549" d="M192 573 L172 607 L340 756 L387 756 L492 607 L457 573 L441 573 L345 648 L219 573 L192 573 Z M172 201 Q172 141 186 114.5 Q200 88 235 88 Q271 88 295.5 114 Q320 140 334.5 179 Q349 218 355.5 262.5 Q362 307 362 343 Q362 392 348 417 Q334 442 299 442 Q263 442 238.5 416 Q214 390 199.5 353 Q185 316 178.5 274 Q172 232 172 201 Z M18 207 Q18 289 42.5 351.5 Q67 414 107 456 Q147 498 198 519 Q249 540 302 540 Q347 540 386 527.5 Q425 515 454 489 Q483 463 499.5 424 Q516 385 516 331 Q516 247 491.5 183.5 Q467 120 427 77 Q387 34 336 12 Q285 -10 232 -10 Q188 -10 149 3 Q110 16 81 42.5 Q52 69 35 110 Q18 151 18 207 Z " />
<glyph glyph-name="otilde" unicode="&#xf5;" horiz-adv-x="549" d="M172 201 Q172 141 186 114.5 Q200 88 235 88 Q271 88 295.5 114 Q320 140 334.5 179 Q349 218 355.5 262.5 Q362 307 362 343 Q362 392 348 417 Q334 442 299 442 Q263 442 238.5 416 Q214 390 199.5 353 Q185 316 178.5 274 Q172 232 172 201 Z M18 207 Q18 289 42.5 351.5 Q67 414 107 456 Q147 498 198 519 Q249 540 302 540 Q347 540 386 527.5 Q425 515 454 489 Q483 463 499.5 424 Q516 385 516 331 Q516 247 491.5 183.5 Q467 120 427 77 Q387 34 336 12 Q285 -10 232 -10 Q188 -10 149 3 Q110 16 81 42.5 Q52 69 35 110 Q18 151 18 207 Z M425 681 Q441 681 448 688 Q452 691 453 695 L460 728 L521 728 L511 683 Q500 633 477 610 Q454 587 409 587 Q392 587 374.5 592.5 Q357 598 339.5 605 Q322 612 305 617.5 Q288 623 273 623 Q266 623 261.5 621.5 Q257 620 254 618 Q250 616 248 614 L239 576 L176 576 L185 617 Q198 675 219.5 698.5 Q241 722 281 722 Q298 722 315.5 715.5 Q333 709 351.5 701.5 Q370 694 388.5 687.5 Q407 681 425 681 Z " />
<glyph glyph-name="odieresis" unicode="&#xf6;" horiz-adv-x="549" d="M197 660 Q197 689 219.5 712 Q242 735 279 735 Q305 735 320 718.5 Q335 702 335 680 Q335 650 311.5 628 Q288 606 252 606 Q226 606 211.5 622 Q197 638 197 660 Z M366 660 Q366 689 388.5 712 Q411 735 448 735 Q474 735 489 718.5 Q504 702 504 680 Q504 650 480.5 628 Q457 606 421 606 Q395 606 380.5 622 Q366 638 366 660 Z M172 201 Q172 141 186 114.5 Q200 88 235 88 Q271 88 295.5 114 Q320 140 334.5 179 Q349 218 355.5 262.5 Q362 307 362 343 Q362 392 348 417 Q334 442 299 442 Q263 442 238.5 416 Q214 390 199.5 353 Q185 316 178.5 274 Q172 232 172 201 Z M18 207 Q18 289 42.5 351.5 Q67 414 107 456 Q147 498 198 519 Q249 540 302 540 Q347 540 386 527.5 Q425 515 454 489 Q483 463 499.5 424 Q516 385 516 331 Q516 247 491.5 183.5 Q467 120 427 77 Q387 34 336 12 Q285 -10 232 -10 Q188 -10 149 3 Q110 16 81 42.5 Q52 69 35 110 Q18 151 18 207 Z " />
<glyph glyph-name="divide" unicode="&#xf7;" horiz-adv-x="513" d="M198 501 Q198 529 218 548 Q238 567 264 567 Q290 567 310 548 Q330 529 330 501 Q330 475 310 455.5 Q290 436 264 436 Q238 436 218 455.5 Q198 475 198 501 Z M198 175 Q198 203 218 222 Q238 241 264 241 Q290 241 310 222 Q330 203 330 175 Q330 149 310 129.5 Q290 110 264 110 Q238 110 218 129.5 Q198 149 198 175 Z M50 386 L478 386 L478 291 L50 291 L50 386 Z " />
<glyph glyph-name="oslash" unicode="&#xf8;" horiz-adv-x="551" d="M19 207 Q19 289 43.5 351.5 Q68 414 108 456 Q148 498 199 519 Q250 540 303 540 Q345 540 381 529 Q417 518 446 495 L488 540 L564 540 L484 454 Q517 404 517 331 Q517 247 492.5 183.5 Q468 120 428 77 Q388 34 337 12 Q286 -10 233 -10 Q192 -10 156.5 0.5 Q121 11 93 33 L53 -10 L-24 -10 L54 74 Q37 100 28 132.5 Q19 165 19 207 Z M300 442 Q264 442 239.5 416 Q215 390 200.5 353 Q186 316 179.5 274 Q173 232 173 201 L356 399 Q344 442 300 442 Z M236 88 Q270 88 293 111 Q316 134 331 169 Q346 204 353 245.5 Q360 287 362 323 L181 128 Q194 88 236 88 Z " />
<glyph glyph-name="ugrave" unicode="&#xf9;" horiz-adv-x="589" d="M410 0 Q392 0 374 1.5 Q356 3 342 9 Q328 15 320.5 26.5 Q313 38 316 59 L318 73 L314 73 Q302 58 286.5 43 Q271 28 252.5 16.5 Q234 5 211.5 -2.5 Q189 -10 162 -10 Q102 -10 70.5 22.5 Q39 55 39 111 Q39 134 45 160 L102 427 L87 445 L43 445 L62 530 L165 530 Q186 530 205 528 Q224 526 237.5 517 Q251 508 256 490 Q261 472 254 439 L197 174 Q195 166 194 159 Q193 152 193 144 Q193 127 202 115 Q211 103 238 103 Q251 103 264.5 108 Q278 113 289.5 120 Q301 127 311 135.5 Q321 144 329 151 L411 530 L560 530 L466 100 L481 80 L525 80 L508 0 L410 0 Z M179 668 L268 756 L291 756 L391 623 L340 577 L323 577 L179 668 Z " />
<glyph glyph-name="uacute" unicode="&#xfa;" horiz-adv-x="589" d="M491 756 L542 668 L360 577 L338 577 L306 623 L463 756 L491 756 Z M410 0 Q392 0 374 1.5 Q356 3 342 9 Q328 15 320.5 26.5 Q313 38 316 59 L318 73 L314 73 Q302 58 286.5 43 Q271 28 252.5 16.5 Q234 5 211.5 -2.5 Q189 -10 162 -10 Q102 -10 70.5 22.5 Q39 55 39 111 Q39 134 45 160 L102 427 L87 445 L43 445 L62 530 L165 530 Q186 530 205 528 Q224 526 237.5 517 Q251 508 256 490 Q261 472 254 439 L197 174 Q195 166 194 159 Q193 152 193 144 Q193 127 202 115 Q211 103 238 103 Q251 103 264.5 108 Q278 113 289.5 120 Q301 127 311 135.5 Q321 144 329 151 L411 530 L560 530 L466 100 L481 80 L525 80 L508 0 L410 0 Z " />
<glyph glyph-name="ucircumflex" unicode="&#xfb;" horiz-adv-x="589" d="M211 573 L191 607 L359 756 L406 756 L511 607 L476 573 L460 573 L364 648 L238 573 L211 573 Z M410 0 Q392 0 374 1.5 Q356 3 342 9 Q328 15 320.5 26.5 Q313 38 316 59 L318 73 L314 73 Q302 58 286.5 43 Q271 28 252.5 16.5 Q234 5 211.5 -2.5 Q189 -10 162 -10 Q102 -10 70.5 22.5 Q39 55 39 111 Q39 134 45 160 L102 427 L87 445 L43 445 L62 530 L165 530 Q186 530 205 528 Q224 526 237.5 517 Q251 508 256 490 Q261 472 254 439 L197 174 Q195 166 194 159 Q193 152 193 144 Q193 127 202 115 Q211 103 238 103 Q251 103 264.5 108 Q278 113 289.5 120 Q301 127 311 135.5 Q321 144 329 151 L411 530 L560 530 L466 100 L481 80 L525 80 L508 0 L410 0 Z " />
<glyph glyph-name="udieresis" unicode="&#xfc;" horiz-adv-x="589" d="M216 660 Q216 689 238.5 712 Q261 735 298 735 Q324 735 339 718.5 Q354 702 354 680 Q354 650 330.5 628 Q307 606 271 606 Q245 606 230.5 622 Q216 638 216 660 Z M385 660 Q385 689 407.5 712 Q430 735 467 735 Q493 735 508 718.5 Q523 702 523 680 Q523 650 499.5 628 Q476 606 440 606 Q414 606 399.5 622 Q385 638 385 660 Z M410 0 Q392 0 374 1.5 Q356 3 342 9 Q328 15 320.5 26.5 Q313 38 316 59 L318 73 L314 73 Q302 58 286.5 43 Q271 28 252.5 16.5 Q234 5 211.5 -2.5 Q189 -10 162 -10 Q102 -10 70.5 22.5 Q39 55 39 111 Q39 134 45 160 L102 427 L87 445 L43 445 L62 530 L165 530 Q186 530 205 528 Q224 526 237.5 517 Q251 508 256 490 Q261 472 254 439 L197 174 Q195 166 194 159 Q193 152 193 144 Q193 127 202 115 Q211 103 238 103 Q251 103 264.5 108 Q278 113 289.5 120 Q301 127 311 135.5 Q321 144 329 151 L411 530 L560 530 L466 100 L481 80 L525 80 L508 0 L410 0 Z " />
<glyph glyph-name="yacute" unicode="&#xfd;" horiz-adv-x="557" d="M148 530 Q163 530 178 528 Q193 526 206 517.5 Q219 509 229 492.5 Q239 476 243 447 L280 184 L418 427 L406 445 L380 445 L399 530 L488 530 Q514 530 530 522.5 Q546 515 553 502 Q560 489 557.5 473 Q555 457 545 439 L252 -72 L264 -90 L306 -90 L291 -170 L44 -170 L59 -90 L113 -90 L135 -72 L169 -12 L93 428 L78 445 L33 445 L52 530 L148 530 Z M480 756 L531 668 L349 577 L327 577 L295 623 L452 756 L480 756 Z " />
<glyph glyph-name="ygrave" unicode="&#x1ef3;" horiz-adv-x="557" d="M148 530 Q163 530 178 528 Q193 526 206 517.5 Q219 509 229 492.5 Q239 476 243 447 L280 184 L418 427 L406 445 L380 445 L399 530 L488 530 Q514 530 530 522.5 Q546 515 553 502 Q560 489 557.5 473 Q555 457 545 439 L252 -72 L264 -90 L306 -90 L291 -170 L44 -170 L59 -90 L113 -90 L135 -72 L169 -12 L93 428 L78 445 L33 445 L52 530 L148 530 Z M167 668 L256 756 L279 756 L379 623 L328 577 L311 577 L167 668 Z " />
<glyph glyph-name="thorn" unicode="&#xfe;" horiz-adv-x="567" d="M246 457 Q270 495 306 517.5 Q342 540 387 540 Q424 540 452.5 526 Q481 512 500 487 Q519 462 528.5 428.5 Q538 395 538 355 Q538 286 519.5 220 Q501 154 465.5 103 Q430 52 379 21 Q328 -10 264 -10 Q194 -10 155 29 L134 -72 L146 -90 L196 -90 L180 -170 L-96 -170 L-80 -90 L-37 -90 L-15 -72 L134 627 L121 645 L77 645 L94 730 L259 730 Q288 730 293.5 717 Q299 704 295 686 L246 457 Z M320 427 Q303 427 278 415 Q253 403 229 376 L174 118 Q200 101 233 101 Q270 101 298 122 Q326 143 345 176.5 Q364 210 374 253.5 Q384 297 384 342 Q384 381 370 404 Q356 427 320 427 Z " />
<glyph glyph-name="ydieresis" unicode="&#xff;" horiz-adv-x="557" d="M148 530 Q163 530 178 528 Q193 526 206 517.5 Q219 509 229 492.5 Q239 476 243 447 L280 184 L418 427 L406 445 L380 445 L399 530 L488 530 Q514 530 530 522.5 Q546 515 553 502 Q560 489 557.5 473 Q555 457 545 439 L252 -72 L264 -90 L306 -90 L291 -170 L44 -170 L59 -90 L113 -90 L135 -72 L169 -12 L93 428 L78 445 L33 445 L52 530 L148 530 Z M205 660 Q205 689 227.5 712 Q250 735 287 735 Q313 735 328 718.5 Q343 702 343 680 Q343 650 319.5 628 Q296 606 260 606 Q234 606 219.5 622 Q205 638 205 660 Z M374 660 Q374 689 396.5 712 Q419 735 456 735 Q482 735 497 718.5 Q512 702 512 680 Q512 650 488.5 628 Q465 606 429 606 Q403 606 388.5 622 Q374 638 374 660 Z " />
<glyph glyph-name="Amacron" unicode="&#x100;" horiz-adv-x="654" d="M395 181 L178 181 L136 101 L149 85 L187 85 L168 0 L-71 0 L-52 85 L-14 85 L7 103 L338 702 L482 702 L567 101 L581 85 L620 85 L601 0 L337 0 L356 85 L386 85 L404 101 L395 181 Z M227 276 L384 276 L356 522 L227 276 Z M305 876 L563 876 L544 788 L286 788 L305 876 Z " />
<glyph glyph-name="amacron" unicode="&#x101;" horiz-adv-x="582" d="M14 175 Q14 244 32.5 310 Q51 376 86.5 427 Q122 478 172.5 509 Q223 540 288 540 Q364 540 403 493 L415 512 Q422 523 429 526.5 Q436 530 453 530 L552 530 L460 98 L475 80 L519 80 L501 0 L403 0 Q385 0 367.5 1 Q350 2 336.5 8 Q323 14 315.5 25.5 Q308 37 310 58 L312 78 L309 78 Q285 38 248 14 Q211 -10 165 -10 Q128 -10 99.5 4 Q71 18 52 42.5 Q33 67 23.5 101 Q14 135 14 175 Z M232 103 Q249 103 274 115 Q299 127 323 154 L377 411 Q364 419 350 424 Q336 429 319 429 Q282 429 254 408 Q226 387 207 353.5 Q188 320 178 276.5 Q168 233 168 188 Q168 149 182 126 Q196 103 232 103 Z M227 706 L485 706 L466 618 L208 618 L227 706 Z " />
<glyph glyph-name="Abreve" unicode="&#x102;" horiz-adv-x="654" d="M395 181 L178 181 L136 101 L149 85 L187 85 L168 0 L-71 0 L-52 85 L-14 85 L7 103 L338 702 L482 702 L567 101 L581 85 L620 85 L601 0 L337 0 L356 85 L386 85 L404 101 L395 181 Z M227 276 L384 276 L356 522 L227 276 Z M564 876 Q556 853 543 832.5 Q530 812 510.5 795.5 Q491 779 466.5 769.5 Q442 760 412 760 Q385 760 365 769.5 Q345 779 332 795 Q319 811 312.5 832 Q306 853 306 876 L374 895 Q376 875 387.5 858.5 Q399 842 425 842 Q454 842 473.5 857 Q493 872 503 891 L564 876 Z " />
<glyph glyph-name="abreve" unicode="&#x103;" horiz-adv-x="582" d="M14 175 Q14 244 32.5 310 Q51 376 86.5 427 Q122 478 172.5 509 Q223 540 288 540 Q364 540 403 493 L415 512 Q422 523 429 526.5 Q436 530 453 530 L552 530 L460 98 L475 80 L519 80 L501 0 L403 0 Q385 0 367.5 1 Q350 2 336.5 8 Q323 14 315.5 25.5 Q308 37 310 58 L312 78 L309 78 Q285 38 248 14 Q211 -10 165 -10 Q128 -10 99.5 4 Q71 18 52 42.5 Q33 67 23.5 101 Q14 135 14 175 Z M232 103 Q249 103 274 115 Q299 127 323 154 L377 411 Q364 419 350 424 Q336 429 319 429 Q282 429 254 408 Q226 387 207 353.5 Q188 320 178 276.5 Q168 233 168 188 Q168 149 182 126 Q196 103 232 103 Z M486 706 Q478 683 465 662.5 Q452 642 432.5 625.5 Q413 609 388.5 599.5 Q364 590 334 590 Q307 590 287 599.5 Q267 609 254 625 Q241 641 234.5 662 Q228 683 228 706 L296 725 Q298 705 309.5 688.5 Q321 672 347 672 Q376 672 395.5 687 Q415 702 425 721 L486 706 Z " />
<glyph glyph-name="Aogonek" unicode="&#x104;" horiz-adv-x="654" d="M395 181 L178 181 L136 101 L149 85 L187 85 L168 0 L-71 0 L-52 85 L-14 85 L7 103 L338 702 L482 702 L567 101 L581 85 L620 85 L601 0 L559 0 Q508 -10 475.5 -31 Q443 -52 443 -86 Q443 -109 454 -117.5 Q465 -126 485 -126 Q499 -126 517 -120 Q535 -114 542 -109 L553 -151 Q534 -163 503.5 -171.5 Q473 -180 441 -180 Q391 -180 364 -162.5 Q337 -145 337 -107 Q337 -70 362 -43.5 Q387 -17 425 0 L337 0 L356 85 L386 85 L404 101 L395 181 Z M227 276 L384 276 L356 522 L227 276 Z " />
<glyph glyph-name="aogonek" unicode="&#x105;" horiz-adv-x="582" d="M14 175 Q14 244 32.5 310 Q51 376 86.5 427 Q122 478 172.5 509 Q223 540 288 540 Q364 540 403 493 L415 512 Q422 523 429 526.5 Q436 530 453 530 L552 530 L460 98 L475 80 L519 80 L501 0 L474 0 Q423 -10 390.5 -31 Q358 -52 358 -86 Q358 -109 369 -117.5 Q380 -126 400 -126 Q414 -126 432 -120 Q450 -114 457 -109 L468 -151 Q449 -163 418.5 -171.5 Q388 -180 356 -180 Q306 -180 279 -162.5 Q252 -145 252 -107 Q252 -68 279.5 -40.5 Q307 -13 349 4 Q330 9 318.5 20.5 Q307 32 310 58 L312 78 L309 78 Q285 38 248 14 Q211 -10 165 -10 Q128 -10 99.5 4 Q71 18 52 42.5 Q33 67 23.5 101 Q14 135 14 175 Z M232 103 Q249 103 274 115 Q299 127 323 154 L377 411 Q364 419 350 424 Q336 429 319 429 Q282 429 254 408 Q226 387 207 353.5 Q188 320 178 276.5 Q168 233 168 188 Q168 149 182 126 Q196 103 232 103 Z " />
<glyph glyph-name="Cacute" unicode="&#x106;" horiz-adv-x="584" d="M493 24 Q464 11 420 0.5 Q376 -10 312 -10 Q182 -10 111 59 Q40 128 40 256 Q40 360 70 444 Q100 528 154 587 Q208 646 283.5 678 Q359 710 451 710 Q488 710 518.5 705.5 Q549 701 572 696 Q598 690 619 682 L581 499 L486 499 L504 584 L491 601 Q481 603 470.5 604 Q460 605 448 605 Q397 605 353 585.5 Q309 566 276.5 525.5 Q244 485 225.5 421 Q207 357 207 269 Q207 231 214.5 199.5 Q222 168 238.5 145.5 Q255 123 282 111 Q309 99 348 99 Q372 99 395 102 L417 119 L437 211 L532 211 L493 24 Z M461 747 L429 793 L586 926 L614 926 L665 838 L483 747 L461 747 Z " />
<glyph glyph-name="cacute" unicode="&#x107;" horiz-adv-x="474" d="M467 756 L518 668 L336 577 L314 577 L282 623 L439 756 L467 756 Z M420 109 Q393 49 341.5 19.5 Q290 -10 218 -10 Q179 -10 142.5 1.5 Q106 13 77.5 38 Q49 63 32 102.5 Q15 142 15 197 Q15 278 40.5 341.5 Q66 405 109 449.5 Q152 494 208.5 517 Q265 540 328 540 Q360 540 387 536.5 Q414 533 433 529 Q455 524 473 518 L437 348 L342 348 L359 429 L344 446 Q340 447 333 447 L319 447 Q276 447 247 424 Q218 401 200.5 366.5 Q183 332 175.5 290.5 Q168 249 168 213 Q168 150 195 120 Q222 90 270 90 Q289 90 305.5 96.5 Q322 103 335.5 113 Q349 123 359.5 134.5 Q370 146 378 156 L420 109 Z " />
<glyph glyph-name="Ccircumflex" unicode="&#x108;" horiz-adv-x="584" d="M493 24 Q464 11 420 0.5 Q376 -10 312 -10 Q182 -10 111 59 Q40 128 40 256 Q40 360 70 444 Q100 528 154 587 Q208 646 283.5 678 Q359 710 451 710 Q488 710 518.5 705.5 Q549 701 572 696 Q598 690 619 682 L581 499 L486 499 L504 584 L491 601 Q481 603 470.5 604 Q460 605 448 605 Q397 605 353 585.5 Q309 566 276.5 525.5 Q244 485 225.5 421 Q207 357 207 269 Q207 231 214.5 199.5 Q222 168 238.5 145.5 Q255 123 282 111 Q309 99 348 99 Q372 99 395 102 L417 119 L437 211 L532 211 L493 24 Z M323 746 L303 780 L471 929 L518 929 L623 780 L588 746 L572 746 L476 821 L350 746 L323 746 Z " />
<glyph glyph-name="ccircumflex" unicode="&#x109;" horiz-adv-x="474" d="M187 573 L167 607 L335 756 L382 756 L487 607 L452 573 L436 573 L340 648 L214 573 L187 573 Z M420 109 Q393 49 341.5 19.5 Q290 -10 218 -10 Q179 -10 142.5 1.5 Q106 13 77.5 38 Q49 63 32 102.5 Q15 142 15 197 Q15 278 40.5 341.5 Q66 405 109 449.5 Q152 494 208.5 517 Q265 540 328 540 Q360 540 387 536.5 Q414 533 433 529 Q455 524 473 518 L437 348 L342 348 L359 429 L344 446 Q340 447 333 447 L319 447 Q276 447 247 424 Q218 401 200.5 366.5 Q183 332 175.5 290.5 Q168 249 168 213 Q168 150 195 120 Q222 90 270 90 Q289 90 305.5 96.5 Q322 103 335.5 113 Q349 123 359.5 134.5 Q370 146 378 156 L420 109 Z " />
<glyph glyph-name="Cdotaccent" unicode="&#x10a;" horiz-adv-x="584" d="M393 816 Q393 834 400.5 851 Q408 868 421.5 881 Q435 894 453.5 902 Q472 910 495 910 Q527 910 546 889.5 Q565 869 565 842 Q565 804 536 776.5 Q507 749 461 749 Q429 749 411 769 Q393 789 393 816 Z M493 24 Q464 11 420 0.5 Q376 -10 312 -10 Q182 -10 111 59 Q40 128 40 256 Q40 360 70 444 Q100 528 154 587 Q208 646 283.5 678 Q359 710 451 710 Q488 710 518.5 705.5 Q549 701 572 696 Q598 690 619 682 L581 499 L486 499 L504 584 L491 601 Q481 603 470.5 604 Q460 605 448 605 Q397 605 353 585.5 Q309 566 276.5 525.5 Q244 485 225.5 421 Q207 357 207 269 Q207 231 214.5 199.5 Q222 168 238.5 145.5 Q255 123 282 111 Q309 99 348 99 Q372 99 395 102 L417 119 L437 211 L532 211 L493 24 Z " />
<glyph glyph-name="cdotaccent" unicode="&#x10b;" horiz-adv-x="474" d="M420 109 Q393 49 341.5 19.5 Q290 -10 218 -10 Q179 -10 142.5 1.5 Q106 13 77.5 38 Q49 63 32 102.5 Q15 142 15 197 Q15 278 40.5 341.5 Q66 405 109 449.5 Q152 494 208.5 517 Q265 540 328 540 Q360 540 387 536.5 Q414 533 433 529 Q455 524 473 518 L437 348 L342 348 L359 429 L344 446 Q340 447 333 447 L319 447 Q276 447 247 424 Q218 401 200.5 366.5 Q183 332 175.5 290.5 Q168 249 168 213 Q168 150 195 120 Q222 90 270 90 Q289 90 305.5 96.5 Q322 103 335.5 113 Q349 123 359.5 134.5 Q370 146 378 156 L420 109 Z M259 646 Q259 664 266.5 681 Q274 698 287.5 711 Q301 724 319.5 732 Q338 740 361 740 Q393 740 412 719.5 Q431 699 431 672 Q431 634 402 606.5 Q373 579 327 579 Q295 579 277 599 Q259 619 259 646 Z " />
<glyph glyph-name="Ccaron" unicode="&#x10c;" horiz-adv-x="584" d="M493 24 Q464 11 420 0.5 Q376 -10 312 -10 Q182 -10 111 59 Q40 128 40 256 Q40 360 70 444 Q100 528 154 587 Q208 646 283.5 678 Q359 710 451 710 Q488 710 518.5 705.5 Q549 701 572 696 Q598 690 619 682 L581 499 L486 499 L504 584 L491 601 Q481 603 470.5 604 Q460 605 448 605 Q397 605 353 585.5 Q309 566 276.5 525.5 Q244 485 225.5 421 Q207 357 207 269 Q207 231 214.5 199.5 Q222 168 238.5 145.5 Q255 123 282 111 Q309 99 348 99 Q372 99 395 102 L417 119 L437 211 L532 211 L493 24 Z M477 747 L430 747 L325 896 L360 930 L376 930 L472 855 L598 930 L625 930 L645 896 L477 747 Z " />
<glyph glyph-name="ccaron" unicode="&#x10d;" horiz-adv-x="474" d="M355 577 L308 577 L203 726 L238 760 L254 760 L350 685 L476 760 L503 760 L523 726 L355 577 Z M420 109 Q393 49 341.5 19.5 Q290 -10 218 -10 Q179 -10 142.5 1.5 Q106 13 77.5 38 Q49 63 32 102.5 Q15 142 15 197 Q15 278 40.5 341.5 Q66 405 109 449.5 Q152 494 208.5 517 Q265 540 328 540 Q360 540 387 536.5 Q414 533 433 529 Q455 524 473 518 L437 348 L342 348 L359 429 L344 446 Q340 447 333 447 L319 447 Q276 447 247 424 Q218 401 200.5 366.5 Q183 332 175.5 290.5 Q168 249 168 213 Q168 150 195 120 Q222 90 270 90 Q289 90 305.5 96.5 Q322 103 335.5 113 Q349 123 359.5 134.5 Q370 146 378 156 L420 109 Z " />
<glyph glyph-name="Dcaron" unicode="&#x10e;" horiz-adv-x="701" d="M-4 85 L39 85 L60 103 L164 597 L150 615 L107 615 L126 700 L404 700 Q466 700 517 683.5 Q568 667 604 634.5 Q640 602 660 553 Q680 504 680 439 Q680 333 650.5 251 Q621 169 568 113.5 Q515 58 440.5 29 Q366 0 275 0 L-23 0 L-4 85 Z M218 104 L300 104 Q340 104 378 125 Q416 146 446 188 Q476 230 494.5 293.5 Q513 357 513 442 Q513 520 484 558 Q455 596 383 596 L325 596 L218 104 Z M448 747 L401 747 L296 896 L331 930 L347 930 L443 855 L569 930 L596 930 L616 896 L448 747 Z " />
<glyph glyph-name="dcaron" unicode="&#x10f;" horiz-adv-x="610" d="M624 582 L666 780 L775 780 L762 719 L714 582 L624 582 Z M502 0 L404 0 Q386 0 368.5 1 Q351 2 337.5 8 Q324 14 316.5 25.5 Q309 37 311 58 L313 78 L309 78 Q285 38 248 14 Q211 -10 165 -10 Q128 -10 99.5 4 Q71 18 52 42.5 Q33 67 23.5 101 Q14 135 14 175 Q14 244 32.5 310 Q51 376 86.5 427 Q122 478 172.5 509 Q223 540 288 540 Q322 540 349.5 529.5 Q377 519 396 500 L424 627 L410 645 L366 645 L384 730 L549 730 Q578 730 584 717.5 Q590 705 586 686 L461 98 L476 80 L520 80 L502 0 Z M168 188 Q168 149 182 126 Q196 103 232 103 Q248 103 273 114.5 Q298 126 322 153 L377 411 Q364 419 350 424 Q336 429 319 429 Q282 429 254 408 Q226 387 207 353.5 Q188 320 178 276.5 Q168 233 168 188 Z " />
<glyph glyph-name="Dcroat" unicode="&#x110;" horiz-adv-x="702" d="M55 393 L122 393 L165 597 L151 615 L108 615 L127 700 L405 700 Q467 700 518 683.5 Q569 667 605 634.5 Q641 602 661 553 Q681 504 681 439 Q681 333 651.5 251 Q622 169 569 113.5 Q516 58 441.5 29 Q367 0 276 0 L-22 0 L-3 85 L40 85 L61 103 L106 320 L35 320 L55 393 Z M282 393 L416 393 L396 320 L266 320 L219 104 L301 104 Q341 104 379 125 Q417 146 447 188 Q477 230 495.5 293.5 Q514 357 514 442 Q514 520 485 558 Q456 596 384 596 L326 596 L282 393 Z " />
<glyph glyph-name="dcroat" unicode="&#x111;" horiz-adv-x="582" d="M302 622 L423 622 L424 627 L410 645 L366 645 L384 730 L549 730 Q578 730 584 717.5 Q590 705 586 686 L572 622 L635 622 L621 560 L559 560 L461 98 L476 80 L520 80 L502 0 L404 0 Q386 0 368.5 1 Q351 2 337.5 8 Q324 14 316.5 25.5 Q309 37 311 58 L313 78 L309 78 Q285 38 248 14 Q211 -10 165 -10 Q128 -10 99.5 4 Q71 18 52 42.5 Q33 67 23.5 101 Q14 135 14 175 Q14 244 32.5 310 Q51 376 86.5 427 Q122 478 172.5 509 Q223 540 288 540 Q322 540 349.5 529.5 Q377 519 396 500 L409 560 L288 560 L302 622 Z M168 188 Q168 149 182 126 Q196 103 232 103 Q248 103 273 114.5 Q298 126 322 153 L377 411 Q364 419 350 424 Q336 429 319 429 Q282 429 254 408 Q226 387 207 353.5 Q188 320 178 276.5 Q168 233 168 188 Z " />
<glyph glyph-name="Emacron" unicode="&#x112;" horiz-adv-x="612" d="M325 600 L284 406 L386 406 L406 422 L414 462 L498 462 L454 253 L370 253 L378 293 L365 308 L262 308 L218 100 L424 100 L445 117 L463 197 L554 197 L512 0 L-23 0 L-4 85 L39 85 L60 103 L164 597 L150 615 L107 615 L126 700 L651 700 L609 503 L518 503 L535 583 L521 600 L325 600 Z M312 876 L570 876 L551 788 L293 788 L312 876 Z " />
<glyph glyph-name="emacron" unicode="&#x113;" horiz-adv-x="492" d="M225 -10 Q182 -10 144 1 Q106 12 77.5 37 Q49 62 32.5 101 Q16 140 16 196 Q16 276 40 339.5 Q64 403 104.5 447.5 Q145 492 197.5 516 Q250 540 307 540 Q387 540 434 505 Q481 470 481 406 Q481 370 466.5 342 Q452 314 428 292 Q404 270 372 254.5 Q340 239 305.5 228.5 Q271 218 236 211 Q201 204 170 201 L170 200 Q170 144 196 117 Q222 90 272 90 Q310 90 339.5 108.5 Q369 127 387 146 L427 94 Q416 78 398.5 59.5 Q381 41 356.5 25.5 Q332 10 299.5 0 Q267 -10 225 -10 Z M296 451 Q279 451 260 441 Q241 431 224.5 410 Q208 389 194.5 355.5 Q181 322 175 276 Q203 280 232.5 285.5 Q262 291 286 303 Q310 315 325.5 336 Q341 357 341 393 Q341 451 296 451 Z M212 706 L470 706 L451 618 L193 618 L212 706 Z " />
<glyph glyph-name="Ebreve" unicode="&#x114;" horiz-adv-x="612" d="M325 600 L284 406 L386 406 L406 422 L414 462 L498 462 L454 253 L370 253 L378 293 L365 308 L262 308 L218 100 L424 100 L445 117 L463 197 L554 197 L512 0 L-23 0 L-4 85 L39 85 L60 103 L164 597 L150 615 L107 615 L126 700 L651 700 L609 503 L518 503 L535 583 L521 600 L325 600 Z M571 876 Q563 853 550 832.5 Q537 812 517.5 795.5 Q498 779 473.5 769.5 Q449 760 419 760 Q392 760 372 769.5 Q352 779 339 795 Q326 811 319.5 832 Q313 853 313 876 L381 895 Q383 875 394.5 858.5 Q406 842 432 842 Q461 842 480.5 857 Q500 872 510 891 L571 876 Z " />
<glyph glyph-name="ebreve" unicode="&#x115;" horiz-adv-x="492" d="M225 -10 Q182 -10 144 1 Q106 12 77.5 37 Q49 62 32.5 101 Q16 140 16 196 Q16 276 40 339.5 Q64 403 104.5 447.5 Q145 492 197.5 516 Q250 540 307 540 Q387 540 434 505 Q481 470 481 406 Q481 370 466.5 342 Q452 314 428 292 Q404 270 372 254.5 Q340 239 305.5 228.5 Q271 218 236 211 Q201 204 170 201 L170 200 Q170 144 196 117 Q222 90 272 90 Q310 90 339.5 108.5 Q369 127 387 146 L427 94 Q416 78 398.5 59.5 Q381 41 356.5 25.5 Q332 10 299.5 0 Q267 -10 225 -10 Z M296 451 Q279 451 260 441 Q241 431 224.5 410 Q208 389 194.5 355.5 Q181 322 175 276 Q203 280 232.5 285.5 Q262 291 286 303 Q310 315 325.5 336 Q341 357 341 393 Q341 451 296 451 Z M471 706 Q463 683 450 662.5 Q437 642 417.5 625.5 Q398 609 373.5 599.5 Q349 590 319 590 Q292 590 272 599.5 Q252 609 239 625 Q226 641 219.5 662 Q213 683 213 706 L281 725 Q283 705 294.5 688.5 Q306 672 332 672 Q361 672 380.5 687 Q400 702 410 721 L471 706 Z " />
<glyph glyph-name="Edotaccent" unicode="&#x116;" horiz-adv-x="612" d="M345 816 Q345 834 352.5 851 Q360 868 373.5 881 Q387 894 405.5 902 Q424 910 447 910 Q479 910 498 889.5 Q517 869 517 842 Q517 804 488 776.5 Q459 749 413 749 Q381 749 363 769 Q345 789 345 816 Z M325 600 L284 406 L386 406 L406 422 L414 462 L498 462 L454 253 L370 253 L378 293 L365 308 L262 308 L218 100 L424 100 L445 117 L463 197 L554 197 L512 0 L-23 0 L-4 85 L39 85 L60 103 L164 597 L150 615 L107 615 L126 700 L651 700 L609 503 L518 503 L535 583 L521 600 L325 600 Z " />
<glyph glyph-name="edotaccent" unicode="&#x117;" horiz-adv-x="492" d="M225 -10 Q182 -10 144 1 Q106 12 77.5 37 Q49 62 32.5 101 Q16 140 16 196 Q16 276 40 339.5 Q64 403 104.5 447.5 Q145 492 197.5 516 Q250 540 307 540 Q387 540 434 505 Q481 470 481 406 Q481 370 466.5 342 Q452 314 428 292 Q404 270 372 254.5 Q340 239 305.5 228.5 Q271 218 236 211 Q201 204 170 201 L170 200 Q170 144 196 117 Q222 90 272 90 Q310 90 339.5 108.5 Q369 127 387 146 L427 94 Q416 78 398.5 59.5 Q381 41 356.5 25.5 Q332 10 299.5 0 Q267 -10 225 -10 Z M296 451 Q279 451 260 441 Q241 431 224.5 410 Q208 389 194.5 355.5 Q181 322 175 276 Q203 280 232.5 285.5 Q262 291 286 303 Q310 315 325.5 336 Q341 357 341 393 Q341 451 296 451 Z M248 646 Q248 664 255.5 681 Q263 698 276.5 711 Q290 724 308.5 732 Q327 740 350 740 Q382 740 401 719.5 Q420 699 420 672 Q420 634 391 606.5 Q362 579 316 579 Q284 579 266 599 Q248 619 248 646 Z " />
<glyph glyph-name="Eogonek" unicode="&#x118;" horiz-adv-x="611" d="M324 600 L283 406 L385 406 L405 422 L413 462 L497 462 L453 253 L369 253 L377 293 L364 308 L261 308 L217 100 L423 100 L444 117 L462 197 L553 197 L511 0 L463 0 Q412 -10 379.5 -31 Q347 -52 347 -86 Q347 -109 358 -117.5 Q369 -126 389 -126 Q403 -126 421 -120 Q439 -114 446 -109 L457 -151 Q438 -163 407.5 -171.5 Q377 -180 345 -180 Q295 -180 268 -162.5 Q241 -145 241 -107 Q241 -70 266 -43.5 Q291 -17 329 0 L-24 0 L-5 85 L38 85 L59 103 L163 597 L149 615 L106 615 L125 700 L650 700 L608 503 L517 503 L534 583 L520 600 L324 600 Z " />
<glyph glyph-name="eogonek" unicode="&#x119;" horiz-adv-x="492" d="M216 -180 Q166 -180 139 -161 Q112 -142 112 -103 Q112 -71 129 -47 Q146 -23 174 -6 Q140 0 111 14.5 Q82 29 61 53.5 Q40 78 28 113.5 Q16 149 16 196 Q16 276 40 339.5 Q64 403 104.5 447.5 Q145 492 197.5 516 Q250 540 307 540 Q387 540 434 505 Q481 470 481 406 Q481 370 466.5 342 Q452 314 428 292 Q404 270 372 254.5 Q340 239 305.5 228.5 Q271 218 236 211 Q201 204 170 201 L170 200 Q170 143 196.5 116.5 Q223 90 272 90 Q310 90 339.5 108.5 Q369 127 387 146 L427 94 Q409 68 377.5 41 Q346 14 291 -2 Q257 -12 237.5 -35.5 Q218 -59 218 -82 Q218 -108 229 -117 Q240 -126 260 -126 Q274 -126 292 -120 Q310 -114 317 -109 L328 -151 Q309 -163 278.5 -171.5 Q248 -180 216 -180 Z M296 451 Q279 451 260 441 Q241 431 224.5 410 Q208 389 194.5 355.5 Q181 322 175 276 Q203 280 232.5 285.5 Q262 291 286 303 Q310 315 325.5 336 Q341 357 341 393 Q341 451 296 451 Z " />
<glyph glyph-name="Ecaron" unicode="&#x11a;" horiz-adv-x="612" d="M325 600 L284 406 L386 406 L406 422 L414 462 L498 462 L454 253 L370 253 L378 293 L365 308 L262 308 L218 100 L424 100 L445 117 L463 197 L554 197 L512 0 L-23 0 L-4 85 L39 85 L60 103 L164 597 L150 615 L107 615 L126 700 L651 700 L609 503 L518 503 L535 583 L521 600 L325 600 Z M439 747 L392 747 L287 896 L322 930 L338 930 L434 855 L560 930 L587 930 L607 896 L439 747 Z " />
<glyph glyph-name="ecaron" unicode="&#x11b;" horiz-adv-x="492" d="M344 577 L297 577 L192 726 L227 760 L243 760 L339 685 L465 760 L492 760 L512 726 L344 577 Z M225 -10 Q182 -10 144 1 Q106 12 77.5 37 Q49 62 32.5 101 Q16 140 16 196 Q16 276 40 339.5 Q64 403 104.5 447.5 Q145 492 197.5 516 Q250 540 307 540 Q387 540 434 505 Q481 470 481 406 Q481 370 466.5 342 Q452 314 428 292 Q404 270 372 254.5 Q340 239 305.5 228.5 Q271 218 236 211 Q201 204 170 201 L170 200 Q170 144 196 117 Q222 90 272 90 Q310 90 339.5 108.5 Q369 127 387 146 L427 94 Q416 78 398.5 59.5 Q381 41 356.5 25.5 Q332 10 299.5 0 Q267 -10 225 -10 Z M296 451 Q279 451 260 441 Q241 431 224.5 410 Q208 389 194.5 355.5 Q181 322 175 276 Q203 280 232.5 285.5 Q262 291 286 303 Q310 315 325.5 336 Q341 357 341 393 Q341 451 296 451 Z " />
<glyph glyph-name="Gcircumflex" unicode="&#x11c;" horiz-adv-x="631" d="M318 746 L298 780 L466 929 L513 929 L618 780 L583 746 L567 746 L471 821 L345 746 L318 746 Z M501 24 Q472 12 428.5 1 Q385 -10 318 -10 Q250 -10 198 9.5 Q146 29 111 64 Q76 99 58 147.5 Q40 196 40 253 Q40 359 70 444 Q100 529 154 588 Q208 647 283 678.5 Q358 710 448 710 Q487 710 519.5 706.5 Q552 703 576 698.5 Q600 694 615.5 689 Q631 684 636 682 L597 499 L506 499 L525 588 L512 603 Q498 606 482.5 608 Q467 610 447 610 Q394 610 349.5 590 Q305 570 273.5 528 Q242 486 224.5 420.5 Q207 355 207 264 Q207 186 241.5 136 Q276 86 346 86 Q356 86 362.5 86.5 Q369 87 374 88 L406 240 L391 258 L354 258 L373 343 L613 343 L594 258 L565 258 L546 240 L501 24 Z " />
<glyph glyph-name="gcircumflex" unicode="&#x11d;" horiz-adv-x="539" d="M151 573 L131 607 L299 756 L346 756 L451 607 L416 573 L400 573 L304 648 L178 573 L151 573 Z M48 354 Q48 398 66.5 432.5 Q85 467 116 491 Q147 515 187.5 527.5 Q228 540 272 540 Q294 540 315 537.5 Q336 535 356 530 L548 530 L531 445 L475 445 L466 438 Q472 420 472 398 Q472 350 453 313 Q434 276 402.5 251.5 Q371 227 330 214 Q289 201 244 201 Q227 201 211.5 202 Q196 203 181 206 Q165 198 155.5 188.5 Q146 179 146 168 Q146 140 189 140 L320 140 Q352 140 381 132.5 Q410 125 431.5 109.5 Q453 94 465.5 69.5 Q478 45 478 12 Q478 -38 455.5 -74 Q433 -110 393 -133.5 Q353 -157 298 -168.5 Q243 -180 178 -180 Q133 -180 94.5 -174.5 Q56 -169 28 -156.5 Q0 -144 -15.5 -124 Q-31 -104 -31 -74 Q-31 -53 -22.5 -36.5 Q-14 -20 -0.5 -8 Q13 4 29.5 13 Q46 22 62 28 Q14 53 14 109 Q14 144 37.5 174.5 Q61 205 113 231 Q83 250 65.5 279.5 Q48 309 48 354 Z M121 12 Q113 4 105 -11.5 Q97 -27 97 -52 Q97 -64 102 -74.5 Q107 -85 119 -93.5 Q131 -102 151 -106.5 Q171 -111 201 -111 Q230 -111 255.5 -106 Q281 -101 299.5 -90.5 Q318 -80 328.5 -65.5 Q339 -51 339 -31 Q339 -2 321.5 5 Q304 12 265 12 L121 12 Z M188 357 Q188 279 250 279 Q288 279 310.5 309.5 Q333 340 333 385 Q333 463 270 463 Q232 463 210 432.5 Q188 402 188 357 Z " />
<glyph glyph-name="Gbreve" unicode="&#x11e;" horiz-adv-x="631" d="M501 24 Q472 12 428.5 1 Q385 -10 318 -10 Q250 -10 198 9.5 Q146 29 111 64 Q76 99 58 147.5 Q40 196 40 253 Q40 359 70 444 Q100 529 154 588 Q208 647 283 678.5 Q358 710 448 710 Q487 710 519.5 706.5 Q552 703 576 698.5 Q600 694 615.5 689 Q631 684 636 682 L597 499 L506 499 L525 588 L512 603 Q498 606 482.5 608 Q467 610 447 610 Q394 610 349.5 590 Q305 570 273.5 528 Q242 486 224.5 420.5 Q207 355 207 264 Q207 186 241.5 136 Q276 86 346 86 Q356 86 362.5 86.5 Q369 87 374 88 L406 240 L391 258 L354 258 L373 343 L613 343 L594 258 L565 258 L546 240 L501 24 Z M614 876 Q606 853 593 832.5 Q580 812 560.5 795.5 Q541 779 516.5 769.5 Q492 760 462 760 Q435 760 415 769.5 Q395 779 382 795 Q369 811 362.5 832 Q356 853 356 876 L424 895 Q426 875 437.5 858.5 Q449 842 475 842 Q504 842 523.5 857 Q543 872 553 891 L614 876 Z " />
<glyph glyph-name="gbreve" unicode="&#x11f;" horiz-adv-x="539" d="M48 354 Q48 398 66.5 432.5 Q85 467 116 491 Q147 515 187.5 527.5 Q228 540 272 540 Q294 540 315 537.5 Q336 535 356 530 L548 530 L531 445 L475 445 L466 438 Q472 420 472 398 Q472 350 453 313 Q434 276 402.5 251.5 Q371 227 330 214 Q289 201 244 201 Q227 201 211.5 202 Q196 203 181 206 Q165 198 155.5 188.5 Q146 179 146 168 Q146 140 189 140 L320 140 Q352 140 381 132.5 Q410 125 431.5 109.5 Q453 94 465.5 69.5 Q478 45 478 12 Q478 -38 455.5 -74 Q433 -110 393 -133.5 Q353 -157 298 -168.5 Q243 -180 178 -180 Q133 -180 94.5 -174.5 Q56 -169 28 -156.5 Q0 -144 -15.5 -124 Q-31 -104 -31 -74 Q-31 -53 -22.5 -36.5 Q-14 -20 -0.5 -8 Q13 4 29.5 13 Q46 22 62 28 Q14 53 14 109 Q14 144 37.5 174.5 Q61 205 113 231 Q83 250 65.5 279.5 Q48 309 48 354 Z M121 12 Q113 4 105 -11.5 Q97 -27 97 -52 Q97 -64 102 -74.5 Q107 -85 119 -93.5 Q131 -102 151 -106.5 Q171 -111 201 -111 Q230 -111 255.5 -106 Q281 -101 299.5 -90.5 Q318 -80 328.5 -65.5 Q339 -51 339 -31 Q339 -2 321.5 5 Q304 12 265 12 L121 12 Z M188 357 Q188 279 250 279 Q288 279 310.5 309.5 Q333 340 333 385 Q333 463 270 463 Q232 463 210 432.5 Q188 402 188 357 Z M446 706 Q438 683 425 662.5 Q412 642 392.5 625.5 Q373 609 348.5 599.5 Q324 590 294 590 Q267 590 247 599.5 Q227 609 214 625 Q201 641 194.5 662 Q188 683 188 706 L256 725 Q258 705 269.5 688.5 Q281 672 307 672 Q336 672 355.5 687 Q375 702 385 721 L446 706 Z " />
<glyph glyph-name="Gdotaccent" unicode="&#x120;" horiz-adv-x="631" d="M388 816 Q388 834 395.5 851 Q403 868 416.5 881 Q430 894 448.5 902 Q467 910 490 910 Q522 910 541 889.5 Q560 869 560 842 Q560 804 531 776.5 Q502 749 456 749 Q424 749 406 769 Q388 789 388 816 Z M501 24 Q472 12 428.5 1 Q385 -10 318 -10 Q250 -10 198 9.5 Q146 29 111 64 Q76 99 58 147.5 Q40 196 40 253 Q40 359 70 444 Q100 529 154 588 Q208 647 283 678.5 Q358 710 448 710 Q487 710 519.5 706.5 Q552 703 576 698.5 Q600 694 615.5 689 Q631 684 636 682 L597 499 L506 499 L525 588 L512 603 Q498 606 482.5 608 Q467 610 447 610 Q394 610 349.5 590 Q305 570 273.5 528 Q242 486 224.5 420.5 Q207 355 207 264 Q207 186 241.5 136 Q276 86 346 86 Q356 86 362.5 86.5 Q369 87 374 88 L406 240 L391 258 L354 258 L373 343 L613 343 L594 258 L565 258 L546 240 L501 24 Z " />
<glyph glyph-name="gdotaccent" unicode="&#x121;" horiz-adv-x="539" d="M48 354 Q48 398 66.5 432.5 Q85 467 116 491 Q147 515 187.5 527.5 Q228 540 272 540 Q294 540 315 537.5 Q336 535 356 530 L548 530 L531 445 L475 445 L466 438 Q472 420 472 398 Q472 350 453 313 Q434 276 402.5 251.5 Q371 227 330 214 Q289 201 244 201 Q227 201 211.5 202 Q196 203 181 206 Q165 198 155.5 188.5 Q146 179 146 168 Q146 140 189 140 L320 140 Q352 140 381 132.5 Q410 125 431.5 109.5 Q453 94 465.5 69.5 Q478 45 478 12 Q478 -38 455.5 -74 Q433 -110 393 -133.5 Q353 -157 298 -168.5 Q243 -180 178 -180 Q133 -180 94.5 -174.5 Q56 -169 28 -156.5 Q0 -144 -15.5 -124 Q-31 -104 -31 -74 Q-31 -53 -22.5 -36.5 Q-14 -20 -0.5 -8 Q13 4 29.5 13 Q46 22 62 28 Q14 53 14 109 Q14 144 37.5 174.5 Q61 205 113 231 Q83 250 65.5 279.5 Q48 309 48 354 Z M121 12 Q113 4 105 -11.5 Q97 -27 97 -52 Q97 -64 102 -74.5 Q107 -85 119 -93.5 Q131 -102 151 -106.5 Q171 -111 201 -111 Q230 -111 255.5 -106 Q281 -101 299.5 -90.5 Q318 -80 328.5 -65.5 Q339 -51 339 -31 Q339 -2 321.5 5 Q304 12 265 12 L121 12 Z M188 357 Q188 279 250 279 Q288 279 310.5 309.5 Q333 340 333 385 Q333 463 270 463 Q232 463 210 432.5 Q188 402 188 357 Z M223 646 Q223 664 230.5 681 Q238 698 251.5 711 Q265 724 283.5 732 Q302 740 325 740 Q357 740 376 719.5 Q395 699 395 672 Q395 634 366 606.5 Q337 579 291 579 Q259 579 241 599 Q223 619 223 646 Z " />
<glyph glyph-name="uni0122" unicode="&#x122;" horiz-adv-x="631" d="M263 -210 L260 -185 Q249 -178 242.5 -165.5 Q236 -153 236 -139 Q236 -108 259 -83 Q282 -58 321 -58 Q350 -58 367.5 -74.5 Q385 -91 385 -117 Q385 -134 378.5 -148.5 Q372 -163 362 -176 L277 -286 L230 -257 L263 -210 Z M501 24 Q472 12 428.5 1 Q385 -10 318 -10 Q250 -10 198 9.5 Q146 29 111 64 Q76 99 58 147.5 Q40 196 40 253 Q40 359 70 444 Q100 529 154 588 Q208 647 283 678.5 Q358 710 448 710 Q487 710 519.5 706.5 Q552 703 576 698.5 Q600 694 615.5 689 Q631 684 636 682 L597 499 L506 499 L525 588 L512 603 Q498 606 482.5 608 Q467 610 447 610 Q394 610 349.5 590 Q305 570 273.5 528 Q242 486 224.5 420.5 Q207 355 207 264 Q207 186 241.5 136 Q276 86 346 86 Q356 86 362.5 86.5 Q369 87 374 88 L406 240 L391 258 L354 258 L373 343 L613 343 L594 258 L565 258 L546 240 L501 24 Z " />
<glyph glyph-name="uni0123" unicode="&#x123;" horiz-adv-x="539" d="M373 660 Q373 629 350 604 Q327 579 288 579 Q259 579 241.5 595.5 Q224 612 224 638 Q224 655 230.5 669.5 Q237 684 247 697 L332 807 L379 778 L346 731 L349 706 Q360 699 366.5 686.5 Q373 674 373 660 Z M48 354 Q48 398 66.5 432.5 Q85 467 116 491 Q147 515 187.5 527.5 Q228 540 272 540 Q294 540 315 537.5 Q336 535 356 530 L548 530 L531 445 L475 445 L466 438 Q472 420 472 398 Q472 350 453 313 Q434 276 402.5 251.5 Q371 227 330 214 Q289 201 244 201 Q227 201 211.5 202 Q196 203 181 206 Q165 198 155.5 188.5 Q146 179 146 168 Q146 140 189 140 L320 140 Q352 140 381 132.5 Q410 125 431.5 109.5 Q453 94 465.5 69.5 Q478 45 478 12 Q478 -38 455.5 -74 Q433 -110 393 -133.5 Q353 -157 298 -168.5 Q243 -180 178 -180 Q133 -180 94.5 -174.5 Q56 -169 28 -156.5 Q0 -144 -15.5 -124 Q-31 -104 -31 -74 Q-31 -53 -22.5 -36.5 Q-14 -20 -0.5 -8 Q13 4 29.5 13 Q46 22 62 28 Q14 53 14 109 Q14 144 37.5 174.5 Q61 205 113 231 Q83 250 65.5 279.5 Q48 309 48 354 Z M121 12 Q113 4 105 -11.5 Q97 -27 97 -52 Q97 -64 102 -74.5 Q107 -85 119 -93.5 Q131 -102 151 -106.5 Q171 -111 201 -111 Q230 -111 255.5 -106 Q281 -101 299.5 -90.5 Q318 -80 328.5 -65.5 Q339 -51 339 -31 Q339 -2 321.5 5 Q304 12 265 12 L121 12 Z M188 357 Q188 279 250 279 Q288 279 310.5 309.5 Q333 340 333 385 Q333 463 270 463 Q232 463 210 432.5 Q188 402 188 357 Z " />
<glyph glyph-name="Hcircumflex" unicode="&#x124;" horiz-adv-x="727" d="M468 305 L261 305 L218 103 L231 85 L275 85 L256 0 L-24 0 L-5 85 L38 85 L59 103 L164 597 L150 615 L107 615 L125 700 L405 700 L387 615 L343 615 L323 597 L283 409 L490 409 L530 597 L517 615 L474 615 L492 700 L772 700 L754 615 L710 615 L689 597 L584 103 L598 85 L642 85 L623 0 L343 0 L362 85 L405 85 L425 103 L468 305 Z M320 746 L300 780 L468 929 L515 929 L620 780 L585 746 L569 746 L473 821 L347 746 L320 746 Z " />
<glyph glyph-name="hcircumflex" unicode="&#x125;" horiz-adv-x="580" d="M65 773 L45 807 L213 956 L260 956 L365 807 L330 773 L314 773 L218 848 L92 773 L65 773 Z M260 730 Q287 730 293.5 717 Q300 704 296 686 L248 459 Q259 473 274.5 487.5 Q290 502 309 513.5 Q328 525 351.5 532.5 Q375 540 403 540 Q463 540 494.5 507.5 Q526 475 526 419 Q526 395 520 370 L462 98 L477 80 L521 80 L503 0 L400 0 Q377 0 358 2.5 Q339 5 326 14 Q313 23 308.5 41 Q304 59 311 91 L368 356 Q370 364 371 371 Q372 378 372 386 Q372 403 363 415 Q354 427 327 427 Q312 427 298 422 Q284 417 271.5 410 Q259 403 248.5 394.5 Q238 386 231 380 L150 0 L1 0 L134 627 L121 645 L77 645 L95 730 L260 730 Z " />
<glyph glyph-name="Hbar" unicode="&#x126;" horiz-adv-x="727" d="M97 555 L156 555 L165 597 L151 615 L108 615 L126 700 L406 700 L388 615 L344 615 L324 597 L315 555 L522 555 L531 597 L518 615 L475 615 L493 700 L773 700 L755 615 L711 615 L690 597 L681 555 L743 555 L727 482 L665 482 L585 103 L599 85 L643 85 L624 0 L344 0 L363 85 L406 85 L426 103 L469 305 L262 305 L219 103 L232 85 L276 85 L257 0 L-23 0 L-4 85 L39 85 L60 103 L140 482 L78 482 L97 555 Z M491 409 L506 482 L299 482 L284 409 L491 409 Z " />
<glyph glyph-name="hbar" unicode="&#x127;" horiz-adv-x="580" d="M260 730 Q287 730 293.5 717 Q300 704 296 686 L282 623 L401 623 L389 560 L269 560 L248 459 Q259 473 274.5 487.5 Q290 502 309 513.5 Q328 525 351.5 532.5 Q375 540 403 540 Q463 540 494.5 507.5 Q526 475 526 419 Q526 395 520 370 L462 98 L477 80 L521 80 L503 0 L400 0 Q377 0 358 2.5 Q339 5 326 14 Q313 23 308.5 41 Q304 59 311 91 L368 356 Q370 364 371 371 Q372 378 372 386 Q372 403 363 415 Q354 427 327 427 Q312 427 298 422 Q284 417 271.5 410 Q259 403 248.5 394.5 Q238 386 231 380 L150 0 L1 0 L120 560 L60 560 L72 623 L133 623 L134 627 L121 645 L77 645 L95 730 L260 730 Z " />
<glyph glyph-name="Itilde" unicode="&#x128;" horiz-adv-x="361" d="M164 597 L150 615 L107 615 L126 700 L406 700 L387 615 L343 615 L323 597 L219 103 L232 85 L276 85 L257 0 L-23 0 L-4 85 L39 85 L60 103 L164 597 Z M459 898 L449 853 Q438 803 415 780 Q392 757 347 757 Q330 757 312.5 762.5 Q295 768 277.5 775 Q260 782 243 787.5 Q226 793 211 793 Q204 793 199.5 791.5 Q195 790 192 788 Q188 786 186 784 L177 746 L114 746 L123 787 Q136 845 157.5 868.5 Q179 892 219 892 Q236 892 253.5 885.5 Q271 879 289.5 871.5 Q308 864 326.5 857.5 Q345 851 363 851 Q379 851 386 858 Q390 861 391 865 L398 898 L459 898 Z " />
<glyph glyph-name="itilde" unicode="&#x129;" horiz-adv-x="310" d="M108 427 L94 445 L50 445 L69 530 L234 530 Q264 530 268.5 516 Q273 502 270 486 L187 98 L202 80 L246 80 L229 0 L126 0 Q106 0 87 2 Q68 4 54.5 12.5 Q41 21 35.5 39.5 Q30 58 37 91 L108 427 Z M279 681 Q295 681 302 688 Q306 691 307 695 L314 728 L375 728 L365 683 Q354 633 331 610 Q308 587 263 587 Q246 587 228.5 592.5 Q211 598 193.5 605 Q176 612 159 617.5 Q142 623 127 623 Q120 623 115.5 621.5 Q111 620 108 618 Q104 616 102 614 L93 576 L30 576 L39 617 Q52 675 73.5 698.5 Q95 722 135 722 Q152 722 169.5 715.5 Q187 709 205.5 701.5 Q224 694 242.5 687.5 Q261 681 279 681 Z " />
<glyph glyph-name="Imacron" unicode="&#x12a;" horiz-adv-x="361" d="M164 597 L150 615 L107 615 L126 700 L406 700 L387 615 L343 615 L323 597 L219 103 L232 85 L276 85 L257 0 L-23 0 L-4 85 L39 85 L60 103 L164 597 Z M177 876 L435 876 L416 788 L158 788 L177 876 Z " />
<glyph glyph-name="imacron" unicode="&#x12b;" horiz-adv-x="309" d="M107 427 L93 445 L49 445 L68 530 L233 530 Q263 530 267.5 516 Q272 502 269 486 L186 98 L201 80 L245 80 L228 0 L125 0 Q105 0 86 2 Q67 4 53.5 12.5 Q40 21 34.5 39.5 Q29 58 36 91 L107 427 Z M86 706 L344 706 L325 618 L67 618 L86 706 Z " />
<glyph glyph-name="Iogonek" unicode="&#x12e;" horiz-adv-x="361" d="M163 597 L149 615 L106 615 L125 700 L405 700 L386 615 L342 615 L322 597 L218 103 L231 85 L275 85 L256 0 L209 0 Q158 -10 125.5 -31 Q93 -52 93 -86 Q93 -109 104 -117.5 Q115 -126 135 -126 Q149 -126 167 -120 Q185 -114 192 -109 L203 -151 Q184 -163 153.5 -171.5 Q123 -180 91 -180 Q41 -180 14 -162.5 Q-13 -145 -13 -107 Q-13 -70 12 -43.5 Q37 -17 75 0 L-24 0 L-5 85 L38 85 L59 103 L163 597 Z " />
<glyph glyph-name="iogonek" unicode="&#x12f;" horiz-adv-x="309" d="M107 427 L93 445 L49 445 L68 530 L233 530 Q248 530 256 526 Q264 522 267.5 515.5 Q271 509 270.5 501 Q270 493 269 486 L186 98 L201 80 L245 80 L228 0 L200 0 Q149 -10 117.5 -31 Q86 -52 86 -86 Q86 -109 97 -117.5 Q108 -126 128 -126 Q142 -126 160 -120 Q178 -114 185 -109 L196 -151 Q177 -163 146.5 -171.5 Q116 -180 84 -180 Q34 -180 7 -162.5 Q-20 -145 -20 -107 Q-20 -69 7 -41.5 Q34 -14 76 3 Q64 6 54.5 11.5 Q45 17 39 27 Q33 37 32 52.5 Q31 68 36 91 L107 427 Z M138 648 Q138 692 162.5 718.5 Q187 745 238 745 Q273 745 291.5 727 Q310 709 310 682 Q310 638 286 611.5 Q262 585 210 585 Q175 585 156.5 603 Q138 621 138 648 Z " />
<glyph glyph-name="Idotaccent" unicode="&#x130;" horiz-adv-x="361" d="M164 597 L150 615 L107 615 L126 700 L406 700 L387 615 L343 615 L323 597 L219 103 L232 85 L276 85 L257 0 L-23 0 L-4 85 L39 85 L60 103 L164 597 Z M210 816 Q210 834 217.5 851 Q225 868 238.5 881 Q252 894 270.5 902 Q289 910 312 910 Q344 910 363 889.5 Q382 869 382 842 Q382 804 353 776.5 Q324 749 278 749 Q246 749 228 769 Q210 789 210 816 Z " />
<glyph glyph-name="dotlessi" unicode="&#x131;" horiz-adv-x="310" d="M107 427 L93 445 L49 445 L68 530 L233 530 Q263 530 267.5 516 Q272 502 269 486 L186 98 L201 80 L245 80 L228 0 L125 0 Q105 0 86 2 Q67 4 53.5 12.5 Q40 21 34.5 39.5 Q29 58 36 91 L107 427 Z " />
<glyph glyph-name="IJ" unicode="&#x132;" horiz-adv-x="668" d="M155 597 L141 615 L98 615 L117 700 L397 700 L378 615 L334 615 L314 597 L262 340 L274 322 L318 322 L299 237 L19 237 L38 322 L81 322 L102 340 L155 597 Z M485 597 L472 615 L429 615 L447 700 L727 700 L709 615 L665 615 L644 597 L559 197 Q539 101 471 45.5 Q403 -10 286 -10 Q224 -10 184 -0.5 Q144 9 121 21 Q94 34 79 52 L112 208 L215 208 L197 123 L207 107 Q221 99 238 97 Q255 95 269 95 Q326 95 356.5 116.5 Q387 138 397 183 L485 597 Z " />
<glyph glyph-name="ij" unicode="&#x133;" horiz-adv-x="602" d="M108 427 L94 445 L50 445 L69 530 L234 530 Q249 530 257 526 Q265 522 268.5 515.5 Q272 509 271.5 501 Q271 493 270 486 L187 98 L202 80 L246 80 L229 0 L126 0 Q106 0 87 2 Q68 4 54.5 12.5 Q41 21 35.5 39.5 Q30 58 37 91 L108 427 Z M139 648 Q139 692 163.5 718.5 Q188 745 239 745 Q274 745 292.5 727 Q311 709 311 682 Q311 638 287 611.5 Q263 585 211 585 Q176 585 157.5 603 Q139 621 139 648 Z M543 530 Q572 530 576.5 516 Q581 502 578 486 L477 10 Q468 -30 452.5 -64.5 Q437 -99 410.5 -124.5 Q384 -150 344.5 -165 Q305 -180 249 -180 Q222 -180 202.5 -178.5 Q183 -177 170 -175 Q155 -172 145 -169 L169 -53 L254 -53 L245 -98 L255 -111 L257 -111 Q271 -111 282 -100.5 Q293 -90 301.5 -74 Q310 -58 316 -38 Q322 -18 326 1 L416 427 L403 445 L354 445 L373 530 L543 530 Z M447 648 Q447 692 471.5 718.5 Q496 745 547 745 Q582 745 600.5 727 Q619 709 619 682 Q619 638 595 611.5 Q571 585 519 585 Q484 585 465.5 603 Q447 621 447 648 Z " />
<glyph glyph-name="Jcircumflex" unicode="&#x134;" horiz-adv-x="519" d="M333 597 L320 615 L277 615 L296 700 L576 700 L557 615 L513 615 L492 597 L408 197 Q388 102 326 46 Q264 -10 156 -10 Q100 -10 64 -0.5 Q28 9 7 21 Q-18 34 -31 52 L2 208 L105 208 L87 123 L97 107 Q108 102 119 98.5 Q130 95 139 95 Q187 95 212 117 Q237 139 246 183 L333 597 Z M310 746 L290 780 L458 929 L505 929 L610 780 L575 746 L559 746 L463 821 L337 746 L310 746 Z " />
<glyph glyph-name="jcircumflex" unicode="&#x135;" horiz-adv-x="295" d="M64 573 L44 607 L212 756 L259 756 L364 607 L329 573 L313 573 L217 648 L91 573 L64 573 Z M170 10 Q161 -30 145.5 -64.5 Q130 -99 103.5 -124.5 Q77 -150 38 -165 Q-1 -180 -57 -180 Q-84 -180 -103.5 -178.5 Q-123 -177 -136 -175 Q-151 -172 -161 -169 L-137 -53 L-52 -53 L-61 -98 L-51 -111 L-49 -111 Q-35 -111 -24.5 -100.5 Q-14 -90 -5.5 -74 Q3 -58 9 -38 Q15 -18 19 1 L109 427 L95 445 L51 445 L70 530 L235 530 Q250 530 258 526 Q266 522 269.5 515.5 Q273 509 272.5 501 Q272 493 271 486 L170 10 Z " />
<glyph glyph-name="uni0136" unicode="&#x136;" horiz-adv-x="696" d="M239 -210 L236 -185 Q225 -178 218.5 -165.5 Q212 -153 212 -139 Q212 -108 235 -83 Q258 -58 297 -58 Q326 -58 343.5 -74.5 Q361 -91 361 -117 Q361 -134 354.5 -148.5 Q348 -163 338 -176 L253 -286 L206 -257 L239 -210 Z M257 0 L-23 0 L-4 85 L39 85 L60 103 L164 597 L150 615 L107 615 L126 700 L406 700 L387 615 L343 615 L324 598 L283 402 L323 402 L537 604 L530 615 L500 615 L519 700 L760 700 L741 615 L701 615 L674 600 L451 391 L585 100 L601 85 L643 85 L624 0 L352 0 L371 85 L407 85 L414 92 L318 315 L264 315 L219 102 L232 85 L276 85 L257 0 Z " />
<glyph glyph-name="uni0137" unicode="&#x137;" horiz-adv-x="582" d="M194 -210 L191 -185 Q180 -178 173.5 -165.5 Q167 -153 167 -139 Q167 -108 190 -83 Q213 -58 252 -58 Q281 -58 298.5 -74.5 Q316 -91 316 -117 Q316 -134 309.5 -148.5 Q303 -163 293 -176 L208 -286 L161 -257 L194 -210 Z M367 318 L473 94 L488 80 L532 80 L515 0 L408 0 Q383 0 366.5 6 Q350 12 338 23 Q326 34 317.5 50 Q309 66 301 86 L234 249 L203 249 L150 0 L1 0 L134 627 L121 645 L77 645 L95 730 L260 730 Q287 730 293.5 717.5 Q300 705 296 686 L218 322 L242 322 L388 437 L383 445 L350 445 L367 530 L601 530 L584 445 L542 445 L524 439 L367 318 Z " />
<glyph glyph-name="kgreenlandic" unicode="&#x138;" horiz-adv-x="593" d="M233 322 L258 322 L406 437 L401 445 L387 445 L406 530 L619 530 L600 445 L553 445 L530 432 L382 323 L489 94 L504 80 L539 80 L523 0 L423 0 Q398 0 381.5 6 Q365 12 353 23 Q341 34 332.5 50 Q324 66 316 86 L249 249 L218 249 L164 0 L15 0 L106 427 L93 445 L49 445 L67 530 L232 530 Q247 530 255 526 Q263 522 266.5 515.5 Q270 509 269.5 501 Q269 493 268 486 L233 322 Z " />
<glyph glyph-name="Lacute" unicode="&#x139;" horiz-adv-x="556" d="M277 747 L245 793 L402 926 L430 926 L481 838 L299 747 L277 747 Z M219 102 L385 102 L406 119 L426 211 L517 211 L472 0 L-23 0 L-4 85 L39 85 L60 103 L164 597 L150 615 L107 615 L126 700 L406 700 L387 615 L343 615 L323 597 L219 102 Z " />
<glyph glyph-name="lacute" unicode="&#x13a;" horiz-adv-x="292" d="M379 956 L430 868 L248 777 L226 777 L194 823 L351 956 L379 956 Z M133 627 L119 645 L75 645 L93 730 L258 730 Q287 730 292.5 716 Q298 702 295 686 L170 98 L185 80 L229 80 L211 0 L108 0 Q87 0 68 2 Q49 4 36 13 Q23 22 17.5 40 Q12 58 19 91 L133 627 Z " />
<glyph glyph-name="uni013B" unicode="&#x13b;" horiz-adv-x="556" d="M212 -210 L209 -185 Q198 -178 191.5 -165.5 Q185 -153 185 -139 Q185 -108 208 -83 Q231 -58 270 -58 Q299 -58 316.5 -74.5 Q334 -91 334 -117 Q334 -134 327.5 -148.5 Q321 -163 311 -176 L226 -286 L179 -257 L212 -210 Z M219 102 L385 102 L406 119 L426 211 L517 211 L472 0 L-23 0 L-4 85 L39 85 L60 103 L164 597 L150 615 L107 615 L126 700 L406 700 L387 615 L343 615 L323 597 L219 102 Z " />
<glyph glyph-name="uni013C" unicode="&#x13c;" horiz-adv-x="294" d="M17 -210 L14 -185 Q3 -178 -3.5 -165.5 Q-10 -153 -10 -139 Q-10 -108 13 -83 Q36 -58 75 -58 Q104 -58 121.5 -74.5 Q139 -91 139 -117 Q139 -134 132.5 -148.5 Q126 -163 116 -176 L31 -286 L-16 -257 L17 -210 Z M133 627 L119 645 L75 645 L93 730 L258 730 Q287 730 292.5 716 Q298 702 295 686 L170 98 L185 80 L229 80 L211 0 L108 0 Q87 0 68 2 Q49 4 36 13 Q23 22 17.5 40 Q12 58 19 91 L133 627 Z " />
<glyph glyph-name="Lcaron" unicode="&#x13d;" horiz-adv-x="559" d="M465 582 L507 780 L616 780 L603 719 L555 582 L465 582 Z M218 102 L384 102 L405 119 L425 211 L516 211 L471 0 L-24 0 L-5 85 L38 85 L59 103 L163 597 L149 615 L106 615 L125 700 L405 700 L386 615 L342 615 L322 597 L218 102 Z " />
<glyph glyph-name="lcaron" unicode="&#x13e;" horiz-adv-x="320" d="M332 582 L374 780 L483 780 L470 719 L422 582 L332 582 Z M133 627 L119 645 L75 645 L93 730 L258 730 Q287 730 292.5 716 Q298 702 295 686 L170 98 L185 80 L229 80 L211 0 L108 0 Q87 0 68 2 Q49 4 36 13 Q23 22 17.5 40 Q12 58 19 91 L133 627 Z " />
<glyph glyph-name="Ldot" unicode="&#x13f;" horiz-adv-x="570" d="M369 364 Q369 382 376.5 399 Q384 416 397.5 429 Q411 442 429.5 450 Q448 458 471 458 Q503 458 522 437.5 Q541 417 541 390 Q541 352 512 324.5 Q483 297 437 297 Q405 297 387 317 Q369 337 369 364 Z M219 102 L385 102 L406 119 L426 211 L517 211 L472 0 L-23 0 L-4 85 L39 85 L60 103 L164 597 L150 615 L107 615 L126 700 L406 700 L387 615 L343 615 L323 597 L219 102 Z " />
<glyph glyph-name="ldot" unicode="&#x140;" horiz-adv-x="414" d="M278 354 Q278 372 285.5 389 Q293 406 306.5 419 Q320 432 338.5 440 Q357 448 380 448 Q412 448 431 427.5 Q450 407 450 380 Q450 342 421 314.5 Q392 287 346 287 Q314 287 296 307 Q278 327 278 354 Z M133 627 L119 645 L75 645 L93 730 L258 730 Q287 730 292.5 716 Q298 702 295 686 L170 98 L185 80 L229 80 L211 0 L108 0 Q87 0 68 2 Q49 4 36 13 Q23 22 17.5 40 Q12 58 19 91 L133 627 Z " />
<glyph glyph-name="Lslash" unicode="&#x141;" horiz-adv-x="559" d="M291 432 L408 483 L388 390 L272 340 L222 102 L388 102 L409 119 L429 211 L520 211 L475 0 L-20 0 L-1 85 L42 85 L63 103 L97 264 L16 229 L35 322 L116 357 L167 597 L153 615 L110 615 L129 700 L409 700 L390 615 L346 615 L326 597 L291 432 Z " />
<glyph glyph-name="lslash" unicode="&#x142;" horiz-adv-x="321" d="M16 319 L101 359 L158 627 L144 645 L100 645 L118 730 L283 730 Q312 730 317.5 716 Q323 702 320 686 L267 438 L354 480 L334 387 L247 346 L195 98 L210 80 L254 80 L236 0 L133 0 Q112 0 93 2 Q74 4 61 13 Q48 22 42.5 40 Q37 58 44 91 L81 266 L-4 226 L16 319 Z " />
<glyph glyph-name="Nacute" unicode="&#x143;" horiz-adv-x="710" d="M434 747 L402 793 L559 926 L587 926 L638 838 L456 747 L434 747 Z M467 -3 L252 460 L177 103 L191 85 L235 85 L216 0 L-24 0 L-5 85 L38 85 L59 103 L163 597 L149 615 L106 615 L125 700 L304 700 L495 283 L562 597 L548 615 L505 615 L524 700 L764 700 L745 615 L701 615 L680 597 L553 -3 L467 -3 Z " />
<glyph glyph-name="nacute" unicode="&#x144;" horiz-adv-x="594" d="M506 756 L557 668 L375 577 L353 577 L321 623 L478 756 L506 756 Z M14 0 L106 427 L92 445 L47 445 L66 530 L225 530 Q240 530 248 526 Q256 522 259.5 515.5 Q263 509 262.5 501 Q262 493 261 486 L254 457 L260 457 Q272 472 287 486.5 Q302 501 321.5 513 Q341 525 364.5 532.5 Q388 540 417 540 Q477 540 508.5 507.5 Q540 475 540 419 Q540 395 534 370 L476 98 L491 80 L535 80 L517 0 L414 0 Q393 0 374 1.5 Q355 3 341.5 12 Q328 21 323 39.5 Q318 58 325 91 L382 356 Q384 364 385 371 Q386 378 386 386 Q386 403 377 415 Q368 427 341 427 Q327 427 313 422 Q299 417 286 410 Q273 403 262.5 395 Q252 387 245 381 L163 0 L14 0 Z " />
<glyph glyph-name="uni0145" unicode="&#x145;" horiz-adv-x="710" d="M256 -210 L253 -185 Q242 -178 235.5 -165.5 Q229 -153 229 -139 Q229 -108 252 -83 Q275 -58 314 -58 Q343 -58 360.5 -74.5 Q378 -91 378 -117 Q378 -134 371.5 -148.5 Q365 -163 355 -176 L270 -286 L223 -257 L256 -210 Z M467 -3 L252 460 L177 103 L191 85 L235 85 L216 0 L-24 0 L-5 85 L38 85 L59 103 L163 597 L149 615 L106 615 L125 700 L304 700 L495 283 L562 597 L548 615 L505 615 L524 700 L764 700 L745 615 L701 615 L680 597 L553 -3 L467 -3 Z " />
<glyph glyph-name="uni0146" unicode="&#x146;" horiz-adv-x="594" d="M191 -210 L188 -185 Q177 -178 170.5 -165.5 Q164 -153 164 -139 Q164 -108 187 -83 Q210 -58 249 -58 Q278 -58 295.5 -74.5 Q313 -91 313 -117 Q313 -134 306.5 -148.5 Q300 -163 290 -176 L205 -286 L158 -257 L191 -210 Z M14 0 L106 427 L92 445 L47 445 L66 530 L225 530 Q240 530 248 526 Q256 522 259.5 515.5 Q263 509 262.5 501 Q262 493 261 486 L254 457 L260 457 Q272 472 287 486.5 Q302 501 321.5 513 Q341 525 364.5 532.5 Q388 540 417 540 Q477 540 508.5 507.5 Q540 475 540 419 Q540 395 534 370 L476 98 L491 80 L535 80 L517 0 L414 0 Q393 0 374 1.5 Q355 3 341.5 12 Q328 21 323 39.5 Q318 58 325 91 L382 356 Q384 364 385 371 Q386 378 386 386 Q386 403 377 415 Q368 427 341 427 Q327 427 313 422 Q299 417 286 410 Q273 403 262.5 395 Q252 387 245 381 L163 0 L14 0 Z " />
<glyph glyph-name="Ncaron" unicode="&#x147;" horiz-adv-x="710" d="M467 -3 L252 460 L177 103 L191 85 L235 85 L216 0 L-24 0 L-5 85 L38 85 L59 103 L163 597 L149 615 L106 615 L125 700 L304 700 L495 283 L562 597 L548 615 L505 615 L524 700 L764 700 L745 615 L701 615 L680 597 L553 -3 L467 -3 Z M460 747 L413 747 L308 896 L343 930 L359 930 L455 855 L581 930 L608 930 L628 896 L460 747 Z " />
<glyph glyph-name="ncaron" unicode="&#x148;" horiz-adv-x="594" d="M394 577 L347 577 L242 726 L277 760 L293 760 L389 685 L515 760 L542 760 L562 726 L394 577 Z M14 0 L106 427 L92 445 L47 445 L66 530 L225 530 Q240 530 248 526 Q256 522 259.5 515.5 Q263 509 262.5 501 Q262 493 261 486 L254 457 L260 457 Q272 472 287 486.5 Q302 501 321.5 513 Q341 525 364.5 532.5 Q388 540 417 540 Q477 540 508.5 507.5 Q540 475 540 419 Q540 395 534 370 L476 98 L491 80 L535 80 L517 0 L414 0 Q393 0 374 1.5 Q355 3 341.5 12 Q328 21 323 39.5 Q318 58 325 91 L382 356 Q384 364 385 371 Q386 378 386 386 Q386 403 377 415 Q368 427 341 427 Q327 427 313 422 Q299 417 286 410 Q273 403 262.5 395 Q252 387 245 381 L163 0 L14 0 Z " />
<glyph glyph-name="napostrophe" unicode="&#x149;" horiz-adv-x="594" d="M99 647 L96 672 Q85 679 78.5 691.5 Q72 704 72 718 Q72 749 95 774 Q118 799 157 799 Q186 799 203.5 782.5 Q221 766 221 740 Q221 723 214.5 708.5 Q208 694 198 681 L113 571 L66 600 L99 647 Z M14 0 L106 427 L92 445 L47 445 L66 530 L225 530 Q240 530 248 526 Q256 522 259.5 515.5 Q263 509 262.5 501 Q262 493 261 486 L254 457 L260 457 Q272 472 287 486.5 Q302 501 321.5 513 Q341 525 364.5 532.5 Q388 540 417 540 Q477 540 508.5 507.5 Q540 475 540 419 Q540 395 534 370 L476 98 L491 80 L535 80 L517 0 L414 0 Q393 0 374 1.5 Q355 3 341.5 12 Q328 21 323 39.5 Q318 58 325 91 L382 356 Q384 364 385 371 Q386 378 386 386 Q386 403 377 415 Q368 427 341 427 Q327 427 313 422 Q299 417 286 410 Q273 403 262.5 395 Q252 387 245 381 L163 0 L14 0 Z " />
<glyph glyph-name="Omacron" unicode="&#x14c;" horiz-adv-x="684" d="M406 710 Q474 710 523 689 Q572 668 604 632 Q636 596 651 547 Q666 498 666 443 Q666 391 656 337.5 Q646 284 625.5 234 Q605 184 575 139.5 Q545 95 504.5 61.5 Q464 28 413 9 Q362 -10 301 -10 Q233 -10 184 11 Q135 32 102.5 68 Q70 104 54.5 151.5 Q39 199 39 253 Q39 305 49 359 Q59 413 79 463.5 Q99 514 129 559 Q159 604 200 637.5 Q241 671 292 690.5 Q343 710 406 710 Z M399 603 Q364 603 336.5 583.5 Q309 564 287.5 532.5 Q266 501 250.5 460.5 Q235 420 225 377.5 Q215 335 210.5 294.5 Q206 254 206 222 Q206 162 227.5 129.5 Q249 97 304 97 Q338 97 365.5 115.5 Q393 134 414.5 165 Q436 196 452 235.5 Q468 275 478.5 316.5 Q489 358 494 398.5 Q499 439 499 471 Q499 536 477.5 569.5 Q456 603 399 603 Z M328 876 L586 876 L567 788 L309 788 L328 876 Z " />
<glyph glyph-name="omacron" unicode="&#x14d;" horiz-adv-x="549" d="M228 706 L486 706 L467 618 L209 618 L228 706 Z M172 201 Q172 141 186 114.5 Q200 88 235 88 Q271 88 295.5 114 Q320 140 334.5 179 Q349 218 355.5 262.5 Q362 307 362 343 Q362 392 348 417 Q334 442 299 442 Q263 442 238.5 416 Q214 390 199.5 353 Q185 316 178.5 274 Q172 232 172 201 Z M18 207 Q18 289 42.5 351.5 Q67 414 107 456 Q147 498 198 519 Q249 540 302 540 Q347 540 386 527.5 Q425 515 454 489 Q483 463 499.5 424 Q516 385 516 331 Q516 247 491.5 183.5 Q467 120 427 77 Q387 34 336 12 Q285 -10 232 -10 Q188 -10 149 3 Q110 16 81 42.5 Q52 69 35 110 Q18 151 18 207 Z " />
<glyph glyph-name="Obreve" unicode="&#x14e;" horiz-adv-x="684" d="M406 710 Q474 710 523 689 Q572 668 604 632 Q636 596 651 547 Q666 498 666 443 Q666 391 656 337.5 Q646 284 625.5 234 Q605 184 575 139.5 Q545 95 504.5 61.5 Q464 28 413 9 Q362 -10 301 -10 Q233 -10 184 11 Q135 32 102.5 68 Q70 104 54.5 151.5 Q39 199 39 253 Q39 305 49 359 Q59 413 79 463.5 Q99 514 129 559 Q159 604 200 637.5 Q241 671 292 690.5 Q343 710 406 710 Z M399 603 Q364 603 336.5 583.5 Q309 564 287.5 532.5 Q266 501 250.5 460.5 Q235 420 225 377.5 Q215 335 210.5 294.5 Q206 254 206 222 Q206 162 227.5 129.5 Q249 97 304 97 Q338 97 365.5 115.5 Q393 134 414.5 165 Q436 196 452 235.5 Q468 275 478.5 316.5 Q489 358 494 398.5 Q499 439 499 471 Q499 536 477.5 569.5 Q456 603 399 603 Z M587 876 Q579 853 566 832.5 Q553 812 533.5 795.5 Q514 779 489.5 769.5 Q465 760 435 760 Q408 760 388 769.5 Q368 779 355 795 Q342 811 335.5 832 Q329 853 329 876 L397 895 Q399 875 410.5 858.5 Q422 842 448 842 Q477 842 496.5 857 Q516 872 526 891 L587 876 Z " />
<glyph glyph-name="obreve" unicode="&#x14f;" horiz-adv-x="549" d="M172 201 Q172 141 186 114.5 Q200 88 235 88 Q271 88 295.5 114 Q320 140 334.5 179 Q349 218 355.5 262.5 Q362 307 362 343 Q362 392 348 417 Q334 442 299 442 Q263 442 238.5 416 Q214 390 199.5 353 Q185 316 178.5 274 Q172 232 172 201 Z M18 207 Q18 289 42.5 351.5 Q67 414 107 456 Q147 498 198 519 Q249 540 302 540 Q347 540 386 527.5 Q425 515 454 489 Q483 463 499.5 424 Q516 385 516 331 Q516 247 491.5 183.5 Q467 120 427 77 Q387 34 336 12 Q285 -10 232 -10 Q188 -10 149 3 Q110 16 81 42.5 Q52 69 35 110 Q18 151 18 207 Z M487 706 Q479 683 466 662.5 Q453 642 433.5 625.5 Q414 609 389.5 599.5 Q365 590 335 590 Q308 590 288 599.5 Q268 609 255 625 Q242 641 235.5 662 Q229 683 229 706 L297 725 Q299 705 310.5 688.5 Q322 672 348 672 Q377 672 396.5 687 Q416 702 426 721 L487 706 Z " />
<glyph glyph-name="Ohungarumlaut" unicode="&#x150;" horiz-adv-x="684" d="M348 747 L323 787 L469 926 L497 926 L539 867 L367 747 L348 747 Z M485 747 L466 784 L608 901 L636 901 L680 833 L505 747 L485 747 Z M406 710 Q474 710 523 689 Q572 668 604 632 Q636 596 651 547 Q666 498 666 443 Q666 391 656 337.5 Q646 284 625.5 234 Q605 184 575 139.5 Q545 95 504.5 61.5 Q464 28 413 9 Q362 -10 301 -10 Q233 -10 184 11 Q135 32 102.5 68 Q70 104 54.5 151.5 Q39 199 39 253 Q39 305 49 359 Q59 413 79 463.5 Q99 514 129 559 Q159 604 200 637.5 Q241 671 292 690.5 Q343 710 406 710 Z M399 603 Q364 603 336.5 583.5 Q309 564 287.5 532.5 Q266 501 250.5 460.5 Q235 420 225 377.5 Q215 335 210.5 294.5 Q206 254 206 222 Q206 162 227.5 129.5 Q249 97 304 97 Q338 97 365.5 115.5 Q393 134 414.5 165 Q436 196 452 235.5 Q468 275 478.5 316.5 Q489 358 494 398.5 Q499 439 499 471 Q499 536 477.5 569.5 Q456 603 399 603 Z " />
<glyph glyph-name="ohungarumlaut" unicode="&#x151;" horiz-adv-x="549" d="M245 577 L216 617 L362 756 L390 756 L432 697 L264 577 L245 577 Z M378 577 L359 614 L501 731 L529 731 L573 663 L398 577 L378 577 Z M172 201 Q172 141 186 114.5 Q200 88 235 88 Q271 88 295.5 114 Q320 140 334.5 179 Q349 218 355.5 262.5 Q362 307 362 343 Q362 392 348 417 Q334 442 299 442 Q263 442 238.5 416 Q214 390 199.5 353 Q185 316 178.5 274 Q172 232 172 201 Z M18 207 Q18 289 42.5 351.5 Q67 414 107 456 Q147 498 198 519 Q249 540 302 540 Q347 540 386 527.5 Q425 515 454 489 Q483 463 499.5 424 Q516 385 516 331 Q516 247 491.5 183.5 Q467 120 427 77 Q387 34 336 12 Q285 -10 232 -10 Q188 -10 149 3 Q110 16 81 42.5 Q52 69 35 110 Q18 151 18 207 Z " />
<glyph glyph-name="OE" unicode="&#x152;" horiz-adv-x="976" d="M424 710 Q463 710 497.5 707.5 Q532 705 563 700 L1015 700 L973 503 L886 503 L902 583 L888 600 L687 600 L647 406 L754 406 L774 422 L782 462 L862 462 L818 253 L738 253 L746 293 L733 308 L625 308 L582 100 L793 100 L814 117 L831 197 L918 197 L876 0 L419 0 Q366 -10 301 -10 Q180 -10 110.5 54 Q41 118 41 247 Q41 357 69 443 Q97 529 147.5 588.5 Q198 648 268.5 679 Q339 710 424 710 Z M202 234 Q202 169 230 133 Q258 97 323 97 Q353 97 379 100 Q405 103 425 111 L526 585 Q509 593 483.5 598 Q458 603 422 603 Q380 603 340 584.5 Q300 566 269.5 523.5 Q239 481 220.5 410 Q202 339 202 234 Z " />
<glyph glyph-name="oe" unicode="&#x153;" horiz-adv-x="814" d="M806 409 Q806 355 775.5 318.5 Q745 282 699.5 259 Q654 236 600.5 223.5 Q547 211 502 206 L502 195 Q502 140 526.5 113 Q551 86 605 86 Q634 86 660 97 Q686 108 710 127 L741 67 Q728 53 710.5 39.5 Q693 26 670 15 Q647 4 618.5 -3 Q590 -10 556 -10 Q504 -10 461 7.5 Q418 25 392 66 Q357 28 314.5 9 Q272 -10 228 -10 Q184 -10 146 3 Q108 16 79.5 42 Q51 68 34.5 107.5 Q18 147 18 201 Q18 285 42 348.5 Q66 412 105.5 454 Q145 496 195.5 517.5 Q246 539 298 539 Q346 539 386 518 Q426 497 450 452 Q488 495 536 517.5 Q584 540 637 540 Q715 540 760.5 506 Q806 472 806 409 Z M166 169 Q166 150 168.5 134.5 Q171 119 178.5 108 Q186 97 199 91 Q212 85 232 85 Q268 85 292.5 112 Q317 139 332 180 Q347 221 353.5 269 Q360 317 360 360 Q360 379 357.5 394.5 Q355 410 347.5 421 Q340 432 327 438 Q314 444 294 444 Q258 444 233.5 417 Q209 390 194 349 Q179 308 172.5 260 Q166 212 166 169 Z M627 449 Q610 449 591.5 440 Q573 431 556.5 411 Q540 391 527 358.5 Q514 326 507 280 Q535 284 564 289 Q593 294 617 306 Q641 318 656.5 339.5 Q672 361 672 396 Q672 449 627 449 Z " />
<glyph glyph-name="Racute" unicode="&#x154;" horiz-adv-x="664" d="M325 602 L278 378 L345 378 Q407 378 443.5 414 Q480 450 480 525 Q480 561 460.5 581.5 Q441 602 392 602 L325 602 Z M265 0 L-23 0 L-4 85 L39 85 L60 103 L164 597 L150 615 L107 615 L126 700 L417 700 Q523 700 583.5 658.5 Q644 617 644 531 Q644 481 625.5 444.5 Q607 408 578.5 383.5 Q550 359 517 346 Q484 333 456 330 L456 326 Q494 321 516 297.5 Q538 274 543 223 L555 101 L571 85 L606 85 L587 0 L446 0 Q418 0 406 14 Q394 28 392 52 L376 222 Q374 241 372 252.5 Q370 264 366.5 270 Q363 276 356.5 278 Q350 280 339 280 L257 280 L219 102 L232 85 L284 85 L265 0 Z M389 747 L357 793 L514 926 L542 926 L593 838 L411 747 L389 747 Z " />
<glyph glyph-name="racute" unicode="&#x155;" horiz-adv-x="416" d="M450 756 L501 668 L319 577 L297 577 L265 623 L422 756 L450 756 Z M106 427 L92 445 L47 445 L66 530 L225 530 Q240 530 248.5 526 Q257 522 260 515.5 Q263 509 262.5 501 Q262 493 261 486 L252 447 L257 447 Q264 458 277.5 474 Q291 490 310.5 504.5 Q330 519 355.5 529.5 Q381 540 412 540 Q420 540 428 539.5 Q436 539 441 538 Q447 537 452 537 L408 328 L320 328 L335 398 L322 414 Q296 406 275.5 394.5 Q255 383 244 375 L163 0 L14 0 L106 427 Z " />
<glyph glyph-name="uni0156" unicode="&#x156;" horiz-adv-x="664" d="M271 -210 L268 -185 Q257 -178 250.5 -165.5 Q244 -153 244 -139 Q244 -108 267 -83 Q290 -58 329 -58 Q358 -58 375.5 -74.5 Q393 -91 393 -117 Q393 -134 386.5 -148.5 Q380 -163 370 -176 L285 -286 L238 -257 L271 -210 Z M325 602 L278 378 L345 378 Q407 378 443.5 414 Q480 450 480 525 Q480 561 460.5 581.5 Q441 602 392 602 L325 602 Z M265 0 L-23 0 L-4 85 L39 85 L60 103 L164 597 L150 615 L107 615 L126 700 L417 700 Q523 700 583.5 658.5 Q644 617 644 531 Q644 481 625.5 444.5 Q607 408 578.5 383.5 Q550 359 517 346 Q484 333 456 330 L456 326 Q494 321 516 297.5 Q538 274 543 223 L555 101 L571 85 L606 85 L587 0 L446 0 Q418 0 406 14 Q394 28 392 52 L376 222 Q374 241 372 252.5 Q370 264 366.5 270 Q363 276 356.5 278 Q350 280 339 280 L257 280 L219 102 L232 85 L284 85 L265 0 Z " />
<glyph glyph-name="uni0157" unicode="&#x157;" horiz-adv-x="417" d="M20 -210 L17 -185 Q6 -178 -0.5 -165.5 Q-7 -153 -7 -139 Q-7 -108 16 -83 Q39 -58 78 -58 Q107 -58 124.5 -74.5 Q142 -91 142 -117 Q142 -134 135.5 -148.5 Q129 -163 119 -176 L34 -286 L-13 -257 L20 -210 Z M106 427 L92 445 L47 445 L66 530 L225 530 Q240 530 248.5 526 Q257 522 260 515.5 Q263 509 262.5 501 Q262 493 261 486 L252 447 L257 447 Q264 458 277.5 474 Q291 490 310.5 504.5 Q330 519 355.5 529.5 Q381 540 412 540 Q420 540 428 539.5 Q436 539 441 538 Q447 537 452 537 L408 328 L320 328 L335 398 L322 414 Q296 406 275.5 394.5 Q255 383 244 375 L163 0 L14 0 L106 427 Z " />
<glyph glyph-name="Rcaron" unicode="&#x158;" horiz-adv-x="664" d="M325 602 L278 378 L345 378 Q407 378 443.5 414 Q480 450 480 525 Q480 561 460.5 581.5 Q441 602 392 602 L325 602 Z M265 0 L-23 0 L-4 85 L39 85 L60 103 L164 597 L150 615 L107 615 L126 700 L417 700 Q523 700 583.5 658.5 Q644 617 644 531 Q644 481 625.5 444.5 Q607 408 578.5 383.5 Q550 359 517 346 Q484 333 456 330 L456 326 Q494 321 516 297.5 Q538 274 543 223 L555 101 L571 85 L606 85 L587 0 L446 0 Q418 0 406 14 Q394 28 392 52 L376 222 Q374 241 372 252.5 Q370 264 366.5 270 Q363 276 356.5 278 Q350 280 339 280 L257 280 L219 102 L232 85 L284 85 L265 0 Z M415 747 L368 747 L263 896 L298 930 L314 930 L410 855 L536 930 L563 930 L583 896 L415 747 Z " />
<glyph glyph-name="rcaron" unicode="&#x159;" horiz-adv-x="417" d="M328 577 L281 577 L176 726 L211 760 L227 760 L323 685 L449 760 L476 760 L496 726 L328 577 Z M106 427 L92 445 L47 445 L66 530 L225 530 Q240 530 248.5 526 Q257 522 260 515.5 Q263 509 262.5 501 Q262 493 261 486 L252 447 L257 447 Q264 458 277.5 474 Q291 490 310.5 504.5 Q330 519 355.5 529.5 Q381 540 412 540 Q420 540 428 539.5 Q436 539 441 538 Q447 537 452 537 L408 328 L320 328 L335 398 L322 414 Q296 406 275.5 394.5 Q255 383 244 375 L163 0 L14 0 L106 427 Z " />
<glyph glyph-name="Sacute" unicode="&#x15a;" horiz-adv-x="551" d="M502 225 Q502 171 482 127.5 Q462 84 424 53.5 Q386 23 332 6.5 Q278 -10 209 -10 Q161 -10 123 -3.5 Q85 3 57 11 Q24 21 -2 33 L35 211 L131 211 L111 120 L126 102 Q143 98 165 95.5 Q187 93 213 93 Q253 93 279 101.5 Q305 110 319.5 124 Q334 138 339.5 156 Q345 174 345 192 Q345 206 340 217 Q335 228 324 239 Q313 250 294 261 Q275 272 248 286 Q216 302 186 320.5 Q156 339 133 362 Q110 385 96 415 Q82 445 82 484 Q82 540 103.5 582 Q125 624 163 652.5 Q201 681 252.5 695.5 Q304 710 363 710 Q411 710 447.5 704 Q484 698 510 690 Q539 681 561 671 L522 499 L426 499 L444 582 L430 599 Q410 604 391.5 605.5 Q373 607 354 607 Q299 607 264 585.5 Q229 564 229 522 Q229 505 233.5 492.5 Q238 480 250.5 468.5 Q263 457 284.5 444.5 Q306 432 339 415 Q416 376 459 332.5 Q502 289 502 225 Z M372 747 L340 793 L497 926 L525 926 L576 838 L394 747 L372 747 Z " />
<glyph glyph-name="sacute" unicode="&#x15b;" horiz-adv-x="456" d="M427 756 L478 668 L296 577 L274 577 L242 623 L399 756 L427 756 Z M400 176 Q400 132 382 97.5 Q364 63 332 39 Q300 15 256 2.5 Q212 -10 161 -10 Q119 -10 87.5 -3.5 Q56 3 33 11 Q7 20 -14 32 L17 181 L103 181 L89 105 L102 87 Q110 85 126 82 Q142 79 159 79 Q187 79 205.5 85 Q224 91 235.5 100 Q247 109 251.5 120.5 Q256 132 256 144 Q256 158 252 168 Q248 178 238 186 Q228 194 211 201 Q194 208 169 216 Q102 238 75 276 Q48 314 48 362 Q48 399 63.5 431.5 Q79 464 109.5 488 Q140 512 184.5 526 Q229 540 287 540 Q320 540 349 535 Q378 530 399 525 Q424 519 444 511 L414 366 L328 366 L339 431 L327 447 Q320 449 309 450.5 Q298 452 284 452 Q242 452 213 438.5 Q184 425 184 394 Q184 370 200.5 357.5 Q217 345 260 330 Q326 307 363 271.5 Q400 236 400 176 Z " />
<glyph glyph-name="Scircumflex" unicode="&#x15c;" horiz-adv-x="551" d="M502 225 Q502 171 482 127.5 Q462 84 424 53.5 Q386 23 332 6.5 Q278 -10 209 -10 Q161 -10 123 -3.5 Q85 3 57 11 Q24 21 -2 33 L35 211 L131 211 L111 120 L126 102 Q143 98 165 95.5 Q187 93 213 93 Q253 93 279 101.5 Q305 110 319.5 124 Q334 138 339.5 156 Q345 174 345 192 Q345 206 340 217 Q335 228 324 239 Q313 250 294 261 Q275 272 248 286 Q216 302 186 320.5 Q156 339 133 362 Q110 385 96 415 Q82 445 82 484 Q82 540 103.5 582 Q125 624 163 652.5 Q201 681 252.5 695.5 Q304 710 363 710 Q411 710 447.5 704 Q484 698 510 690 Q539 681 561 671 L522 499 L426 499 L444 582 L430 599 Q410 604 391.5 605.5 Q373 607 354 607 Q299 607 264 585.5 Q229 564 229 522 Q229 505 233.5 492.5 Q238 480 250.5 468.5 Q263 457 284.5 444.5 Q306 432 339 415 Q416 376 459 332.5 Q502 289 502 225 Z M234 746 L214 780 L382 929 L429 929 L534 780 L499 746 L483 746 L387 821 L261 746 L234 746 Z " />
<glyph glyph-name="scircumflex" unicode="&#x15d;" horiz-adv-x="456" d="M147 573 L127 607 L295 756 L342 756 L447 607 L412 573 L396 573 L300 648 L174 573 L147 573 Z M400 176 Q400 132 382 97.5 Q364 63 332 39 Q300 15 256 2.5 Q212 -10 161 -10 Q119 -10 87.5 -3.5 Q56 3 33 11 Q7 20 -14 32 L17 181 L103 181 L89 105 L102 87 Q110 85 126 82 Q142 79 159 79 Q187 79 205.5 85 Q224 91 235.5 100 Q247 109 251.5 120.5 Q256 132 256 144 Q256 158 252 168 Q248 178 238 186 Q228 194 211 201 Q194 208 169 216 Q102 238 75 276 Q48 314 48 362 Q48 399 63.5 431.5 Q79 464 109.5 488 Q140 512 184.5 526 Q229 540 287 540 Q320 540 349 535 Q378 530 399 525 Q424 519 444 511 L414 366 L328 366 L339 431 L327 447 Q320 449 309 450.5 Q298 452 284 452 Q242 452 213 438.5 Q184 425 184 394 Q184 370 200.5 357.5 Q217 345 260 330 Q326 307 363 271.5 Q400 236 400 176 Z " />
<glyph glyph-name="Scedilla" unicode="&#x15e;" horiz-adv-x="551" d="M502 225 Q502 171 482 127.5 Q462 84 424 53.5 Q386 23 332 6.5 Q278 -10 209 -10 Q161 -10 123 -3.5 Q85 3 57 11 Q24 21 -2 33 L35 211 L131 211 L111 120 L126 102 Q143 98 165 95.5 Q187 93 213 93 Q253 93 279 101.5 Q305 110 319.5 124 Q334 138 339.5 156 Q345 174 345 192 Q345 206 340 217 Q335 228 324 239 Q313 250 294 261 Q275 272 248 286 Q216 302 186 320.5 Q156 339 133 362 Q110 385 96 415 Q82 445 82 484 Q82 540 103.5 582 Q125 624 163 652.5 Q201 681 252.5 695.5 Q304 710 363 710 Q411 710 447.5 704 Q484 698 510 690 Q539 681 561 671 L522 499 L426 499 L444 582 L430 599 Q410 604 391.5 605.5 Q373 607 354 607 Q299 607 264 585.5 Q229 564 229 522 Q229 505 233.5 492.5 Q238 480 250.5 468.5 Q263 457 284.5 444.5 Q306 432 339 415 Q416 376 459 332.5 Q502 289 502 225 Z M92 -46 L156 15 L234 15 L183 -36 Q221 -36 242.5 -50 Q264 -64 264 -90 Q264 -116 251.5 -133 Q239 -150 219.5 -160.5 Q200 -171 175.5 -175.5 Q151 -180 127 -180 Q95 -180 68 -171.5 Q41 -163 27 -151 L56 -109 Q64 -114 84 -122 Q104 -130 124 -130 Q139 -130 150 -124.5 Q161 -119 161 -103 Q161 -89 141 -80 Q121 -71 88 -66 L92 -46 Z " />
<glyph glyph-name="scedilla" unicode="&#x15f;" horiz-adv-x="457" d="M401 176 Q401 132 383 97.5 Q365 63 333 39 Q301 15 257 2.5 Q213 -10 162 -10 Q120 -10 88.5 -3.5 Q57 3 34 11 Q8 20 -13 32 L18 181 L104 181 L90 105 L103 87 Q111 85 127 82 Q143 79 160 79 Q188 79 206.5 85 Q225 91 236.5 100 Q248 109 252.5 120.5 Q257 132 257 144 Q257 158 253 168 Q249 178 239 186 Q229 194 212 201 Q195 208 170 216 Q103 238 76 276 Q49 314 49 362 Q49 399 64.5 431.5 Q80 464 110.5 488 Q141 512 185.5 526 Q230 540 288 540 Q321 540 350 535 Q379 530 400 525 Q425 519 445 511 L415 366 L329 366 L340 431 L328 447 Q321 449 310 450.5 Q299 452 285 452 Q243 452 214 438.5 Q185 425 185 394 Q185 370 201.5 357.5 Q218 345 261 330 Q327 307 364 271.5 Q401 236 401 176 Z M37 -46 L101 15 L179 15 L128 -36 Q166 -36 187.5 -50 Q209 -64 209 -90 Q209 -116 196.5 -133 Q184 -150 164.5 -160.5 Q145 -171 120.5 -175.5 Q96 -180 72 -180 Q40 -180 13 -171.5 Q-14 -163 -28 -151 L1 -109 Q9 -114 29 -122 Q49 -130 69 -130 Q84 -130 95 -124.5 Q106 -119 106 -103 Q106 -89 86 -80 Q66 -71 33 -66 L37 -46 Z " />
<glyph glyph-name="Scaron" unicode="&#x160;" horiz-adv-x="551" d="M502 225 Q502 171 482 127.5 Q462 84 424 53.5 Q386 23 332 6.5 Q278 -10 209 -10 Q161 -10 123 -3.5 Q85 3 57 11 Q24 21 -2 33 L35 211 L131 211 L111 120 L126 102 Q143 98 165 95.5 Q187 93 213 93 Q253 93 279 101.5 Q305 110 319.5 124 Q334 138 339.5 156 Q345 174 345 192 Q345 206 340 217 Q335 228 324 239 Q313 250 294 261 Q275 272 248 286 Q216 302 186 320.5 Q156 339 133 362 Q110 385 96 415 Q82 445 82 484 Q82 540 103.5 582 Q125 624 163 652.5 Q201 681 252.5 695.5 Q304 710 363 710 Q411 710 447.5 704 Q484 698 510 690 Q539 681 561 671 L522 499 L426 499 L444 582 L430 599 Q410 604 391.5 605.5 Q373 607 354 607 Q299 607 264 585.5 Q229 564 229 522 Q229 505 233.5 492.5 Q238 480 250.5 468.5 Q263 457 284.5 444.5 Q306 432 339 415 Q416 376 459 332.5 Q502 289 502 225 Z M398 747 L351 747 L246 896 L281 930 L297 930 L393 855 L519 930 L546 930 L566 896 L398 747 Z " />
<glyph glyph-name="scaron" unicode="&#x161;" horiz-adv-x="456" d="M315 577 L268 577 L163 726 L198 760 L214 760 L310 685 L436 760 L463 760 L483 726 L315 577 Z M400 176 Q400 132 382 97.5 Q364 63 332 39 Q300 15 256 2.5 Q212 -10 161 -10 Q119 -10 87.5 -3.5 Q56 3 33 11 Q7 20 -14 32 L17 181 L103 181 L89 105 L102 87 Q110 85 126 82 Q142 79 159 79 Q187 79 205.5 85 Q224 91 235.5 100 Q247 109 251.5 120.5 Q256 132 256 144 Q256 158 252 168 Q248 178 238 186 Q228 194 211 201 Q194 208 169 216 Q102 238 75 276 Q48 314 48 362 Q48 399 63.5 431.5 Q79 464 109.5 488 Q140 512 184.5 526 Q229 540 287 540 Q320 540 349 535 Q378 530 399 525 Q424 519 444 511 L414 366 L328 366 L339 431 L327 447 Q320 449 309 450.5 Q298 452 284 452 Q242 452 213 438.5 Q184 425 184 394 Q184 370 200.5 357.5 Q217 345 260 330 Q326 307 363 271.5 Q400 236 400 176 Z " />
<glyph glyph-name="uni0162" unicode="&#x162;" horiz-adv-x="590" d="M152 -46 L216 15 L294 15 L243 -36 Q281 -36 302.5 -50 Q324 -64 324 -90 Q324 -116 311.5 -133 Q299 -150 279.5 -160.5 Q260 -171 235.5 -175.5 Q211 -180 187 -180 Q155 -180 128 -171.5 Q101 -163 87 -151 L116 -109 Q124 -114 144 -122 Q164 -130 184 -130 Q199 -130 210 -124.5 Q221 -119 221 -103 Q221 -89 201 -80 Q181 -71 148 -66 L152 -46 Z M108 700 L652 700 L609 499 L517 499 L532 578 L519 596 L437 596 L334 103 L348 85 L405 85 L386 0 L82 0 L101 85 L154 85 L175 103 L278 596 L195 596 L174 578 L159 499 L65 499 L108 700 Z " />
<glyph glyph-name="uni0163" unicode="&#x163;" horiz-adv-x="355" d="M73 -46 L137 15 L215 15 L164 -36 Q202 -36 223.5 -50 Q245 -64 245 -90 Q245 -116 232.5 -133 Q220 -150 200.5 -160.5 Q181 -171 156.5 -175.5 Q132 -180 108 -180 Q76 -180 49 -171.5 Q22 -163 8 -151 L37 -109 Q45 -114 65 -122 Q85 -130 105 -130 Q120 -130 131 -124.5 Q142 -119 142 -103 Q142 -89 122 -80 Q102 -71 69 -66 L73 -46 Z M259 445 L185 98 L200 80 L296 80 L279 0 Q259 -3 236 -5 Q216 -7 191.5 -8.5 Q167 -10 141 -10 Q76 -10 50.5 19.5 Q25 49 40 120 L110 445 L49 445 L66 528 L110 528 L131 546 L209 670 L306 670 L276 528 L386 528 L369 445 L259 445 Z " />
<glyph glyph-name="Tcaron" unicode="&#x164;" horiz-adv-x="590" d="M108 700 L652 700 L609 499 L517 499 L532 578 L519 596 L437 596 L334 103 L348 85 L405 85 L386 0 L82 0 L101 85 L154 85 L175 103 L278 596 L195 596 L174 578 L159 499 L65 499 L108 700 Z M416 747 L369 747 L264 896 L299 930 L315 930 L411 855 L537 930 L564 930 L584 896 L416 747 Z " />
<glyph glyph-name="tcaron" unicode="&#x165;" horiz-adv-x="355" d="M343 582 L385 780 L494 780 L481 719 L433 582 L343 582 Z M259 445 L185 98 L200 80 L296 80 L279 0 Q259 -3 236 -5 Q216 -7 191.5 -8.5 Q167 -10 141 -10 Q76 -10 50.5 19.5 Q25 49 40 120 L110 445 L49 445 L66 528 L110 528 L131 546 L209 670 L306 670 L276 528 L386 528 L369 445 L259 445 Z " />
<glyph glyph-name="Tbar" unicode="&#x166;" horiz-adv-x="592" d="M108 700 L652 700 L609 499 L517 499 L532 578 L519 596 L437 596 L393 385 L495 385 L479 311 L377 311 L334 103 L348 85 L405 85 L386 0 L82 0 L101 85 L154 85 L175 103 L218 311 L115 311 L132 385 L234 385 L278 596 L195 596 L174 578 L159 499 L65 499 L108 700 Z " />
<glyph glyph-name="tbar" unicode="&#x167;" horiz-adv-x="357" d="M260 445 L236 335 L344 335 L330 267 L222 267 L186 98 L201 80 L297 80 L280 0 Q260 -3 237 -5 Q217 -7 192.5 -8.5 Q168 -10 142 -10 Q77 -10 51.5 19.5 Q26 49 41 120 L72 267 L21 267 L35 335 L87 335 L111 445 L50 445 L67 528 L111 528 L132 546 L210 670 L307 670 L277 528 L387 528 L370 445 L260 445 Z " />
<glyph glyph-name="Utilde" unicode="&#x168;" horiz-adv-x="669" d="M523 597 L509 615 L466 615 L484 700 L728 700 L710 615 L666 615 L645 597 L567 230 Q553 165 528.5 119.5 Q504 74 469.5 45 Q435 16 392 3 Q349 -10 298 -10 Q189 -10 126 32.5 Q63 75 63 166 Q63 198 70 230 L148 597 L134 615 L91 615 L109 700 L391 700 L373 615 L329 615 L308 597 L230 228 Q227 212 225 198.5 Q223 185 223 173 Q223 142 244.5 119 Q266 96 315 96 Q345 96 366.5 104.5 Q388 113 403 129.5 Q418 146 428 170.5 Q438 195 445 228 L523 597 Z M627 898 L617 853 Q606 803 583 780 Q560 757 515 757 Q498 757 480.5 762.5 Q463 768 445.5 775 Q428 782 411 787.5 Q394 793 379 793 Q372 793 367.5 791.5 Q363 790 360 788 Q356 786 354 784 L345 746 L282 746 L291 787 Q304 845 325.5 868.5 Q347 892 387 892 Q404 892 421.5 885.5 Q439 879 457.5 871.5 Q476 864 494.5 857.5 Q513 851 531 851 Q547 851 554 858 Q558 861 559 865 L566 898 L627 898 Z " />
<glyph glyph-name="utilde" unicode="&#x169;" horiz-adv-x="589" d="M410 0 Q392 0 374 1.5 Q356 3 342 9 Q328 15 320.5 26.5 Q313 38 316 59 L318 73 L314 73 Q302 58 286.5 43 Q271 28 252.5 16.5 Q234 5 211.5 -2.5 Q189 -10 162 -10 Q102 -10 70.5 22.5 Q39 55 39 111 Q39 134 45 160 L102 427 L87 445 L43 445 L62 530 L165 530 Q186 530 205 528 Q224 526 237.5 517 Q251 508 256 490 Q261 472 254 439 L197 174 Q195 166 194 159 Q193 152 193 144 Q193 127 202 115 Q211 103 238 103 Q251 103 264.5 108 Q278 113 289.5 120 Q301 127 311 135.5 Q321 144 329 151 L411 530 L560 530 L466 100 L481 80 L525 80 L508 0 L410 0 Z M444 681 Q460 681 467 688 Q471 691 472 695 L479 728 L540 728 L530 683 Q519 633 496 610 Q473 587 428 587 Q411 587 393.5 592.5 Q376 598 358.5 605 Q341 612 324 617.5 Q307 623 292 623 Q285 623 280.5 621.5 Q276 620 273 618 Q269 616 267 614 L258 576 L195 576 L204 617 Q217 675 238.5 698.5 Q260 722 300 722 Q317 722 334.5 715.5 Q352 709 370.5 701.5 Q389 694 407.5 687.5 Q426 681 444 681 Z " />
<glyph glyph-name="Umacron" unicode="&#x16a;" horiz-adv-x="669" d="M523 597 L509 615 L466 615 L484 700 L728 700 L710 615 L666 615 L645 597 L567 230 Q553 165 528.5 119.5 Q504 74 469.5 45 Q435 16 392 3 Q349 -10 298 -10 Q189 -10 126 32.5 Q63 75 63 166 Q63 198 70 230 L148 597 L134 615 L91 615 L109 700 L391 700 L373 615 L329 615 L308 597 L230 228 Q227 212 225 198.5 Q223 185 223 173 Q223 142 244.5 119 Q266 96 315 96 Q345 96 366.5 104.5 Q388 113 403 129.5 Q418 146 428 170.5 Q438 195 445 228 L523 597 Z M343 876 L601 876 L582 788 L324 788 L343 876 Z " />
<glyph glyph-name="umacron" unicode="&#x16b;" horiz-adv-x="589" d="M410 0 Q392 0 374 1.5 Q356 3 342 9 Q328 15 320.5 26.5 Q313 38 316 59 L318 73 L314 73 Q302 58 286.5 43 Q271 28 252.5 16.5 Q234 5 211.5 -2.5 Q189 -10 162 -10 Q102 -10 70.5 22.5 Q39 55 39 111 Q39 134 45 160 L102 427 L87 445 L43 445 L62 530 L165 530 Q186 530 205 528 Q224 526 237.5 517 Q251 508 256 490 Q261 472 254 439 L197 174 Q195 166 194 159 Q193 152 193 144 Q193 127 202 115 Q211 103 238 103 Q251 103 264.5 108 Q278 113 289.5 120 Q301 127 311 135.5 Q321 144 329 151 L411 530 L560 530 L466 100 L481 80 L525 80 L508 0 L410 0 Z M247 706 L505 706 L486 618 L228 618 L247 706 Z " />
<glyph glyph-name="Ubreve" unicode="&#x16c;" horiz-adv-x="669" d="M523 597 L509 615 L466 615 L484 700 L728 700 L710 615 L666 615 L645 597 L567 230 Q553 165 528.5 119.5 Q504 74 469.5 45 Q435 16 392 3 Q349 -10 298 -10 Q189 -10 126 32.5 Q63 75 63 166 Q63 198 70 230 L148 597 L134 615 L91 615 L109 700 L391 700 L373 615 L329 615 L308 597 L230 228 Q227 212 225 198.5 Q223 185 223 173 Q223 142 244.5 119 Q266 96 315 96 Q345 96 366.5 104.5 Q388 113 403 129.5 Q418 146 428 170.5 Q438 195 445 228 L523 597 Z M602 876 Q594 853 581 832.5 Q568 812 548.5 795.5 Q529 779 504.5 769.5 Q480 760 450 760 Q423 760 403 769.5 Q383 779 370 795 Q357 811 350.5 832 Q344 853 344 876 L412 895 Q414 875 425.5 858.5 Q437 842 463 842 Q492 842 511.5 857 Q531 872 541 891 L602 876 Z " />
<glyph glyph-name="ubreve" unicode="&#x16d;" horiz-adv-x="589" d="M410 0 Q392 0 374 1.5 Q356 3 342 9 Q328 15 320.5 26.5 Q313 38 316 59 L318 73 L314 73 Q302 58 286.5 43 Q271 28 252.5 16.5 Q234 5 211.5 -2.5 Q189 -10 162 -10 Q102 -10 70.5 22.5 Q39 55 39 111 Q39 134 45 160 L102 427 L87 445 L43 445 L62 530 L165 530 Q186 530 205 528 Q224 526 237.5 517 Q251 508 256 490 Q261 472 254 439 L197 174 Q195 166 194 159 Q193 152 193 144 Q193 127 202 115 Q211 103 238 103 Q251 103 264.5 108 Q278 113 289.5 120 Q301 127 311 135.5 Q321 144 329 151 L411 530 L560 530 L466 100 L481 80 L525 80 L508 0 L410 0 Z M506 706 Q498 683 485 662.5 Q472 642 452.5 625.5 Q433 609 408.5 599.5 Q384 590 354 590 Q327 590 307 599.5 Q287 609 274 625 Q261 641 254.5 662 Q248 683 248 706 L316 725 Q318 705 329.5 688.5 Q341 672 367 672 Q396 672 415.5 687 Q435 702 445 721 L506 706 Z " />
<glyph glyph-name="Uring" unicode="&#x16e;" horiz-adv-x="669" d="M476 914 Q527 914 557.5 893.5 Q588 873 588 834 Q588 809 576.5 791 Q565 773 546 761 Q527 749 502 743.5 Q477 738 449 738 Q400 738 369 757 Q338 776 338 812 Q338 839 348.5 858 Q359 877 378 889.5 Q397 902 422 908 Q447 914 476 914 Z M418 816 Q418 782 455 782 Q484 782 496 797 Q508 812 508 835 Q508 852 499.5 861 Q491 870 470 870 Q442 870 430 855 Q418 840 418 816 Z M523 597 L509 615 L466 615 L484 700 L728 700 L710 615 L666 615 L645 597 L567 230 Q553 165 528.5 119.5 Q504 74 469.5 45 Q435 16 392 3 Q349 -10 298 -10 Q189 -10 126 32.5 Q63 75 63 166 Q63 198 70 230 L148 597 L134 615 L91 615 L109 700 L391 700 L373 615 L329 615 L308 597 L230 228 Q227 212 225 198.5 Q223 185 223 173 Q223 142 244.5 119 Q266 96 315 96 Q345 96 366.5 104.5 Q388 113 403 129.5 Q418 146 428 170.5 Q438 195 445 228 L523 597 Z " />
<glyph glyph-name="uring" unicode="&#x16f;" horiz-adv-x="589" d="M381 744 Q432 744 462.5 723.5 Q493 703 493 664 Q493 639 481.5 621 Q470 603 451 591 Q432 579 407 573.5 Q382 568 354 568 Q305 568 274 587 Q243 606 243 642 Q243 669 253.5 688 Q264 707 283 719.5 Q302 732 327 738 Q352 744 381 744 Z M323 646 Q323 612 360 612 Q389 612 401 627 Q413 642 413 665 Q413 682 404.5 691 Q396 700 375 700 Q347 700 335 685 Q323 670 323 646 Z M410 0 Q392 0 374 1.5 Q356 3 342 9 Q328 15 320.5 26.5 Q313 38 316 59 L318 73 L314 73 Q302 58 286.5 43 Q271 28 252.5 16.5 Q234 5 211.5 -2.5 Q189 -10 162 -10 Q102 -10 70.5 22.5 Q39 55 39 111 Q39 134 45 160 L102 427 L87 445 L43 445 L62 530 L165 530 Q186 530 205 528 Q224 526 237.5 517 Q251 508 256 490 Q261 472 254 439 L197 174 Q195 166 194 159 Q193 152 193 144 Q193 127 202 115 Q211 103 238 103 Q251 103 264.5 108 Q278 113 289.5 120 Q301 127 311 135.5 Q321 144 329 151 L411 530 L560 530 L466 100 L481 80 L525 80 L508 0 L410 0 Z " />
<glyph glyph-name="Uhungarumlaut" unicode="&#x170;" horiz-adv-x="669" d="M363 747 L338 787 L484 926 L512 926 L554 867 L382 747 L363 747 Z M500 747 L481 784 L623 901 L651 901 L695 833 L520 747 L500 747 Z M523 597 L509 615 L466 615 L484 700 L728 700 L710 615 L666 615 L645 597 L567 230 Q553 165 528.5 119.5 Q504 74 469.5 45 Q435 16 392 3 Q349 -10 298 -10 Q189 -10 126 32.5 Q63 75 63 166 Q63 198 70 230 L148 597 L134 615 L91 615 L109 700 L391 700 L373 615 L329 615 L308 597 L230 228 Q227 212 225 198.5 Q223 185 223 173 Q223 142 244.5 119 Q266 96 315 96 Q345 96 366.5 104.5 Q388 113 403 129.5 Q418 146 428 170.5 Q438 195 445 228 L523 597 Z " />
<glyph glyph-name="uhungarumlaut" unicode="&#x171;" horiz-adv-x="589" d="M410 0 Q392 0 374 1.5 Q356 3 342 9 Q328 15 320.5 26.5 Q313 38 316 59 L318 73 L314 73 Q302 58 286.5 43 Q271 28 252.5 16.5 Q234 5 211.5 -2.5 Q189 -10 162 -10 Q102 -10 70.5 22.5 Q39 55 39 111 Q39 134 45 160 L102 427 L87 445 L43 445 L62 530 L165 530 Q186 530 205 528 Q224 526 237.5 517 Q251 508 256 490 Q261 472 254 439 L197 174 Q195 166 194 159 Q193 152 193 144 Q193 127 202 115 Q211 103 238 103 Q251 103 264.5 108 Q278 113 289.5 120 Q301 127 311 135.5 Q321 144 329 151 L411 530 L560 530 L466 100 L481 80 L525 80 L508 0 L410 0 Z M264 577 L235 617 L381 756 L409 756 L451 697 L283 577 L264 577 Z M397 577 L378 614 L520 731 L548 731 L592 663 L417 577 L397 577 Z " />
<glyph glyph-name="Uogonek" unicode="&#x172;" horiz-adv-x="669" d="M269 -180 Q219 -180 192 -162.5 Q165 -145 165 -107 Q165 -72 189.5 -48.5 Q214 -25 251 -8 Q163 0 113 42.5 Q63 85 63 166 Q63 198 70 230 L148 597 L134 615 L91 615 L109 700 L391 700 L373 615 L329 615 L308 597 L230 228 Q227 212 225 198.5 Q223 185 223 173 Q223 142 244.5 119 Q266 96 315 96 Q345 96 366.5 104.5 Q388 113 403 129.5 Q418 146 428 170.5 Q438 195 445 228 L523 597 L509 615 L466 615 L484 700 L728 700 L710 615 L666 615 L645 597 L567 230 Q556 180 540 142.5 Q524 105 502 78.5 Q480 52 453.5 34 Q427 16 396 5 Q370 -4 347.5 -13.5 Q325 -23 308 -33.5 Q291 -44 281 -57 Q271 -70 271 -86 Q271 -109 282 -117.5 Q293 -126 313 -126 Q327 -126 345 -120 Q363 -114 370 -109 L381 -151 Q362 -163 331.5 -171.5 Q301 -180 269 -180 Z " />
<glyph glyph-name="uogonek" unicode="&#x173;" horiz-adv-x="588" d="M475 0 Q425 -10 393.5 -31 Q362 -52 362 -86 Q362 -109 373 -117.5 Q384 -126 404 -126 Q418 -126 436 -120 Q454 -114 461 -109 L472 -151 Q453 -163 422.5 -171.5 Q392 -180 360 -180 Q310 -180 283 -162.5 Q256 -145 256 -107 Q256 -68 284 -40.5 Q312 -13 354 4 Q334 9 322.5 21 Q311 33 315 59 L317 73 L313 73 Q301 58 285.5 43 Q270 28 251.5 16.5 Q233 5 210.5 -2.5 Q188 -10 161 -10 Q101 -10 69.5 22.5 Q38 55 38 111 Q38 134 44 160 L101 427 L86 445 L42 445 L61 530 L164 530 Q185 530 204 528 Q223 526 236.5 517 Q250 508 255 490 Q260 472 253 439 L196 174 Q194 166 193 159 Q192 152 192 144 Q192 127 201 115 Q210 103 237 103 Q250 103 263.5 108 Q277 113 288.5 120 Q300 127 310 135.5 Q320 144 328 151 L410 530 L559 530 L465 100 L480 80 L524 80 L507 0 L475 0 Z " />
<glyph glyph-name="Wcircumflex" unicode="&#x174;" horiz-adv-x="947" d="M440 746 L420 780 L588 929 L635 929 L740 780 L705 746 L689 746 L593 821 L467 746 L440 746 Z M108 600 L96 615 L61 615 L80 700 L343 700 L324 615 L289 615 L270 599 L294 245 L511 700 L634 700 L662 245 L833 597 L820 615 L780 615 L799 700 L1032 700 L1013 615 L981 615 L962 599 L663 -2 L528 -2 L496 406 L296 -2 L160 -2 L108 600 Z " />
<glyph glyph-name="wcircumflex" unicode="&#x175;" horiz-adv-x="771" d="M315 573 L295 607 L463 756 L510 756 L615 607 L580 573 L564 573 L468 648 L342 573 L315 573 Z M82 429 L70 445 L34 445 L52 530 L131 530 Q144 530 159 527.5 Q174 525 187.5 517 Q201 509 210.5 493 Q220 477 223 449 L243 200 L402 530 L507 530 L528 195 L645 427 L633 445 L602 445 L620 530 L709 530 Q761 530 771 503.5 Q781 477 761 441 L528 -2 L416 -2 L393 288 L250 -2 L134 -2 L82 429 Z " />
<glyph glyph-name="Ycircumflex" unicode="&#x176;" horiz-adv-x="612" d="M109 0 L128 85 L171 85 L192 103 L225 259 L105 598 L92 615 L55 615 L73 700 L340 700 L322 615 L290 615 L272 600 L346 391 L491 599 L479 615 L446 615 L464 700 L695 700 L677 615 L640 615 L621 599 L391 292 L351 102 L364 85 L409 85 L390 0 L109 0 Z M288 746 L268 780 L436 929 L483 929 L588 780 L553 746 L537 746 L441 821 L315 746 L288 746 Z " />
<glyph glyph-name="ycircumflex" unicode="&#x177;" horiz-adv-x="557" d="M148 530 Q163 530 178 528 Q193 526 206 517.5 Q219 509 229 492.5 Q239 476 243 447 L280 184 L418 427 L406 445 L380 445 L399 530 L488 530 Q514 530 530 522.5 Q546 515 553 502 Q560 489 557.5 473 Q555 457 545 439 L252 -72 L264 -90 L306 -90 L291 -170 L44 -170 L59 -90 L113 -90 L135 -72 L169 -12 L93 428 L78 445 L33 445 L52 530 L148 530 Z M200 573 L180 607 L348 756 L395 756 L500 607 L465 573 L449 573 L353 648 L227 573 L200 573 Z " />
<glyph glyph-name="Ydieresis" unicode="&#x178;" horiz-adv-x="612" d="M109 0 L128 85 L171 85 L192 103 L225 259 L105 598 L92 615 L55 615 L73 700 L340 700 L322 615 L290 615 L272 600 L346 391 L491 599 L479 615 L446 615 L464 700 L695 700 L677 615 L640 615 L621 599 L391 292 L351 102 L364 85 L409 85 L390 0 L109 0 Z M277 830 Q277 859 299.5 882 Q322 905 359 905 Q385 905 400 888.5 Q415 872 415 850 Q415 820 391.5 798 Q368 776 332 776 Q306 776 291.5 792 Q277 808 277 830 Z M446 830 Q446 859 468.5 882 Q491 905 528 905 Q554 905 569 888.5 Q584 872 584 850 Q584 820 560.5 798 Q537 776 501 776 Q475 776 460.5 792 Q446 808 446 830 Z " />
<glyph glyph-name="Zacute" unicode="&#x179;" horiz-adv-x="597" d="M-27 0 L-9 86 L410 597 L223 597 L203 581 L185 500 L90 500 L133 700 L628 700 L610 614 L196 104 L410 104 L429 120 L446 201 L541 201 L498 0 L-27 0 Z M387 747 L355 793 L512 926 L540 926 L591 838 L409 747 L387 747 Z " />
<glyph glyph-name="zacute" unicode="&#x17a;" horiz-adv-x="505" d="M439 756 L490 668 L308 577 L286 577 L254 623 L411 756 L439 756 Z M-31 0 L-17 66 L308 442 L175 442 L156 426 L142 358 L47 358 L83 530 L513 530 L499 464 L175 88 L321 88 L340 104 L354 172 L449 172 L413 0 L-31 0 Z " />
<glyph glyph-name="Zdotaccent" unicode="&#x17b;" horiz-adv-x="597" d="M319 816 Q319 834 326.5 851 Q334 868 347.5 881 Q361 894 379.5 902 Q398 910 421 910 Q453 910 472 889.5 Q491 869 491 842 Q491 804 462 776.5 Q433 749 387 749 Q355 749 337 769 Q319 789 319 816 Z M-27 0 L-9 86 L410 597 L223 597 L203 581 L185 500 L90 500 L133 700 L628 700 L610 614 L196 104 L410 104 L429 120 L446 201 L541 201 L498 0 L-27 0 Z " />
<glyph glyph-name="zdotaccent" unicode="&#x17c;" horiz-adv-x="505" d="M-31 0 L-17 66 L308 442 L175 442 L156 426 L142 358 L47 358 L83 530 L513 530 L499 464 L175 88 L321 88 L340 104 L354 172 L449 172 L413 0 L-31 0 Z M231 646 Q231 664 238.5 681 Q246 698 259.5 711 Q273 724 291.5 732 Q310 740 333 740 Q365 740 384 719.5 Q403 699 403 672 Q403 634 374 606.5 Q345 579 299 579 Q267 579 249 599 Q231 619 231 646 Z " />
<glyph glyph-name="Zcaron" unicode="&#x17d;" horiz-adv-x="597" d="M-27 0 L-9 86 L410 597 L223 597 L203 581 L185 500 L90 500 L133 700 L628 700 L610 614 L196 104 L410 104 L429 120 L446 201 L541 201 L498 0 L-27 0 Z M413 747 L366 747 L261 896 L296 930 L312 930 L408 855 L534 930 L561 930 L581 896 L413 747 Z " />
<glyph glyph-name="zcaron" unicode="&#x17e;" horiz-adv-x="505" d="M327 577 L280 577 L175 726 L210 760 L226 760 L322 685 L448 760 L475 760 L495 726 L327 577 Z M-31 0 L-17 66 L308 442 L175 442 L156 426 L142 358 L47 358 L83 530 L513 530 L499 464 L175 88 L321 88 L340 104 L354 172 L449 172 L413 0 L-31 0 Z " />
<glyph glyph-name="longs" unicode="&#x17f;" horiz-adv-x="327" d="M173 2 Q166 -33 150 -65.5 Q134 -98 106.5 -123.5 Q79 -149 39.5 -164.5 Q0 -180 -52 -180 Q-79 -180 -98.5 -178.5 Q-118 -177 -131 -175 Q-146 -172 -156 -169 L-132 -57 L-47 -57 L-56 -98 L-46 -111 L-45 -111 Q-31 -111 -20 -102.5 Q-9 -94 -1 -79.5 Q7 -65 12.5 -46 Q18 -27 22 -7 L108 445 L47 445 L64 528 L107 528 L129 546 L132 558 Q141 592 157.5 624.5 Q174 657 201 682.5 Q228 708 266 724 Q304 740 357 740 Q383 740 403 738 Q423 736 436 734 L461 729 L436 612 L351 612 L361 658 L351 671 L350 671 Q336 671 325.5 662.5 Q315 654 307 639.5 Q299 625 293 606 Q287 587 283 567 L173 2 Z " />
<glyph glyph-name="florin" unicode="&#x192;" horiz-adv-x="484" d="M91 447 L187 447 L221 560 Q233 599 250.5 632 Q268 665 295 689 Q322 713 361 726.5 Q400 740 454 740 Q483 740 504.5 738 Q526 736 540 734 Q556 731 567 729 L531 615 L446 615 L460 658 L450 671 L449 671 Q405 671 373 569 L336 447 L443 447 L427 374 L312 374 L196 0 Q184 -39 167 -72 Q150 -105 123 -129 Q96 -153 57.5 -166.5 Q19 -180 -36 -180 Q-65 -180 -86.5 -178.5 Q-108 -177 -122 -175 Q-139 -172 -149 -169 L-113 -55 L-28 -55 L-42 -98 L-32 -111 L-31 -111 Q13 -111 45 -9 L163 374 L75 374 L91 447 Z " />
<glyph glyph-name="uni0218" unicode="&#x218;" horiz-adv-x="551" d="M154 -210 L151 -185 Q140 -178 133.5 -165.5 Q127 -153 127 -139 Q127 -108 150 -83 Q173 -58 212 -58 Q241 -58 258.5 -74.5 Q276 -91 276 -117 Q276 -134 269.5 -148.5 Q263 -163 253 -176 L168 -286 L121 -257 L154 -210 Z M502 225 Q502 171 482 127.5 Q462 84 424 53.5 Q386 23 332 6.5 Q278 -10 209 -10 Q161 -10 123 -3.5 Q85 3 57 11 Q24 21 -2 33 L35 211 L131 211 L111 120 L126 102 Q143 98 165 95.5 Q187 93 213 93 Q253 93 279 101.5 Q305 110 319.5 124 Q334 138 339.5 156 Q345 174 345 192 Q345 206 340 217 Q335 228 324 239 Q313 250 294 261 Q275 272 248 286 Q216 302 186 320.5 Q156 339 133 362 Q110 385 96 415 Q82 445 82 484 Q82 540 103.5 582 Q125 624 163 652.5 Q201 681 252.5 695.5 Q304 710 363 710 Q411 710 447.5 704 Q484 698 510 690 Q539 681 561 671 L522 499 L426 499 L444 582 L430 599 Q410 604 391.5 605.5 Q373 607 354 607 Q299 607 264 585.5 Q229 564 229 522 Q229 505 233.5 492.5 Q238 480 250.5 468.5 Q263 457 284.5 444.5 Q306 432 339 415 Q416 376 459 332.5 Q502 289 502 225 Z " />
<glyph glyph-name="uni0219" unicode="&#x219;" horiz-adv-x="456" d="M98 -210 L95 -185 Q84 -178 77.5 -165.5 Q71 -153 71 -139 Q71 -108 94 -83 Q117 -58 156 -58 Q185 -58 202.5 -74.5 Q220 -91 220 -117 Q220 -134 213.5 -148.5 Q207 -163 197 -176 L112 -286 L65 -257 L98 -210 Z M400 176 Q400 132 382 97.5 Q364 63 332 39 Q300 15 256 2.5 Q212 -10 161 -10 Q119 -10 87.5 -3.5 Q56 3 33 11 Q7 20 -14 32 L17 181 L103 181 L89 105 L102 87 Q110 85 126 82 Q142 79 159 79 Q187 79 205.5 85 Q224 91 235.5 100 Q247 109 251.5 120.5 Q256 132 256 144 Q256 158 252 168 Q248 178 238 186 Q228 194 211 201 Q194 208 169 216 Q102 238 75 276 Q48 314 48 362 Q48 399 63.5 431.5 Q79 464 109.5 488 Q140 512 184.5 526 Q229 540 287 540 Q320 540 349 535 Q378 530 399 525 Q424 519 444 511 L414 366 L328 366 L339 431 L327 447 Q320 449 309 450.5 Q298 452 284 452 Q242 452 213 438.5 Q184 425 184 394 Q184 370 200.5 357.5 Q217 345 260 330 Q326 307 363 271.5 Q400 236 400 176 Z " />
<glyph glyph-name="uni021A" unicode="&#x21a;" horiz-adv-x="590" d="M160 -210 L157 -185 Q146 -178 139.5 -165.5 Q133 -153 133 -139 Q133 -108 156 -83 Q179 -58 218 -58 Q247 -58 264.5 -74.5 Q282 -91 282 -117 Q282 -134 275.5 -148.5 Q269 -163 259 -176 L174 -286 L127 -257 L160 -210 Z M108 700 L652 700 L609 499 L517 499 L532 578 L519 596 L437 596 L334 103 L348 85 L405 85 L386 0 L82 0 L101 85 L154 85 L175 103 L278 596 L195 596 L174 578 L159 499 L65 499 L108 700 Z " />
<glyph glyph-name="uni021B" unicode="&#x21b;" horiz-adv-x="355" d="M70 -210 L67 -185 Q56 -178 49.5 -165.5 Q43 -153 43 -139 Q43 -108 66 -83 Q89 -58 128 -58 Q157 -58 174.5 -74.5 Q192 -91 192 -117 Q192 -134 185.5 -148.5 Q179 -163 169 -176 L84 -286 L37 -257 L70 -210 Z M259 445 L185 98 L200 80 L296 80 L279 0 Q259 -3 236 -5 Q216 -7 191.5 -8.5 Q167 -10 141 -10 Q76 -10 50.5 19.5 Q25 49 40 120 L110 445 L49 445 L66 528 L110 528 L131 546 L209 670 L306 670 L276 528 L386 528 L369 445 L259 445 Z " />
<glyph glyph-name="uni0237" unicode="&#x237;" horiz-adv-x="295" d="M170 10 Q161 -30 145.5 -64.5 Q130 -99 103.5 -124.5 Q77 -150 38 -165 Q-1 -180 -57 -180 Q-84 -180 -103.5 -178.5 Q-123 -177 -136 -175 Q-151 -172 -161 -169 L-137 -53 L-52 -53 L-61 -98 L-51 -111 L-49 -111 Q-35 -111 -24.5 -100.5 Q-14 -90 -5.5 -74 Q3 -58 9 -38 Q15 -18 19 1 L109 427 L95 445 L51 445 L70 530 L235 530 Q250 530 258 526 Q266 522 269.5 515.5 Q273 509 272.5 501 Q272 493 271 486 L170 10 Z " />
<glyph glyph-name="circumflex" unicode="&#x2c6;" horiz-adv-x="392" d="M126 573 L106 607 L274 756 L321 756 L426 607 L391 573 L375 573 L279 648 L153 573 L126 573 Z " />
<glyph glyph-name="caron" unicode="&#x2c7;" horiz-adv-x="392" d="M263 577 L216 577 L111 726 L146 760 L162 760 L258 685 L384 760 L411 760 L431 726 L263 577 Z " />
<glyph glyph-name="uni02C9" unicode="&#x2c9;" horiz-adv-x="392" d="M144 706 L402 706 L383 618 L125 618 L144 706 Z " />
<glyph glyph-name="breve" unicode="&#x2d8;" horiz-adv-x="392" d="M403 706 Q395 683 382 662.5 Q369 642 349.5 625.5 Q330 609 305.5 599.5 Q281 590 251 590 Q224 590 204 599.5 Q184 609 171 625 Q158 641 151.5 662 Q145 683 145 706 L213 725 Q215 705 226.5 688.5 Q238 672 264 672 Q293 672 312.5 687 Q332 702 342 721 L403 706 Z " />
<glyph glyph-name="dotaccent" unicode="&#x2d9;" horiz-adv-x="230" d="M170 646 Q170 664 177.5 681 Q185 698 198.5 711 Q212 724 230.5 732 Q249 740 272 740 Q304 740 323 719.5 Q342 699 342 672 Q342 634 313 606.5 Q284 579 238 579 Q206 579 188 599 Q170 619 170 646 Z " />
<glyph glyph-name="ring" unicode="&#x2da;" horiz-adv-x="392" d="M268 744 Q319 744 349.5 723.5 Q380 703 380 664 Q380 639 368.5 621 Q357 603 338 591 Q319 579 294 573.5 Q269 568 241 568 Q192 568 161 587 Q130 606 130 642 Q130 669 140.5 688 Q151 707 170 719.5 Q189 732 214 738 Q239 744 268 744 Z M210 646 Q210 612 247 612 Q276 612 288 627 Q300 642 300 665 Q300 682 291.5 691 Q283 700 262 700 Q234 700 222 685 Q210 670 210 646 Z " />
<glyph glyph-name="ogonek" unicode="&#x2db;" horiz-adv-x="392" d="M197 -151 Q178 -163 147.5 -171.5 Q117 -180 85 -180 Q35 -180 8 -162.5 Q-19 -145 -19 -107 Q-19 -71 5.5 -45 Q30 -19 67.5 -1 Q105 17 149 26.5 Q193 36 233 39 L226 4 Q196 0 171 -7.5 Q146 -15 127 -26.5 Q108 -38 97.5 -52.5 Q87 -67 87 -86 Q87 -109 98 -117.5 Q109 -126 129 -126 Q143 -126 161 -120 Q179 -114 186 -109 L197 -151 Z " />
<glyph glyph-name="tilde" unicode="&#x2dc;" horiz-adv-x="392" d="M341 681 Q357 681 364 688 Q368 691 369 695 L376 728 L437 728 L427 683 Q416 633 393 610 Q370 587 325 587 Q308 587 290.5 592.5 Q273 598 255.5 605 Q238 612 221 617.5 Q204 623 189 623 Q182 623 177.5 621.5 Q173 620 170 618 Q166 616 164 614 L155 576 L92 576 L101 617 Q114 675 135.5 698.5 Q157 722 197 722 Q214 722 231.5 715.5 Q249 709 267.5 701.5 Q286 694 304.5 687.5 Q323 681 341 681 Z " />
<glyph glyph-name="hungarumlaut" unicode="&#x2dd;" horiz-adv-x="392" d="M121 577 L92 617 L238 756 L266 756 L308 697 L140 577 L121 577 Z M254 577 L235 614 L377 731 L405 731 L449 663 L274 577 L254 577 Z " />
<glyph glyph-name="uni0394" unicode="&#x394;" horiz-adv-x="667" d="M-28 71 L344 702 L486 702 L599 69 L584 0 L-43 0 L-28 71 Z M131 106 L421 106 L356 514 L131 106 Z " />
<glyph glyph-name="uni03A9" unicode="&#x3a9;" horiz-adv-x="776" d="M382 163 Q436 191 474.5 222 Q513 253 537.5 288.5 Q562 324 573 365.5 Q584 407 584 458 Q584 523 551.5 564 Q519 605 445 605 Q385 605 342 583.5 Q299 562 271 525 Q243 488 229.5 438 Q216 388 216 332 Q216 282 238 244 Q260 206 316 163 L281 0 L-24 0 L10 160 L97 160 L85 101 L96 87 L207 87 L214 122 Q140 162 100.5 215 Q61 268 61 340 Q61 426 88.5 495 Q116 564 167 612 Q218 660 289.5 686 Q361 712 449 712 Q509 712 562 697.5 Q615 683 655 652.5 Q695 622 718.5 573 Q742 524 742 455 Q742 395 722.5 345 Q703 295 667 253.5 Q631 212 580 177.5 Q529 143 466 115 L460 87 L584 87 L601 101 L613 160 L701 160 L667 0 L347 0 L382 163 Z " />
<glyph glyph-name="uni03BC" unicode="&#x3bc;" horiz-adv-x="600" d="M-7 -187 L-39 -171 L49 250 L107 522 L229 539 L261 520 L208 292 Q200 257 192 220.5 Q184 184 184 161 Q184 126 201 111.5 Q218 97 244 97 Q261 97 282.5 103 Q304 109 324 125 L409 522 L532 539 L564 520 L511 303 Q506 282 499.5 255 Q493 228 488 202.5 Q483 177 479.5 157 Q476 137 476 128 Q476 112 483 104 Q490 96 511 96 Q521 96 535 97 Q549 98 562 101 L549 22 Q520 8 489 0 Q458 -8 431 -8 Q402 -8 383 -3 Q364 2 352.5 11.5 Q341 21 336.5 34.5 Q332 48 331 65 L325 65 Q305 30 275.5 9.5 Q246 -11 213 -11 Q183 -11 161.5 2.5 Q140 16 132 48 L120 -89 L104 -165 L-7 -187 Z " />
<glyph glyph-name="Wgrave" unicode="&#x1e80;" horiz-adv-x="947" d="M560 747 L416 838 L505 926 L528 926 L628 793 L577 747 L560 747 Z M108 600 L96 615 L61 615 L80 700 L343 700 L324 615 L289 615 L270 599 L294 245 L511 700 L634 700 L662 245 L833 597 L820 615 L780 615 L799 700 L1032 700 L1013 615 L981 615 L962 599 L663 -2 L528 -2 L496 406 L296 -2 L160 -2 L108 600 Z " />
<glyph glyph-name="wgrave" unicode="&#x1e81;" horiz-adv-x="771" d="M82 429 L70 445 L34 445 L52 530 L131 530 Q144 530 159 527.5 Q174 525 187.5 517 Q201 509 210.5 493 Q220 477 223 449 L243 200 L402 530 L507 530 L528 195 L645 427 L633 445 L602 445 L620 530 L709 530 Q761 530 771 503.5 Q781 477 761 441 L528 -2 L416 -2 L393 288 L250 -2 L134 -2 L82 429 Z M302 668 L391 756 L414 756 L514 623 L463 577 L446 577 L302 668 Z " />
<glyph glyph-name="Wacute" unicode="&#x1e82;" horiz-adv-x="947" d="M578 747 L546 793 L703 926 L731 926 L782 838 L600 747 L578 747 Z M108 600 L96 615 L61 615 L80 700 L343 700 L324 615 L289 615 L270 599 L294 245 L511 700 L634 700 L662 245 L833 597 L820 615 L780 615 L799 700 L1032 700 L1013 615 L981 615 L962 599 L663 -2 L528 -2 L496 406 L296 -2 L160 -2 L108 600 Z " />
<glyph glyph-name="wacute" unicode="&#x1e83;" horiz-adv-x="771" d="M597 756 L648 668 L466 577 L444 577 L412 623 L569 756 L597 756 Z M82 429 L70 445 L34 445 L52 530 L131 530 Q144 530 159 527.5 Q174 525 187.5 517 Q201 509 210.5 493 Q220 477 223 449 L243 200 L402 530 L507 530 L528 195 L645 427 L633 445 L602 445 L620 530 L709 530 Q761 530 771 503.5 Q781 477 761 441 L528 -2 L416 -2 L393 288 L250 -2 L134 -2 L82 429 Z " />
<glyph glyph-name="Wdieresis" unicode="&#x1e84;" horiz-adv-x="947" d="M108 600 L96 615 L61 615 L80 700 L343 700 L324 615 L289 615 L270 599 L294 245 L511 700 L634 700 L662 245 L833 597 L820 615 L780 615 L799 700 L1032 700 L1013 615 L981 615 L962 599 L663 -2 L528 -2 L496 406 L296 -2 L160 -2 L108 600 Z M444 830 Q444 859 466.5 882 Q489 905 526 905 Q552 905 567 888.5 Q582 872 582 850 Q582 820 558.5 798 Q535 776 499 776 Q473 776 458.5 792 Q444 808 444 830 Z M613 830 Q613 859 635.5 882 Q658 905 695 905 Q721 905 736 888.5 Q751 872 751 850 Q751 820 727.5 798 Q704 776 668 776 Q642 776 627.5 792 Q613 808 613 830 Z " />
<glyph glyph-name="wdieresis" unicode="&#x1e85;" horiz-adv-x="771" d="M320 660 Q320 689 342.5 712 Q365 735 402 735 Q428 735 443 718.5 Q458 702 458 680 Q458 650 434.5 628 Q411 606 375 606 Q349 606 334.5 622 Q320 638 320 660 Z M489 660 Q489 689 511.5 712 Q534 735 571 735 Q597 735 612 718.5 Q627 702 627 680 Q627 650 603.5 628 Q580 606 544 606 Q518 606 503.5 622 Q489 638 489 660 Z M82 429 L70 445 L34 445 L52 530 L131 530 Q144 530 159 527.5 Q174 525 187.5 517 Q201 509 210.5 493 Q220 477 223 449 L243 200 L402 530 L507 530 L528 195 L645 427 L633 445 L602 445 L620 530 L709 530 Q761 530 771 503.5 Q781 477 761 441 L528 -2 L416 -2 L393 288 L250 -2 L134 -2 L82 429 Z " />
<glyph glyph-name="endash" unicode="&#x2013;" horiz-adv-x="566" d="M78 375 L517 375 L494 270 L55 270 L78 375 Z " />
<glyph glyph-name="emdash" unicode="&#x2014;" horiz-adv-x="849" d="M78 375 L800 375 L777 270 L55 270 L78 375 Z " />
<glyph glyph-name="quoteleft" unicode="&#x2018;" horiz-adv-x="245" d="M248 523.003 Q248 505.005 241.5 488.506 Q235 472.007 222.501 458.507 Q210.002 445.008 192.503 437.009 Q175.004 429.009 152.005 429.009 Q117.008 429.009 96.5089 448.508 Q76.0101 468.007 76.0101 497.005 Q76.0101 518.004 84.5096 534.003 Q93.0091 550.002 104.008 564.001 L215.002 709.992 L269.998 675.994 L218.001 603.999 L222.001 577 Q235 568.001 241.5 554.002 Q248 540.002 248 523.003 Z " />
<glyph glyph-name="quoteright" unicode="&#x2019;" horiz-adv-x="242" d="M109 616 Q109 634 115.5 650.5 Q122 667 134.5 680.5 Q147 694 164.5 702 Q182 710 205 710 Q240 710 260.5 690.5 Q281 671 281 642 Q281 621 272.5 605 Q264 589 253 575 L142 429 L87 463 L139 535 L135 562 Q122 571 115.5 585 Q109 599 109 616 Z " />
<glyph glyph-name="quotesinglbase" unicode="&#x201a;" horiz-adv-x="254" d="M-6 57 Q-6 75 0.5 91.5 Q7 108 19.5 121.5 Q32 135 49.5 143 Q67 151 90 151 Q125 151 145.5 131.5 Q166 112 166 83 Q166 62 157.5 46 Q149 30 138 16 L27 -130 L-28 -96 L24 -24 L20 3 Q7 12 0.5 26 Q-6 40 -6 57 Z " />
<glyph glyph-name="quotedblleft" unicode="&#x201c;" horiz-adv-x="437" d="M248 523.003 Q248 505.005 241.5 488.506 Q235 472.007 222.501 458.507 Q210.002 445.008 192.503 437.009 Q175.004 429.009 152.005 429.009 Q117.008 429.009 96.5089 448.508 Q76.0101 468.007 76.0101 497.005 Q76.0101 518.004 84.5096 534.003 Q93.0091 550.002 104.008 564.001 L215.002 709.992 L269.998 675.994 L218.001 603.999 L222.001 577 Q235 568.001 241.5 554.002 Q248 540.002 248 523.003 Z M440 523.003 Q440 505.005 433.5 488.506 Q427 472.007 414.501 458.507 Q402.002 445.008 384.503 437.009 Q367.004 429.009 344.005 429.009 Q309.008 429.009 288.509 448.508 Q268.01 468.007 268.01 497.005 Q268.01 518.004 276.51 534.003 Q285.009 550.002 296.008 564.001 L407.002 709.992 L461.998 675.994 L410.001 603.999 L414.001 577 Q427 568.001 433.5 554.002 Q440 540.002 440 523.003 Z " />
<glyph glyph-name="quotedblright" unicode="&#x201d;" horiz-adv-x="433" d="M109 616 Q109 634 115.5 650.5 Q122 667 134.5 680.5 Q147 694 164.5 702 Q182 710 205 710 Q240 710 260.5 690.5 Q281 671 281 642 Q281 621 272.5 605 Q264 589 253 575 L142 429 L87 463 L139 535 L135 562 Q122 571 115.5 585 Q109 599 109 616 Z M300 616 Q300 634 306.5 650.5 Q313 667 325.5 680.5 Q338 694 355.5 702 Q373 710 396 710 Q431 710 451.5 690.5 Q472 671 472 642 Q472 621 463.5 605 Q455 589 444 575 L333 429 L278 463 L330 535 L326 562 Q313 571 306.5 585 Q300 599 300 616 Z " />
<glyph glyph-name="quotedblbase" unicode="&#x201e;" horiz-adv-x="445" d="M-6 57 Q-6 75 0.5 91.5 Q7 108 19.5 121.5 Q32 135 49.5 143 Q67 151 90 151 Q125 151 145.5 131.5 Q166 112 166 83 Q166 62 157.5 46 Q149 30 138 16 L27 -130 L-28 -96 L24 -24 L20 3 Q7 12 0.5 26 Q-6 40 -6 57 Z M185 57 Q185 75 191.5 91.5 Q198 108 210.5 121.5 Q223 135 240.5 143 Q258 151 281 151 Q316 151 336.5 131.5 Q357 112 357 83 Q357 62 348.5 46 Q340 30 329 16 L218 -130 L163 -96 L215 -24 L211 3 Q198 12 191.5 26 Q185 40 185 57 Z " />
<glyph glyph-name="dagger" unicode="&#x2020;" horiz-adv-x="469" d="M79 537 L192 514 L244 514 L251 700 L393 700 L318 514 L366 514 L489 537 L464 417 L347 441 L308 441 L316 340 L204 0 L142 0 L174 340 L225 441 L183 441 L54 417 L79 537 Z " />
<glyph glyph-name="daggerdbl" unicode="&#x2021;" horiz-adv-x="502" d="M42 283 L160 259 L202 259 L192 350 L241 441 L199 441 L71 417 L96 537 L209 514 L261 514 L267 700 L409 700 L335 514 L383 514 L506 537 L481 417 L363 441 L326 441 L334 350 L287 259 L324 259 L452 283 L427 163 L314 186 L266 186 L260 0 L118 0 L192 186 L140 186 L17 163 L42 283 Z " />
<glyph glyph-name="bullet" unicode="&#x2022;" horiz-adv-x="382" d="M75.5 354.5 Q75.5 381.5 86.75 407 Q98 432.5 118.25 452 Q138.5 471.5 166.25 483.5 Q194 495.5 228.5 495.5 Q276.5 495.5 305 464.75 Q333.5 434 333.5 393.5 Q333.5 336.5 290 295.25 Q246.5 254 177.5 254 Q129.5 254 102.5 284 Q75.5 314 75.5 354.5 Z " />
</font>
</svg>
