<?xml version="1.0" standalone="no"?>
<!DOCTYPE svg PUBLIC "-//W3C//DTD SVG 1.1//EN" "http://www.w3.org/Graphics/SVG/1.1/DTD/svg11.dtd" >
<svg xmlns="http://www.w3.org/2000/svg">
<metadata>
Created by FontPrep 20130207 at Thu Nov 20 13:02:38 2014
 By usuario
Copyright (c) 2014 by Eduardo Manso. All rights reserved.
</metadata>
<defs>
<font id="1a64722c62ced93998b102e9fa8418b4" horiz-adv-x='1024' >
  <font-face 
    font-family="Catalana"
    font-weight="400"
    font-stretch="normal"
    units-per-em="2048"
    panose-1="1 0 0 0 0 0 0 0 0 0"
    ascent="1536"
    descent="-512"
    x-height="1077"
    cap-height="1434"
    bbox="-426 -565 2906 1927"
    underline-thickness="102"
    underline-position="-102"
    unicode-range="U+000D-FF19"
  />
<missing-glyph horiz-adv-x="1789" 
d="M797 312q0 32 21.5 53.5t56 21.5t57 -21.5t22.5 -53.5t-22.5 -54t-57 -22t-56 22t-21.5 54zM909 1126q205 0 238 -87t33 -145q0 -124 -152 -200q-59 -29 -79.5 -48t-20.5 -48v-27l-23 -88h-61l-25 88v27q0 59 32.5 93t98.5 68t85.5 70.5t19.5 70.5q0 65 -37.5 104.5
t-103.5 39.5t-103 -13t-66 -25l-18 -19v-108h-78v163q128 84 260 84zM254 715q0 -133 50 -249t136 -203t203 -137t250 -50t250 50t204 137t137 203t50 249t-50 250.5t-136 204.5t-203 137.5t-250 50.5t-250 -50.5t-204 -137.5t-137 -204.5t-50 -250.5zM154 714.5
q0 153.5 58 289t158.5 234.5t235.5 157.5t289 58.5t289 -58.5t234.5 -157.5t157.5 -234.5t58 -289t-58 -286.5t-159.5 -233.5t-235.5 -157.5t-288 -57t-289 57t-234.5 157.5t-157.5 233.5t-58 286.5z" />
    <glyph glyph-name="fi" unicode="fi" horiz-adv-x="1368" 
d="M934 1386q0 49 29 79t85 30t86 -30t30 -79q0 -50 -30 -80t-86 -30t-85 30t-29 80zM1077 1077q84 0 84 -82v-864l29 -31h137v-100h-518v100h137l29 31v809l-29 31h-137v106h268zM766 1284h-117v105l-26 26q-29 6 -54 6q-87 -1 -121 -65t-34 -195v-88h270v-102h-270v-840
l28 -31h164v-100h-543v100h136l28 31v840h-164v102h136l28 29v49q0 172 77 268t263 97q110 0 199 -21v-211z" />
    <glyph glyph-name="fl" unicode="fl" horiz-adv-x="1374" 
d="M1079 1495q51 0 69 -22q17 -23 17 -58v-1284l29 -31h137v-100h-516v100h135l31 31v1229l-31 29h-135v106h264zM766 1284h-117v105l-26 26q-29 6 -54 6q-87 -1 -121 -65t-34 -195v-88h270v-102h-270v-840l28 -31h164v-100h-543v100h136l28 31v840h-164v102h136l28 29v49
q0 172 77 268t263 97q110 0 199 -21v-211z" />
    <glyph glyph-name=".notdef" horiz-adv-x="1789" 
d="M797 312q0 32 21.5 53.5t56 21.5t57 -21.5t22.5 -53.5t-22.5 -54t-57 -22t-56 22t-21.5 54zM909 1126q205 0 238 -87t33 -145q0 -124 -152 -200q-59 -29 -79.5 -48t-20.5 -48v-27l-23 -88h-61l-25 88v27q0 59 32.5 93t98.5 68t85.5 70.5t19.5 70.5q0 65 -37.5 104.5
t-103.5 39.5t-103 -13t-66 -25l-18 -19v-108h-78v163q128 84 260 84zM254 715q0 -133 50 -249t136 -203t203 -137t250 -50t250 50t204 137t137 203t50 249t-50 250.5t-136 204.5t-203 137.5t-250 50.5t-250 -50.5t-204 -137.5t-137 -204.5t-50 -250.5zM154 714.5
q0 153.5 58 289t158.5 234.5t235.5 157.5t289 58.5t289 -58.5t234.5 -157.5t157.5 -234.5t58 -289t-58 -286.5t-159.5 -233.5t-235.5 -157.5t-288 -57t-289 57t-234.5 157.5t-157.5 233.5t-58 286.5z" />
    <glyph glyph-name=".null" horiz-adv-x="0" 
 />
    <glyph glyph-name="nonmarkingreturn" unicode="&#xd;" horiz-adv-x="0" 
 />
    <glyph glyph-name="NULL" horiz-adv-x="0" 
 />
    <glyph glyph-name="NULL" horiz-adv-x="0" 
 />
    <glyph glyph-name="space" unicode=" " horiz-adv-x="471" 
 />
    <glyph glyph-name="exclam" unicode="!" horiz-adv-x="485" 
d="M137 1434h209v-424l-31 -549l-36 -74h-72l-39 74l-31 549v424zM119 98q0 49 35.5 85t91.5 36t90.5 -36t34.5 -85t-35 -83.5t-90 -34.5t-91 34.5t-36 83.5z" />
    <glyph glyph-name="quotedbl" unicode="&#x22;" horiz-adv-x="712" 
d="M422 1434h166v-177l-27 -313h-112l-27 313v177zM125 1434h166v-177l-27 -313h-112l-27 313v177z" />
    <glyph glyph-name="numbersign" unicode="#" horiz-adv-x="1130" 
d="M399 424h258l76 233h-256zM971 324h-230l-106 -324h-117l107 324h-260l-107 -324h-117l107 324h-170v100h203l75 233h-196v101h229l107 319h120l-106 -319h256l106 319h121l-106 -319h166v-101h-199l-78 -233h195v-100z" />
    <glyph glyph-name="dollar" unicode="$" horiz-adv-x="1132" 
d="M297 1106q0 -90 48.5 -147t184.5 -107v479q-113 -16 -173 -75.5t-60 -149.5zM858 362q0 102 -54 159t-183 102v-519q117 20 177 88t60 170zM997 1094h-131v194l-30 29q-103 20 -215 20v-516q226 -70 327 -158.5t101 -263.5t-115 -283.5t-313 -129.5v-195h-91v189h-8
q-255 0 -420 55v325h131v-204l33 -33q102 -25 256 -25h8v553q-209 61 -312 158.5t-103 262.5t113.5 262.5t301.5 115.5v162h91v-158q226 -6 376 -47v-313z" />
    <glyph glyph-name="percent" unicode="%" horiz-adv-x="1357" 
d="M340 848q78 0 110 62q31 63 31 193t-31 191q-32 61 -110 62q-141 0 -140 -254t140 -254zM342 1444q122 0 192 -81t70 -260t-70 -261t-192 -82q-123 0 -194 82q-70 82 -70 261t70 260q71 81 194 81zM1016 78q78 0 110 62t31 193q0 130 -32 191t-109 62q-141 0 -140 -254
t140 -254zM1018 674q122 0 192 -81t70 -260t-70 -261t-192 -82t-194 82q-70 82 -70 261t70 260q71 81 194 81zM160 0l930 1434h110l-930 -1434h-110z" />
    <glyph glyph-name="ampersand" unicode="&#x26;" horiz-adv-x="1474" 
d="M870 1154q0 204 -188 204q-92 0 -147.5 -59.5t-55.5 -167.5t123 -250l39 -47q106 68 167.5 142.5t61.5 177.5zM276 375q0 -112 73 -188t212 -76q176 0 326 141l-369 438q-242 -100 -242 -315zM995 696v105h402v-105h-127l-27 -30q-67 -213 -164 -357l148 -174l41 -29h149
v-106h-250q-49 0 -78.5 22.5t-52.5 51.5l-75 90q-188 -184 -449 -184q-208 0 -320 107t-112 257q0 185 118 275t267 135l-14 16q-144 169 -144 327t101 257.5t274 99.5q247 0 289.5 -115.5t42.5 -183.5q0 -126 -86 -215.5t-238 -165.5l311 -375q75 120 119 267l-26 30h-99z
" />
    <glyph glyph-name="quotesingle" unicode="'" horiz-adv-x="419" 
d="M125 1434h170v-177l-27 -313h-116l-27 313v177z" />
    <glyph glyph-name="parenleft" unicode="(" horiz-adv-x="681" 
d="M104 487v420q0 327 194 491.5t298 231.5l43 -55q-160 -133 -258 -295t-98 -373v-420q0 -209 98 -371.5t256 -291.5l-41 -55q-492 312 -492 718z" />
    <glyph glyph-name="parenright" unicode=")" horiz-adv-x="681" 
d="M399 487v420q0 211 -97 373t-259 295l43 55q236 -154 365 -325t129 -398v-420q0 -325 -195 -489t-299 -229l-41 55q354 285 354 663z" />
    <glyph glyph-name="asterisk" unicode="*" horiz-adv-x="909" 
d="M385 1434h137v-117l-30 -197l165 119l107 53l61 -123l-104 -53l-211 -63l152 -146l69 -94l-108 -82l-72 94l-98 183l-97 -183l-71 -94l-109 82l72 94l151 146l-211 63l-104 53l61 123l105 -53l166 -119l-31 197v117z" />
    <glyph glyph-name="plus" unicode="+" horiz-adv-x="1007" 
d="M92 750h348v352h125v-352h353v-121h-353v-353h-125v353h-348v121z" />
    <glyph glyph-name="comma" unicode="," horiz-adv-x="466" 
d="M115 84q0 124 118 123q57 0 88 -31t31 -69t-10 -59t-20 -40l-132 -250q-2 0 -14 6.5t-30 14.5t-42 22l82 154l-12 35q-59 32 -59 94z" />
    <glyph glyph-name="hyphen" unicode="-" horiz-adv-x="755" 
d="M131 678h494v-131h-494v131z" />
    <glyph glyph-name="period" unicode="." horiz-adv-x="464" 
d="M113 92q0 45 35.5 80t83.5 35t84 -35t36 -80t-36 -78.5t-84 -33.5t-83.5 33.5t-35.5 78.5z" />
    <glyph glyph-name="slash" unicode="/" horiz-adv-x="882" 
d="M43 -209l672 1821h125l-672 -1821h-125z" />
    <glyph glyph-name="zero" unicode="0" horiz-adv-x="1282" 
d="M971 718q0 312 -80 459.5t-251 147.5t-250 -147.5t-79 -459.5t79 -460.5t250 -148.5t251 148.5t80 460.5zM1176 718q0 -189 -38 -328.5t-106.5 -230.5t-168 -135t-288.5 -44t-330 185t-141 553q0 369 143.5 552.5t393.5 183.5q385 0 460 -273.5t75 -462.5z" />
    <glyph glyph-name="one" unicode="1" horiz-adv-x="825" 
d="M274 1356q94 0 127 42t37 56h105v-1319l26 -29h222v-106h-695v106h217l31 29v1084l-31 28h-217v109h178z" />
    <glyph glyph-name="two" unicode="2" horiz-adv-x="1175" 
d="M127 1339q206 115 449 115t352.5 -104.5t109.5 -254.5t-94 -254t-297 -234q-204 -130 -253.5 -182t-65 -88t-15.5 -79v-100h609l28 28v174h123v-360h-958v250q0 118 86 215t291 224t273.5 207t68.5 187q0 169 -103.5 204.5t-206.5 35.5t-235 -53l-35 -35v-180h-127v284z
" />
    <glyph glyph-name="three" unicode="3" horiz-adv-x="1148" 
d="M133 1362q195 92 431 92q108 0 281 -58t173 -296t-101.5 -293t-158.5 -70v-6q129 -29 206.5 -108.5t77.5 -241.5q0 -271 -183 -337.5t-322 -66.5q-217 0 -424 91v288h127v-180l28 -29q116 -43 225 -43q187 0 266 80t79 203q0 291 -299 291h-148v119h146q280 0 280 272
q0 180 -107.5 220t-200.5 40t-218 -43l-31 -29v-182h-127v287z" />
    <glyph glyph-name="four" unicode="4" horiz-adv-x="1204" 
d="M725 532v709l-539 -709h539zM924 1454v-922h196v-120h-196v-277l28 -29h168v-106h-604v106h180l29 29v277h-676v120l696 922h179z" />
    <glyph glyph-name="five" unicode="5" horiz-adv-x="1144" 
d="M111 356h125v-170l32 -30q115 -45 232 -45q116 0 236 51t120 250q0 158 -93 224t-261 66h-348v732h829v-338h-123v151l-29 29h-532v-430h229q529 0 529 -424q0 -180 -136.5 -312.5t-369.5 -132.5t-440 91v288z" />
    <glyph glyph-name="six" unicode="6" horiz-adv-x="1185" 
d="M612 102q300 0 299 325q0 163 -75.5 237.5t-202.5 74.5q-180 0 -332 -164q8 -246 85.5 -359.5t225.5 -113.5zM301 702q162 162 359 162t319.5 -107t122.5 -323t-133.5 -335t-361.5 -119t-364.5 155.5t-136.5 491.5q0 827 601 827q173 0 301 -59v-293h-123v174l-31 31
q-58 27 -158 27q-376 -2 -395 -632z" />
    <glyph glyph-name="seven" unicode="7" horiz-adv-x="1034" 
d="M999 1434v-105l-516 -1329h-207l570 1282h-631l-29 -29v-159h-120v340h933z" />
    <glyph glyph-name="eight" unicode="8" horiz-adv-x="1208" 
d="M317 1110q0 -100 77 -160.5t229 -107.5l57 -19q145 63 181 143.5t36 127.5q0 102 -72.5 170.5t-212.5 68.5q-139 0 -217 -61.5t-78 -161.5zM270 374q0 -123 78 -197.5t240 -74.5t246 73t84 192q0 168 -123 218t-201 74l-74 23q-151 -66 -200.5 -156t-49.5 -152zM100 338
q0 276 312 387q-265 130 -265 330q0 191 127 295t350 104t329 -101.5t106 -236.5q0 -209 -260 -336q153 -61 231 -144.5t78 -238.5q0 -200 -138 -308.5t-386 -108.5q-247 0 -365.5 104.5t-118.5 253.5z" />
    <glyph glyph-name="nine" unicode="9" horiz-adv-x="1185" 
d="M553 696q180 0 330 162q-8 244 -84.5 358.5t-224.5 114.5q-300 0 -300 -334q0 -154 76 -227.5t203 -73.5zM883 729q-151 -160 -381 -160q-175 0 -296.5 108t-121.5 323t136 334.5t360 119.5q225 0 362 -155.5t137 -491.5q0 -598 -215.5 -712.5t-389.5 -114.5t-296 61v291
h123v-174l31 -31q66 -27 161 -27t170.5 47.5t143 165t76.5 416.5z" />
    <glyph glyph-name="colon" unicode=":" horiz-adv-x="499" 
d="M131 984q0 46 35 80t84 34t84 -34t35 -80t-35 -79t-84 -33t-84 33t-35 79zM131 92q0 45 35 80t84 35t84 -35t35 -80t-35 -78.5t-84 -33.5t-84 33.5t-35 78.5z" />
    <glyph glyph-name="semicolon" unicode=";" horiz-adv-x="512" 
d="M141 84q0 124 119 123q57 0 88 -31t31 -69t-10.5 -59t-20.5 -40l-131 -250q-2 0 -14.5 6.5t-29.5 14.5t-42 22l82 154l-12 35q-60 32 -60 94zM141 984q0 46 35 80t83 34t84 -34t36 -80t-36 -79t-84 -33t-83 33t-35 79z" />
    <glyph glyph-name="less" unicode="&#x3c;" horiz-adv-x="1064" 
d="M82 637v92l850 358v-133l-660 -270l660 -276v-132z" />
    <glyph glyph-name="equal" unicode="=" horiz-adv-x="1095" 
d="M135 580h826v-121h-826v121zM135 903h826v-121h-826v121z" />
    <glyph glyph-name="greater" unicode="&#x3e;" horiz-adv-x="1064" 
d="M133 408l660 276l-660 270v133l850 -358v-92l-850 -361v132z" />
    <glyph glyph-name="question" unicode="?" horiz-adv-x="1007" 
d="M317 99q0 50 35 85t91 35t90 -34.5t34 -84.5t-33.5 -85t-89.5 -35t-91.5 34.5t-35.5 84.5zM72 1319q201 135 429 135q229 0 337 -101t108 -238q0 -138 -57.5 -222t-196.5 -150q-96 -47 -131 -82.5t-35 -85.5v-45l-37 -143h-92l-41 143v45q0 136 80 187t134 80
q105 56 139 112.5t34 120.5q0 119 -63.5 185.5t-191.5 66.5t-261 -65l-37 -37v-174h-118v268z" />
    <glyph glyph-name="at" unicode="@" horiz-adv-x="1740" 
d="M625 537q0 -111 45 -161t125 -50t176 82q-2 10 -2 12v29q0 44 8 90l63 364q-52 60 -151 60q-55 0 -104.5 -36t-104.5 -131t-55 -259zM94 554q0 182 62.5 349.5t241.5 359t569 191.5q332 0 517 -197.5t185 -487.5t-136 -434.5t-318 -144.5q-183 0 -232 144
q-67 -86 -138 -107.5t-106 -21.5q-123 0 -200.5 79.5t-77.5 237.5t39 259.5t97 169t129 100t136.5 32.5t119.5 -29.5t83 -66.5l22 55q14 27 52 27h92l-101 -553q-6 -35 -6 -70q0 -155 148 -155q110 0 195 121.5t85 365.5t-154.5 413t-430.5 169q-337 0 -546.5 -230.5
t-209.5 -590.5q0 -265 120.5 -407.5t269 -187t282.5 -44.5q220 0 413 69l23 -73q-201 -91 -450 -91q-250 0 -448.5 109.5t-262.5 283.5t-64 356z" />
    <glyph glyph-name="A" unicode="A" horiz-adv-x="1374" 
d="M430 539h455l-232 684zM457 106v-106h-467v106h129l28 29l449 1303h178l457 -1307l31 -25h127v-106h-517v106h127l25 25l-98 287h-537l-92 -287l25 -25h135z" />
    <glyph glyph-name="B" unicode="B" horiz-adv-x="1353" 
d="M1057 403q0 277 -303 277h-299v-561h299q303 0 303 284zM455 1315v-516h235q154 0 231.5 61.5t77.5 194.5q0 260 -309 260h-235zM1262 385q0 -195 -133.5 -290t-366.5 -95h-672v106h135l31 29v1163l-31 29h-135v107h612q229 0 361.5 -87t132.5 -270q0 -246 -244 -323v-4
q310 -75 310 -365z" />
    <glyph glyph-name="C" unicode="C" horiz-adv-x="1202" 
d="M752 1454q129 0 221 -18.5t121 -34.5v-314h-129v183l-25 26q-82 29 -188 29q-229 0 -335 -150.5t-106 -454.5t107.5 -455.5t343.5 -151.5q113 0 192 26l27 29v190h131v-303q-181 -80 -383 -75q-299 2 -463 180t-164 550t173.5 558t476.5 186z" />
    <glyph glyph-name="D" unicode="D" horiz-adv-x="1435" 
d="M455 125h241q223 0 325.5 148.5t102.5 451.5t-103 443.5t-325 140.5h-241v-1184zM90 106h135l31 29v1163l-31 29h-135v107h606q463 0 551 -261.5t88 -444.5q0 -359 -168 -543.5t-471 -184.5h-606v106z" />
    <glyph glyph-name="E" unicode="E" horiz-adv-x="1282" 
d="M455 1313v-522h374l29 28v135h115v-440h-115v135l-27 27h-376v-555h581l29 29v180h123v-330h-1098v106h135l31 29v1163l-31 29h-135v107h1077v-328h-123v180l-28 27h-561z" />
    <glyph glyph-name="F" unicode="F" horiz-adv-x="1253" 
d="M455 1309v-545h403l27 27v131h112v-435h-112v131l-27 25h-403v-508l26 -29h170v-106h-561v106h135l31 29v1163l-31 29h-135v107h1102v-328h-121v176l-31 27h-585z" />
    <glyph glyph-name="G" unicode="G" horiz-adv-x="1312" 
d="M102 717q0 362 173 549.5t479 187.5q135 0 234 -18.5t128 -34.5v-314h-129v183l-22 22q-98 35 -211 35q-231 0 -337 -150.5t-106 -454.5t107.5 -461t345.5 -157q124 0 182 29v434l-28 29h-121v106h456v-106h-100l-29 -29v-512q-176 -75 -391 -75q-631 0 -631 737z" />
    <glyph glyph-name="H" unicode="H" horiz-adv-x="1517" 
d="M1065 670h-610v-535l26 -29h140v-106h-531v106h135l31 29v1163l-31 29h-135v107h531v-107h-140l-26 -29v-501h610v501l-29 29h-137v107h528v-107h-135l-30 -29v-1163l30 -29h135v-106h-528v106h137l29 29v535z" />
    <glyph glyph-name="I" unicode="I" horiz-adv-x="708" 
d="M90 1327v107h531v-107h-140l-26 -29v-1163l26 -29h140v-106h-531v106h135l31 29v1163l-31 29h-135z" />
    <glyph glyph-name="J" unicode="J" horiz-adv-x="1077" 
d="M479 1327v107h531v-107h-136l-28 -29v-909q0 -288 -163 -348.5t-258 -60.5t-155.5 13t-103.5 30.5t-70.5 35t-40.5 25.5v274h133v-190l23 -27q71 -39 187 -39q246 0 247 273v923l-29 29h-137z" />
    <glyph glyph-name="K" unicode="K" horiz-adv-x="1443" 
d="M1413 106v-106h-526v106h135l14 17l-377 553h-204v-541l26 -29h140v-106h-531v106h135l31 29v1163l-31 29h-135v107h531v-107h-140l-26 -29v-507h204l416 520l-12 16h-127v107h457v-107h-119l-33 -22l-432 -531l446 -645l33 -23h125z" />
    <glyph glyph-name="L" unicode="L" horiz-adv-x="1187" 
d="M455 127h522l29 29v190h127v-346h-1043v106h135l31 29v1163l-31 29h-135v107h531v-107h-140l-26 -29v-1171z" />
    <glyph glyph-name="M" unicode="M" horiz-adv-x="1712" 
d="M90 106h135l31 29v1163l-31 29h-135v107h350l422 -766l426 766h336v-107h-137l-29 -29v-1163l27 -29h139v-106h-518v106h135l31 29v995l-375 -661h-127l-360 645v-979l28 -29h137v-106h-485v106z" />
    <glyph glyph-name="N" unicode="N" horiz-adv-x="1501" 
d="M90 0v106h135l29 29v1163l-29 29h-135v107h338l684 -1094v958l-29 29h-137v107h481v-107h-135l-30 -29v-1302h-144l-712 1137v-998l28 -29h137v-106h-481z" />
    <glyph glyph-name="O" unicode="O" horiz-adv-x="1366" 
d="M309 717q0 -604 374 -604t374 605q0 308 -93.5 455.5t-281.5 147.5q-373 0 -373 -604zM1108 1263.5q158 -190.5 158 -546.5t-158 -546.5t-425 -190.5t-425 190.5t-158 546.5t158 546.5t425 190.5t425 -190.5z" />
    <glyph glyph-name="P" unicode="P" horiz-adv-x="1316" 
d="M455 1311v-643h276q168 0 245 77.5t77 243.5t-76 244t-238 78h-284zM90 1327v107h649q242 0 378 -105t136 -333t-138 -340.5t-384 -112.5h-276v-408l26 -29h158v-106h-549v106h135l31 29v1163l-31 29h-135z" />
    <glyph glyph-name="Q" unicode="Q" horiz-adv-x="1366" 
d="M309 717q0 -604 374 -604t374 605q0 308 -93.5 455.5t-281.5 147.5q-373 0 -373 -604zM1108 1263.5q158 -190.5 158 -544.5q0 -285 -98.5 -461t-268.5 -242l182 -178l52 -22h131v-107h-238q-90 0 -145 62l-185 209h-14q-266 0 -424 190.5t-158 546.5t158 546.5t425 190.5
t425 -190.5z" />
    <glyph glyph-name="R" unicode="R" horiz-adv-x="1398" 
d="M455 1311v-572h260q160 0 237.5 71t77.5 222q0 279 -311 279h-264zM90 1327v107h633q240 0 376 -93.5t136 -298.5q0 -157 -97.5 -253t-240.5 -113v-2q72 -12 124 -56.5t87 -150.5l113 -334l34 -27h105v-106h-236q-79 0 -108 84l-119 381q-42 134 -102 142.5t-88 8.5h-252
v-481l26 -29h148v-106h-539v106h135l31 29v1163l-31 29h-135z" />
    <glyph glyph-name="S" unicode="S" horiz-adv-x="1140" 
d="M666 1454q156 0 333 -47v-320h-131v193l-30 31q-137 20 -217 20q-150 0 -234 -60.5t-84 -161.5t62 -164t268.5 -125.5t311 -154t104.5 -253.5q0 -214 -144 -323t-389 -109t-407 55v334h131v-205l32 -35q102 -25 258 -25t242 69t86 185t-71 179t-263 118t-297.5 153.5
t-105.5 270.5t103.5 248t194.5 101.5t247 25.5z" />
    <glyph glyph-name="T" unicode="T" horiz-adv-x="1185" 
d="M57 1434h1069v-332h-120v178l-29 29h-285v-1174l29 -29h147v-106h-553v106h148l31 29v1174h-285l-29 -29v-178h-123v332z" />
    <glyph glyph-name="U" unicode="U" horiz-adv-x="1431" 
d="M877 1327v107h493v-107h-137l-29 -29v-817q0 -256 -130 -378.5t-356 -122.5t-358.5 122.5t-132.5 378.5v817l-28 29h-138v107h535v-107h-137l-27 -29v-819q0 -186 74 -278t232 -92t231 92t73 278v819l-30 29h-135z" />
    <glyph glyph-name="V" unicode="V" horiz-adv-x="1341" 
d="M870 1327v107h467v-107h-116l-31 -29l-428 -1302h-176l-443 1304l-26 27h-119v107h514v-107h-137l-25 -29l350 -1079l338 1079l-22 29h-146z" />
    <glyph glyph-name="W" unicode="W" horiz-adv-x="1970" 
d="M1968 1327h-127l-29 -29l-364 -1302h-166l-295 1071l-291 -1071h-168l-376 1307l-25 24h-125v107h508v-107h-127l-27 -29l279 -1048l311 1184h133l312 -1182l274 1046l-25 29h-137v107h465v-107z" />
    <glyph glyph-name="X" unicode="X" horiz-adv-x="1380" 
d="M53 1327v107h539v-107h-143l-19 -18l279 -439l305 443l-13 14h-129v107h455v-107h-131l-27 -20l-387 -543l418 -641l23 -17h133v-106h-543v106h141l19 19l-307 487l-330 -489l14 -17h125v-106h-448v106h120l21 15l418 606l-377 578l-27 22h-129z" />
    <glyph glyph-name="Y" unicode="Y" horiz-adv-x="1288" 
d="M0 1327v107h510v-107h-133l-23 -24l322 -574l311 571l-20 27h-140v107h451v-107h-109l-30 -29l-387 -688v-475l28 -29h138v-106h-529v106h135l29 29v440l-414 725l-30 27h-109z" />
    <glyph glyph-name="Z" unicode="Z" horiz-adv-x="1214" 
d="M1126 0h-1044v106l784 1205h-600l-26 -27v-178h-131v328h985v-107l-779 -1202h654l28 27v178h129v-330z" />
    <glyph glyph-name="bracketleft" unicode="[" horiz-adv-x="616" 
d="M137 -209v1819h416v-94h-242v-1633h242v-92h-416z" />
    <glyph glyph-name="backslash" unicode="\" horiz-adv-x="882" 
d="M43 1612h125l672 -1821h-125z" />
    <glyph glyph-name="bracketright" unicode="]" horiz-adv-x="616" 
d="M479 -209h-415v92h241v1633h-241v94h415v-1819z" />
    <glyph glyph-name="asciicircum" unicode="^" horiz-adv-x="880" 
d="M655 784l-221 512l-211 -512h-129l279 650h125l288 -650h-131z" />
    <glyph glyph-name="underscore" unicode="_" horiz-adv-x="1007" 
d="M0 -164h1008v-102h-1008v102z" />
    <glyph glyph-name="grave" unicode="`" horiz-adv-x="735" 
d="M494 1192h-27l-279 235l86 103h37l234 -283z" />
    <glyph glyph-name="a" unicode="a" horiz-adv-x="1087" 
d="M463 123q121 0 250 127v233h-244q-88 0 -142.5 -41t-54.5 -158q0 -161 191 -161zM524 1098q374 0 375 -348v-617l29 -33h137v-100h-256q-86 0 -86 82v59h-6q-66 -72 -137 -116.5t-166 -44.5q-164 0 -247 87t-83 229t95 225t243 83h291v117q0 123 -47.5 190.5t-180.5 67.5
q-59 0 -174 -31l-28 -26v-170h-131v274q206 72 372 72z" />
    <glyph glyph-name="b" unicode="b" horiz-adv-x="1175" 
d="M635 956q-127 0 -244 -133v-600q106 -118 230 -120q125 -3 197.5 106t72.5 331t-64.5 319t-191.5 97zM391 944q131 154 311 154q66 0 138.5 -33t158.5 -141t86 -375t-122.5 -418t-321.5 -151q-137 0 -256 108h-4v-6q0 -82 -86 -82h-256v100h135l31 31v1229l-31 29h-135
v106h266q86 0 86 -80v-471z" />
    <glyph glyph-name="c" unicode="c" horiz-adv-x="948" 
d="M860 53q-93 -73 -294 -73t-340.5 137.5t-139.5 404t143.5 421.5t360.5 155q150 0 272 -47v-277h-129v160l-26 24q-55 19 -105 19q-152 0 -236.5 -109.5t-84.5 -337.5t92 -327t246 -99t241 52v-103z" />
    <glyph glyph-name="d" unicode="d" horiz-adv-x="1177" 
d="M287 536q0 -222 64.5 -318.5t190.5 -96.5t244 131v616q-99 105 -226 105q-126 0 -199.5 -107.5t-73.5 -329.5zM795 139q-135 -159 -319 -159q-68 0 -141 32.5t-159 140t-86 375.5t123 419t322 151q135 0 251 -88v350l-28 29h-137v106h268q84 0 84 -80v-1284l31 -31h135
v-100h-256q-51 0 -67.5 23.5t-16.5 58.5v57h-4z" />
    <glyph glyph-name="e" unicode="e" horiz-adv-x="1038" 
d="M538 981q-104 0 -174.5 -91t-82.5 -280h489v60q0 162 -64 236.5t-168 74.5zM88 527q0 277 130.5 424t317.5 147t304.5 -116t117.5 -325v-141l-28 -27h-649q19 -387 354 -387q149 0 266 54v-107q-126 -69 -326 -69q-339 0 -413 201.5t-74 345.5z" />
    <glyph glyph-name="f" unicode="f" horiz-adv-x="727" 
d="M567 1516q115 0 199 -21v-211h-117v105l-26 26q-29 6 -54 6q-86 0 -120.5 -64.5t-34.5 -195.5v-88h270v-102h-270v-840l28 -31h164v-100h-543v100h136l28 31v840h-164v102h136l28 29v49q0 172 77 268.5t263 96.5z" />
    <glyph glyph-name="g" unicode="g" horiz-adv-x="1103" 
d="M225 -102q0 -160 248 -160q201 0 299 50t98 157q0 68 -46 100.5t-150 32.5h-334q-69 -30 -92 -85.5t-23 -94.5zM758 751q0 124 -66.5 184t-169 60t-168 -60.5t-65.5 -184.5t65.5 -184t168 -60t169 60.5t66.5 184.5zM936 752q0 -168 -118 -258.5t-296 -90.5
q-108 0 -182 29q-80 -39 -80 -100q0 -86 129 -86h322q147 0 240 -65t93 -189q0 -169 -152 -265t-376 -96q-223 0 -340 52.5t-117 178.5t71 171t99 59q-61 23 -97 68t-36 105t39 115.5t117 94.5q-139 91 -139 268q0 178 114.5 266.5t294.5 88.5q80 0 158 -21h362v-106h-180
l-4 -4q78 -86 78 -215z" />
    <glyph glyph-name="h" unicode="h" 
d="M307 1495q86 0 86 -80v-471q142 154 318 154t251.5 -90t75.5 -238v-639l29 -31h135v-100h-504v100h123l31 31v610q0 95 -42 153t-136 58q-157 0 -281 -131v-690l29 -31h123v-100h-504v100h135l31 31v1229l-31 29h-135v106h266z" />
    <glyph glyph-name="i" unicode="i" horiz-adv-x="626" 
d="M190 1386.5q0 49.5 29 79t85 29.5t86 -29.5t30 -79t-30 -80t-86 -30.5t-85 30.5t-29 80zM334 1077q84 0 84 -82v-864l28 -31h138v-100h-518v100h137l28 31v809l-28 31h-137v106h268z" />
    <glyph glyph-name="j" unicode="j" horiz-adv-x="561" 
d="M71 -369q-91 0 -167 15v213h116v-107l25 -24q8 -2 21 -2q82 0 113.5 72.5t31.5 193.5v948l-31 31h-135v106h266q86 0 86 -82v-995q0 -369 -326 -369zM168 1386.5q0 49.5 30 79t86 29.5t84.5 -29.5t28.5 -79t-28.5 -80t-84.5 -30.5t-86 30.5t-30 80z" />
    <glyph glyph-name="k" unicode="k" horiz-adv-x="1220" 
d="M307 1495q86 0 86 -80v-774h160l309 317l-8 13h-119v106h436v-106h-127l-34 -25l-310 -313l353 -508l30 -25h111v-100h-502v100h129l15 19l-283 426h-160v-414l29 -31h123v-100h-504v100h135l31 31v1229l-31 29h-135v106h266z" />
    <glyph glyph-name="l" unicode="l" horiz-adv-x="602" 
d="M307 1495q86 0 86 -80v-1284l29 -31h137v-100h-516v100h135l31 31v1229l-31 29h-135v106h264z" />
    <glyph glyph-name="m" unicode="m" horiz-adv-x="1865" 
d="M567 100v-100h-504v100h136l28 31v809l-28 31h-136v106h254q89 0 89 -82v-57h4q147 160 347 160t265 -178q89 111 188.5 144.5t173.5 33.5q147 0 218 -91t71 -237v-639l29 -31h137v-100h-504v100h123l29 31v610q0 99 -36.5 155t-133.5 56q-152 0 -275 -131l2 -51v-639
l29 -31h135v-100h-501v100h120l31 31v610q0 97 -36.5 153t-133.5 56q-152 0 -274 -131v-688l30 -31h123z" />
    <glyph glyph-name="n" unicode="n" horiz-adv-x="1253" 
d="M567 100v-100h-504v100h136l28 31v809l-28 31h-136v106h254q89 0 89 -82v-57h4q147 160 333 160q243 0 279.5 -130t36.5 -198v-639l31 -31h135v-100h-504v100h123l28 31v610q0 95 -37.5 153t-138.5 58q-160 0 -282 -131v-690l30 -31h123z" />
    <glyph glyph-name="o" unicode="o" horiz-adv-x="1105" 
d="M825 538.5q0 223.5 -71.5 331t-200.5 107.5t-199.5 -107.5t-70.5 -331t70.5 -332t199.5 -108.5t200.5 108.5t71.5 332zM220.5 123q-132.5 143 -132.5 414t132.5 416t332 145t333.5 -144.5t134 -416.5t-134 -414.5t-333.5 -142.5t-332 143z" />
    <glyph glyph-name="p" unicode="p" horiz-adv-x="1177" 
d="M891 547q0 409 -252 409q-131 0 -248 -133v-616q99 -105 226 -105t200.5 107.5t73.5 337.5zM385 940q135 158 317 158q66 0 139.5 -33t159.5 -139.5t86 -375.5t-122.5 -419.5t-321.5 -150.5q-146 0 -252 86v-283l29 -31h147v-100h-528v100h135l31 31v1157l-31 31h-135
v106h256q86 0 86 -82v-55h4z" />
    <glyph glyph-name="q" unicode="q" horiz-adv-x="1177" 
d="M542 121q126 0 244 131v600q-101 118 -228 120q-128 3 -199.5 -104.5t-71.5 -329.5t64.5 -319.5t190.5 -97.5zM786 131q-130 -151 -312 -151q-66 0 -139 32.5t-159 141.5t-86 376t124.5 417.5t322.5 150.5q142 0 256 -109h4v6q0 35 17 58.5t69 23.5h256v-106h-135
l-31 -27v-1161l31 -31h135v-100h-531v100h150l28 31v348z" />
    <glyph glyph-name="r" unicode="r" horiz-adv-x="862" 
d="M722 1098q48 0 91 -6v-338h-117v153l-30 29q-86 -6 -150.5 -43t-101.5 -78v-684l30 -31h158v-100h-539v100h136l28 31v809l-28 31h-136v106h254q89 0 89 -82v-63h4q76 97 170 131.5t142 34.5z" />
    <glyph glyph-name="s" unicode="s" horiz-adv-x="935" 
d="M510 1098q130 0 301 -35v-254h-121v137l-24 23q-77 16 -176 16t-157.5 -45t-58.5 -115t34 -102.5t78 -51t116 -36.5q190 -47 271 -121t81 -197q0 -158 -117.5 -247.5t-286.5 -89.5t-264 22q-51 8 -90 23v256h121v-140l27 -28q99 -17 202 -17t167.5 48.5t64.5 130.5
t-54 125t-174 73q-205 52 -275.5 128.5t-70.5 203.5t106.5 210t299.5 83z" />
    <glyph glyph-name="t" unicode="t" horiz-adv-x="688" 
d="M199 160v811h-150v102h121l29 29l69 270h117v-299h240v-102h-240v-840l29 -31h254v-100q-197 -20 -287 -20t-136 39.5t-46 140.5z" />
    <glyph glyph-name="u" unicode="u" horiz-adv-x="1216" 
d="M659 971v106h269q84 0 84 -82v-864l30 -31h136v-100h-256q-51 0 -67.5 23.5t-16.5 58.5v55h-4q-71 -71 -148.5 -114t-181.5 -43q-311 0 -311 327v633l-29 31h-137v106h266q86 0 86 -90v-653q0 -96 42 -153.5t150 -57.5q136 0 254 127v690l-28 31h-138z" />
    <glyph glyph-name="v" unicode="v" horiz-adv-x="1171" 
d="M4 971v106h492v-106h-119l-25 -31l262 -723l258 723l-26 31h-129v106h442v-106h-117l-30 -31l-346 -942h-150l-360 942l-31 31h-121z" />
    <glyph glyph-name="w" unicode="w" horiz-adv-x="1703" 
d="M1251 971v106h437v-106h-121l-29 -27l-305 -946h-139l-242 756l-231 -756h-144l-319 946l-25 27h-127v106h494v-106h-125l-27 -31l223 -700l250 837h117l250 -835l217 698l-27 31h-127z" />
    <glyph glyph-name="x" unicode="x" horiz-adv-x="1226" 
d="M47 971v106h510v-106h-133l-12 -15l219 -299l260 299l-14 15h-121v106h428v-106h-117l-27 -21l-338 -379l345 -444l34 -27h115v-100h-510v100h135l13 15l-246 325l-266 -323l16 -17h121v-100h-428v100h116l23 19l344 413l-311 410l-35 29h-121z" />
    <glyph glyph-name="y" unicode="y" horiz-adv-x="1177" 
d="M750 -248v-100h-480v100h160l31 31l67 186l-370 973l-27 29h-123v106h490v-106h-121l-29 -31l268 -727l265 727l-25 31h-131v106h440v-106h-118l-29 -31l-424 -1157l27 -31h129z" />
    <glyph glyph-name="z" unicode="z" horiz-adv-x="1048" 
d="M223 780h-127v297h848v-90l-641 -878h510l29 26v164h127v-299h-893v86l645 885h-471l-27 -29v-162z" />
    <glyph glyph-name="braceleft" unicode="{" horiz-adv-x="714" 
d="M541 -219q-166 0 -249 80t-83 260v346q0 119 -18.5 146.5t-46 38t-76.5 14.5v98q93 8 117 43.5t24 155.5v315q0 180 83 260t249 80q53 0 114 -6v-76h-80q-86 -4 -135 -53t-49 -172v-299q0 -163 -33 -219t-125 -76v-4q47 -12 78 -28.5t55.5 -62.5t24.5 -204v-330
q0 -123 48 -172t132 -51l84 -2v-76q-61 -6 -114 -6z" />
    <glyph glyph-name="bar" unicode="|" horiz-adv-x="393" 
d="M137 -209v1821h119v-1821h-119z" />
    <glyph glyph-name="braceright" unicode="}" horiz-adv-x="714" 
d="M59 -137h82q86 4 134 53t49 172v330q0 157 24 203q24 47 55 63t78 29v4q-93 21 -125 77q-32 57 -32 218v299q0 123 -50 172t-135 53h-80v76q61 6 115 6q166 0 249 -80t83 -260v-315q0 -119 18 -147t47 -38t76 -14v-98q-93 -8 -117 -44t-24 -155v-346q0 -180 -83 -260
t-249 -80q-54 0 -115 6v76z" />
    <glyph glyph-name="asciitilde" unicode="~" horiz-adv-x="1282" 
d="M424 807q102 0 204.5 -54.5t155 -79t96.5 -24.5t74 17l127 131q6 -4 17.5 -15.5t23.5 -20.5t31 -26q-126 -205 -293 -205q-68 0 -129 25t-117.5 55.5t-107.5 55t-94 24.5t-80 -18l-127 -131l-70 59q123 207 289 207z" />
    <glyph glyph-name="uni00A0" unicode="&#xa0;" horiz-adv-x="473" 
 />
    <glyph glyph-name="exclamdown" unicode="&#xa1;" horiz-adv-x="468" 
d="M338 -348h-209v424l31 549l39 73h71l37 -73l31 -549v-424zM111 987q0 49 35 84q36 35 92 35t90 -35t34 -84t-34 -85t-90 -36q-55 0 -92 36q-35 36 -35 85z" />
    <glyph glyph-name="cent" unicode="&#xa2;" horiz-adv-x="997" 
d="M524 1149q-245 -68 -245 -430t245 -428v858zM612 -20h-88v186q-193 21 -311.5 155.5t-118.5 381.5t116.5 392t313.5 177v182h88v-176h4q98 0 170 -17.5t99 -29.5v-270h-113v159l-24 25q-65 18 -119 18h-17v-887h33q139 0 240 52v-95q-89 -66 -273 -71v-182z" />
    <glyph glyph-name="sterling" unicode="&#xa3;" horiz-adv-x="1239" 
d="M1106 1098h-121v178l-27 24q-119 29 -245 29q-271 0 -271 -311v-262h346v-97h-346v-286q0 -70 -10 -139.5t-24 -98.5h565l28 29v184h121v-348h-1034v106h127l29 29v524h-156v97h156v262q0 194 118 315t339 121t405 -70v-286z" />
    <glyph glyph-name="currency" unicode="&#xa4;" horiz-adv-x="1024" 
d="M396 548q50 -50 119 -50t117 50t48 122q0 71 -49 122.5t-116 51.5q-68 0 -118.5 -51t-50.5 -123t50 -122zM788 668q0 -76 -43 -142l170 -168l-90 -90l-170 168q-67 -39 -145 -39t-141 41l-170 -170l-90 90l170 170q-39 61 -39 141.5t41 143.5l-170 172l90 90l170 -172
q62 43 140 43t144 -43l170 172l90 -90l-170 -170q43 -71 43 -147z" />
    <glyph glyph-name="yen" unicode="&#xa5;" horiz-adv-x="1386" 
d="M242 727h282l-329 573l-31 27h-109v107h506v-107h-133l-20 -24l321 -576h2l311 573l-20 27h-139v107h446v-107h-108l-31 -29l-320 -571h297v-96h-350l-10 -21v-133h360v-96h-360v-246l29 -29h137v-106h-529v106h136l30 29v246h-368v96h368v103l-30 51h-338v96z" />
    <glyph glyph-name="brokenbar" unicode="&#xa6;" horiz-adv-x="413" 
d="M147 846v766h119v-766h-119zM147 -209v768h119v-768h-119z" />
    <glyph glyph-name="section" unicode="&#xa7;" horiz-adv-x="1130" 
d="M889 467q0 105 -67 151t-240 91q-172 45 -258 86q-80 -70 -80 -177t65.5 -152t226.5 -86t269 -89q84 71 84 176zM872 254q134 -90 134 -261t-138.5 -266.5t-359.5 -95.5q-147 0 -260 23q-57 8 -105 22v306h113v-189l29 -29q103 -20 245 -20t225 56.5t83 153.5t-62 149
t-209 90q-147 37 -227 65.5t-163 90.5t-83 231q0 170 162 251q-72 47 -102.5 110t-30.5 151q0 171 138 266.5t351 95.5t375 -45v-305h-113v188l-30 29q-98 20 -242 20t-227.5 -56t-83.5 -154t64 -149t271 -104q207 -52 308.5 -127t101.5 -243t-164 -254z" />
    <glyph glyph-name="dieresis" unicode="&#xa8;" horiz-adv-x="681" 
d="M389 1347.5q0 38.5 25.5 66.5t66.5 28t66.5 -28t25.5 -66.5t-25.5 -64.5t-66.5 -26t-66.5 26t-25.5 64.5zM111 1347.5q0 38.5 25.5 66.5t66.5 28t65.5 -28t24.5 -66.5t-24.5 -64.5t-65.5 -26t-66.5 26t-25.5 64.5z" />
    <glyph glyph-name="copyright" unicode="&#xa9;" horiz-adv-x="1660" 
d="M174 715q0 -137 51 -258t140.5 -210t209 -141.5t255 -52.5t254 52.5t207.5 141.5t141.5 210t52.5 258t-52.5 258t-141.5 211t-207.5 142t-254 52t-255 -52t-209 -142t-140.5 -211t-51 -258zM94 714q0 153 57.5 287t158 234t233.5 158.5t285 58.5t286.5 -58.5t235 -158.5
t159 -234.5t58.5 -286.5t-58.5 -285.5t-159 -234t-234.5 -157.5t-287 -57t-285.5 57t-233 157.5t-158 233.5t-57.5 286zM414 714q0 232 119.5 352t332.5 120q92 0 158 -15.5t90 -31.5v-242h-92v141l-18 19q-68 28 -138 28q-288 -4 -288 -354q0 -383 294 -383q80 0 142 25
l22 22v146h90v-236q-106 -61 -295 -61q-188 0 -302.5 119t-114.5 351z" />
    <glyph glyph-name="ordfeminine" unicode="&#xaa;" horiz-adv-x="823" 
d="M356 879q64 0 125 61v137h-125q-41 0 -74.5 -20.5t-33.5 -71.5t22 -78.5t86 -27.5zM297 776q-150 0 -172.5 78t-22.5 117q0 88 59.5 135t153.5 47h166v72q0 70 -25 106.5t-89 36.5t-97 -12l-16 -19v-96h-107v172q16 8 83 24.5t152 16.5q144 0 195.5 -59.5t51.5 -151.5
v-354l16 -17h78v-84h-180q-54 0 -54 52v37h-2q-84 -101 -190 -101z" />
    <glyph glyph-name="guillemotleft" unicode="&#xab;" horiz-adv-x="1030" 
d="M78 489v66l340 393h104l-284 -426l284 -428h-104zM487 489v66l340 393h105l-285 -426l285 -428h-105z" />
    <glyph glyph-name="logicalnot" unicode="&#xac;" horiz-adv-x="1095" 
d="M135 750h826v-437h-121v316h-705v121z" />
    <glyph glyph-name="uni00AD" unicode="&#xad;" horiz-adv-x="755" 
d="M131 678h494v-131h-494v131z" />
    <glyph glyph-name="registered" unicode="&#xae;" horiz-adv-x="1374" 
d="M272.5 1280q172.5 174 414.5 174q241 0 414 -173t173 -419.5t-174 -419t-414 -172.5q-121 0 -227.5 47.5t-232.5 173.5t-126 370.5t172.5 418.5zM705 1186q245 0 245 -178q0 -76 -46 -115t-99 -49v-2q29 -10 46 -29.5t34 -58.5l51 -127l14 -13h47v-73h-127q-42 0 -51 39
l-51 157q-14 45 -33.5 55.5t-44.5 10.5h-106v-176l10 -13h68v-73h-269v73h62l12 13v475l-12 10h-62v74h312zM584 1100v-211h118q127 0 127 105t-127 106h-118zM324 488q152 -154 365 -154t364 157.5t151 371.5t-150.5 372t-364.5 158t-365.5 -156.5t-151.5 -375.5t152 -373z
" />
    <glyph glyph-name="macron" unicode="&#xaf;" horiz-adv-x="802" 
d="M139 1395h523v-113h-523v113z" />
    <glyph glyph-name="degree" unicode="&#xb0;" horiz-adv-x="796" 
d="M197 1145q0 -43 16 -80t44 -64.5t63.5 -44t76.5 -16.5t77 16.5t63.5 44t44 64.5t16.5 80t-16.5 80t-44 65.5t-63.5 45t-77 16.5t-76.5 -16.5t-63.5 -45t-44 -65.5t-16 -80zM90 1144.5q0 63.5 24.5 120t66.5 98.5t97.5 66.5t119 24.5t119.5 -24.5t98 -66.5t67 -98.5
t25 -120t-25 -118.5t-67 -97t-98 -66.5t-119.5 -24.5t-119 24.5t-97.5 66.5t-66.5 97t-24.5 118.5z" />
    <glyph glyph-name="plusminus" unicode="&#xb1;" horiz-adv-x="1099" 
d="M137 297h826v-119h-826v119zM137 877h352v323h119v-323h355v-119h-355v-326h-119v326h-352v119z" />
    <glyph glyph-name="twosuperior" unicode="&#xb2;" horiz-adv-x="593" 
d="M271 1710q85 0 128 -14q119 -39 119 -160q0 -70 -45 -120t-137 -103t-121 -79t-29 -58v-52h252l15 15v80h79v-183h-464v125q0 69 38 108t134 95q96 57 127 91t30 79q0 96 -116 94q-47 0 -107 -20l-16 -17v-75h-82v141q110 53 195 53z" />
    <glyph glyph-name="threesuperior" unicode="&#xb3;" horiz-adv-x="583" 
d="M284 1026q-121 0 -216 41v143h86v-73l14 -15q32 -18 100 -18t99 35t31 93q-1 109 -124 107h-77v76h77q47 0 80 24t33 78q0 117 -123 115q-38 0 -86 -16l-16 -14v-76h-84v143q92 41 178 41q254 0 254 -174q0 -121 -113 -160v-4q55 -10 90 -47t35 -89q0 -97 -59 -153
q-58 -57 -179 -57z" />
    <glyph glyph-name="acute" unicode="&#xb4;" horiz-adv-x="735" 
d="M240 1192l-52 55l234 283h39l86 -103l-277 -235h-30z" />
    <glyph glyph-name="mu" unicode="&#xb5;" horiz-adv-x="1267" 
d="M690 971v106h266q51 0 67.5 -23.5t16.5 -58.5v-864l31 -31h135v-100h-256q-84 0 -84 82v55h-4q-72 -72 -149.5 -114.5t-170.5 -42.5t-149 24l15 -186v-166h-187v1288l-28 31h-136v106h265q51 0 68.5 -25.5t17.5 -64.5v-653q0 -96 42 -153.5t163 -57.5t243 127v690l-31 31
h-135z" />
    <glyph glyph-name="paragraph" unicode="&#xb6;" horiz-adv-x="1263" 
d="M1053 -348h-107v1782h234v-107h-99l-28 -29v-1646zM723 1434v-1782h-105v860q-401 0 -481 174t-80 349.5t152 287t418 111.5h96z" />
    <glyph glyph-name="periodcentered" unicode="&#xb7;" horiz-adv-x="495" 
d="M129 762q0 45 36 80t84 35t84 -35t36 -80t-36 -79t-84 -34t-84 34t-36 79z" />
    <glyph glyph-name="cedilla" unicode="&#xb8;" horiz-adv-x="819" 
d="M578 -219q0 -78 -64 -114t-141 -36q-145 0 -221 50l28 59q75 -39 170 -39q96 0 96 74q0 78 -194 96v27l98 125l105 -5l-78 -102q201 -14 201 -135z" />
    <glyph glyph-name="onesuperior" unicode="&#xb9;" horiz-adv-x="444" 
d="M154 1659q31 0 49 17t22 32h74v-592l14 -12h101v-68h-351v68h99l14 12v465l-14 14h-99v64h91z" />
    <glyph glyph-name="ordmasculine" unicode="&#xba;" horiz-adv-x="784" 
d="M392 862q165 0 165 255t-165 255t-165 -255t165 -255zM607 863q-81 -85 -216 -85q-204 0 -248.5 125t-44.5 213q0 174 84 256t212 82t211 -84.5t83 -253t-81 -253.5z" />
    <glyph glyph-name="guillemotright" unicode="&#xbb;" horiz-adv-x="1030" 
d="M543 489l-340 -395h-105l285 428l-285 426h105l340 -393v-66zM952 489l-340 -395h-104l285 428l-285 426h104l340 -393v-66z" />
    <glyph glyph-name="onequarter" unicode="&#xbc;" horiz-adv-x="1214" 
d="M913 258v279l-219 -279h219zM1034 672v-414h88v-70h-88v-108l13 -12h75v-68h-307v68h84l14 12v108h-313v64l320 420h114zM215 1393q31 0 49 17t23 32h73v-592l15 -12h100v-68h-350v68h98l15 12v465l-15 14h-98v64h90zM78 0l930 1434h110l-930 -1434h-110z" />
    <glyph glyph-name="onehalf" unicode="&#xbd;" horiz-adv-x="1265" 
d="M914 674q247 0 247 -174q0 -70 -45 -120t-137 -104t-121 -78q-29 -26 -29 -59v-51h252l15 14v80h80v-182h-465v125q0 68 39 108t134 96t126 90t30 79q0 94 -116 94q-53 0 -107 -21l-16 -16v-76h-82v142q110 53 195 53zM215 1393q31 0 49 17t23 32h73v-592l15 -12h100v-68
h-350v68h98l15 12v465l-15 14h-98v64h90zM78 0l930 1434h110l-930 -1434h-110z" />
    <glyph glyph-name="threequarters" unicode="&#xbe;" horiz-adv-x="1292" 
d="M989 258v279l-219 -279h219zM1110 672v-414h88v-70h-88v-108l12 -12h76v-68h-307v68h84l14 12v108h-313v64l319 420h115zM154 0l929 1434h111l-930 -1434h-110zM303 838q129 0 129 128q0 110 -123 107h-78v76h78q113 0 113 115q0 42 -29 72t-81 30t-99 -16l-16 -15v-75
h-84v143q92 41 178 41q85 0 131 -14q120 -37 123 -156q0 -127 -113 -164v-4q55 -10 90 -47t35 -89q0 -96 -59 -153t-181 -57q-123 0 -215 41v143h86v-74l15 -14q32 -18 100 -18z" />
    <glyph glyph-name="questiondown" unicode="&#xbf;" horiz-adv-x="995" 
d="M684 986q0 -50 -35 -85t-91 -35t-90 35t-34 85t34 85t90 35t91 -35t35 -85zM515 -369q-136 0 -221 30q-165 58 -215 192q-24 63 -24 129q-1 127 57 211t197 149q96 47 131 83t35 85v45l37 143h92l41 -143v-45q0 -137 -120 -212q-40 -26 -94 -54q-145 -77 -167 -184
q-6 -34 -6 -74q0 -94 62 -160t191 -67q128 -1 263 65l37 37v174h119v-268q-55 -37 -123 -68q-156 -68 -292 -68z" />
    <glyph glyph-name="Agrave" unicode="&#xc0;" horiz-adv-x="1374" 
d="M430 539h455l-232 684zM457 106v-106h-467v106h129l28 29l449 1303h178l457 -1307l31 -25h127v-106h-517v106h127l25 25l-98 287h-537l-92 -287l25 -25h135zM702 1548h-28l-279 236l86 104h39l234 -284z" />
    <glyph glyph-name="Aacute" unicode="&#xc1;" horiz-adv-x="1374" 
d="M430 539h455l-232 684zM457 106v-106h-467v106h129l28 29l449 1303h178l457 -1307l31 -25h127v-106h-517v106h127l25 25l-98 287h-537l-92 -287l25 -25h135zM662 1548l-52 56l234 284h37l86 -104l-277 -236h-28z" />
    <glyph glyph-name="Acircumflex" unicode="&#xc2;" horiz-adv-x="1374" 
d="M430 539h455l-232 684zM457 106v-106h-467v106h129l28 29l449 1303h178l457 -1307l31 -25h127v-106h-517v106h127l25 25l-98 287h-537l-92 -287l25 -25h135zM442 1548l-39 45l248 299h68l246 -299l-37 -45h-33l-209 203l-213 -203h-31z" />
    <glyph glyph-name="Atilde" unicode="&#xc3;" horiz-adv-x="1374" 
d="M430 539h455l-232 684zM457 106v-106h-467v106h129l28 29l449 1303h178l457 -1307l31 -25h127v-106h-517v106h127l25 25l-98 287h-537l-92 -287l25 -25h135zM1012 1831v-80q0 -82 -41 -125t-115 -43t-177 53t-150 53q-46 1 -64 -17t-19 -38v-69h-88v73q0 92 44 136
t104 43q60 1 103 -17q42 -18 113 -57t123 -39t68 20t17 39v68h82z" />
    <glyph glyph-name="Adieresis" unicode="&#xc4;" horiz-adv-x="1374" 
d="M430 539h455l-232 684zM457 106v-106h-467v106h129l28 29l449 1303h178l457 -1307l31 -25h127v-106h-517v106h127l25 25l-98 287h-537l-92 -287l25 -25h135zM731 1705q0 37 26 65q27 28 67 28t66 -28t26 -66t-26 -63t-67 -25t-67 26t-25 63zM453 1705q-1 37 25 65t67 28
t65 -28t25 -66q0 -38 -25 -63q-26 -25 -66 -25t-66 25q-25 26 -25 64z" />
    <glyph glyph-name="Aring" unicode="&#xc5;" horiz-adv-x="1374" 
d="M430 539h455l-232 684zM457 106v-106h-467v106h129l28 29l449 1303h178l457 -1307l31 -25h127v-106h-517v106h127l25 25l-98 287h-537l-92 -287l25 -25h135zM684 1593q123 0 123 110t-123 108q-123 -1 -123 -109q0 -55 34 -82t89 -27zM915 1702q-1 -88 -67 -130t-163 -42
t-163 42t-65 130q0 88 65 129q66 41 163 41t163 -41t67 -129z" />
    <glyph glyph-name="AE" unicode="&#xc6;" horiz-adv-x="2033" 
d="M1006 539v768h-29l-438 -768h467zM1919 1106h-123v180l-29 27h-563v-522h377l27 28v135h116v-440h-116v135l-27 27h-377v-555h584l29 29v180h122v-330h-1099v106h137l29 29v283h-531l-168 -295l15 -17h139v-106h-473v106h125l26 25l756 1303h1024v-328z" />
    <glyph glyph-name="Ccedilla" unicode="&#xc7;" horiz-adv-x="1202" 
d="M891 -219q0 -80 -62 -114t-141 -35q-143 -2 -223 49l29 59q75 -39 159 -39q107 0 107 74q0 78 -195 96v27l69 87q-231 26 -368 175q-164 178 -164 550t174 558t476 186q129 0 221 -18t121 -35v-314h-129v183l-25 26q-82 29 -188 29q-229 0 -335 -150q-105 -151 -105 -455
t107 -456q108 -152 343 -151q113 0 192 26l27 29v190h131v-303q-177 -78 -374 -76l-48 -63q201 -14 201 -135z" />
    <glyph glyph-name="Egrave" unicode="&#xc8;" horiz-adv-x="1282" 
d="M717 1548h-29l-278 236l86 104h39l233 -284zM455 1313v-522h374l29 28v135h115v-440h-115v135l-27 27h-376v-555h581l29 29v180h123v-330h-1098v106h135l31 29v1163l-31 29h-135v107h1077v-328h-123v180l-28 27h-561z" />
    <glyph glyph-name="Eacute" unicode="&#xc9;" horiz-adv-x="1282" 
d="M455 1313v-522h374l29 28v135h115v-440h-115v135l-27 27h-376v-555h581l29 29v180h123v-330h-1098v106h135l31 29v1163l-31 29h-135v107h1077v-328h-123v180l-28 27h-561zM676 1548l-51 56l233 284h37l86 -104l-276 -236h-29z" />
    <glyph glyph-name="Ecircumflex" unicode="&#xca;" horiz-adv-x="1282" 
d="M457 1548l-39 45l248 299h67l246 -299l-37 -45h-33l-209 203l-213 -203h-30zM455 1313v-522h374l29 28v135h115v-440h-115v135l-27 27h-376v-555h581l29 29v180h123v-330h-1098v106h135l31 29v1163l-31 29h-135v107h1077v-328h-123v180l-28 27h-561z" />
    <glyph glyph-name="Edieresis" unicode="&#xcb;" horiz-adv-x="1282" 
d="M455 1313v-522h374l29 28v135h115v-440h-115v135l-27 27h-376v-555h581l29 29v180h123v-330h-1098v106h135l31 29v1163l-31 29h-135v107h1077v-328h-123v180l-28 27h-561zM745 1705q0 37 26 65t67 28q40 0 66 -28t26 -66t-26 -63t-66 -25t-67 26q-26 26 -26 63zM467 1705
q0 37 26 65q27 28 67 28t65 -28t25 -66t-26 -63q-24 -25 -65 -25t-67 26t-25 63z" />
    <glyph glyph-name="Igrave" unicode="&#xcc;" horiz-adv-x="708" 
d="M90 1327v107h531v-107h-140l-26 -29v-1163l26 -29h140v-106h-531v106h135l31 29v1163l-31 29h-135zM369 1548h-29l-279 236l86 104h39l234 -284z" />
    <glyph glyph-name="Iacute" unicode="&#xcd;" horiz-adv-x="708" 
d="M90 1327v107h531v-107h-140l-26 -29v-1163l26 -29h140v-106h-531v106h135l31 29v1163l-31 29h-135zM328 1548l-52 56l234 284h37l86 -104l-277 -236h-28z" />
    <glyph glyph-name="Icircumflex" unicode="&#xce;" horiz-adv-x="708" 
d="M90 1327v107h531v-107h-140l-26 -29v-1163l26 -29h140v-106h-531v106h135l31 29v1163l-31 29h-135zM111 1548l-39 45l247 299h68l246 -299l-37 -45h-33l-209 203l-213 -203h-30z" />
    <glyph glyph-name="Idieresis" unicode="&#xcf;" horiz-adv-x="708" 
d="M90 1327v107h531v-107h-140l-26 -29v-1163l26 -29h140v-106h-531v106h135l31 29v1163l-31 29h-135zM399 1705q0 37 26 65t67 28q40 0 66 -28t26 -66t-26 -63t-66 -25t-67 26q-26 26 -26 63zM121 1705q-1 37 25 65t67 28t66 -28t25 -66t-26 -63q-24 -25 -65 -25t-67 25
q-25 26 -25 64z" />
    <glyph glyph-name="Eth" unicode="&#xd0;" horiz-adv-x="1437" 
d="M457 780h362v-96h-362v-557h241q223 0 325.5 148.5t102.5 451.5t-103 443.5t-325 140.5h-241v-531zM92 780h164v520l-29 29h-135v107h606q463 0 551 -261.5t88 -444.5q0 -359 -168 -543.5t-471 -184.5h-606v107h135l29 28v547h-164v96z" />
    <glyph glyph-name="Ntilde" unicode="&#xd1;" horiz-adv-x="1501" 
d="M1079 1831v-80q0 -82 -41 -125t-116 -43q-74 0 -176 53t-149 53q-47 1 -65 -17t-18 -38v-69h-88v73q0 92 44 136t104 43q60 1 103 -17q42 -18 113 -57t123 -39t68 20t16 39v68h82zM90 0v106h135l29 29v1163l-29 29h-135v107h338l684 -1094v958l-29 29h-137v107h481v-107
h-135l-30 -29v-1302h-144l-712 1137v-998l28 -29h137v-106h-481z" />
    <glyph glyph-name="Ograve" unicode="&#xd2;" horiz-adv-x="1366" 
d="M700 1548h-28l-279 236l86 104h39l234 -284zM309 718q0 -605 373 -605q188 0 282 148q93 149 93 457t-93 456q-92 148 -280 147q-188 0 -282 -147q-93 -148 -93 -456zM100 718q0 352 158 544t426 192t425 -191t157 -546q0 -356 -158 -546q-158 -191 -426 -191
q-131 0 -238 47q-219 97 -302 371q-42 138 -42 320z" />
    <glyph glyph-name="Oacute" unicode="&#xd3;" horiz-adv-x="1366" 
d="M659 1548l-51 56l234 284h37l86 -104l-277 -236h-29zM309 718q0 -605 373 -605q188 0 282 148q93 149 93 457t-93 456q-92 148 -280 147q-188 0 -282 -147q-93 -148 -93 -456zM100 718q0 352 158 544t426 192t425 -191t157 -546q0 -356 -158 -546q-158 -191 -426 -191
q-131 0 -238 47q-219 97 -302 371q-42 138 -42 320z" />
    <glyph glyph-name="Ocircumflex" unicode="&#xd4;" horiz-adv-x="1366" 
d="M440 1548l-39 45l248 299h68l246 -299l-37 -45h-33l-209 203l-213 -203h-31zM309 718q0 -605 373 -605q188 0 282 148q93 149 93 457t-93 456q-92 148 -280 147q-188 0 -282 -147q-93 -148 -93 -456zM100 718q0 352 158 544t426 192t425 -191t157 -546q0 -356 -158 -546
q-158 -191 -426 -191q-131 0 -238 47q-219 97 -302 371q-42 138 -42 320z" />
    <glyph glyph-name="Otilde" unicode="&#xd5;" horiz-adv-x="1366" 
d="M309 718q0 -605 373 -605q188 0 282 148q93 149 93 457t-93 456q-92 148 -280 147q-188 0 -282 -147q-93 -148 -93 -456zM100 718q0 352 158 544t426 192t425 -191t157 -546q0 -356 -158 -546q-158 -191 -426 -191q-131 0 -238 47q-219 97 -302 371q-42 138 -42 320z
M1010 1831v-80q0 -82 -41 -125t-115 -43t-177 53t-150 53q-46 1 -64 -17t-19 -38v-69h-88v73q0 92 44 136t104 43q60 1 103 -17q42 -18 113 -57t123 -39t68 20t17 39v68h82z" />
    <glyph glyph-name="Odieresis" unicode="&#xd6;" horiz-adv-x="1366" 
d="M309 718q0 -605 373 -605q188 0 282 148q93 149 93 457t-93 456q-92 148 -280 147q-188 0 -282 -147q-93 -148 -93 -456zM100 718q0 352 158 544t426 192t425 -191t157 -546q0 -356 -158 -546q-158 -191 -426 -191q-131 0 -238 47q-219 97 -302 371q-42 138 -42 320z
M729 1705q0 37 26 65q27 28 67 28t66 -28t26 -66t-26 -63t-67 -25t-67 26t-25 63zM451 1705q-1 37 25 65t67 28t65 -28t25 -66q0 -38 -25 -63q-26 -25 -66 -25t-66 25q-25 26 -25 64z" />
    <glyph glyph-name="multiply" unicode="&#xd7;" horiz-adv-x="950" 
d="M119 410l266 266l-266 266l92 90l264 -266l266 266l90 -90l-266 -266l269 -266l-91 -91l-268 269l-266 -269z" />
    <glyph glyph-name="Oslash" unicode="&#xd8;" horiz-adv-x="1384" 
d="M692 113q373 0 373 606q0 223 -51 362l-594 -831q94 -137 272 -137zM599 1321q-280 0 -280 -602q0 -240 56 -381l596 833q-92 150 -372 150zM260 178q-151 193 -151 543t157 541.5t426 191.5q227 0 379 -141l103 141h108l-152 -209q146 -192 146 -538t-158 -536.5
t-426 -190.5q-221 0 -370 133l-95 -133h-108z" />
    <glyph glyph-name="Ugrave" unicode="&#xd9;" horiz-adv-x="1431" 
d="M762 1548h-29l-278 236l86 104h39l233 -284zM877 1327v107h493v-107h-137l-29 -29v-817q0 -256 -130 -379q-130 -122 -356 -122t-359 122q-132 123 -132 379v817l-28 29h-138v107h535v-107h-137l-27 -29v-819q0 -186 74 -278t232 -92t232 92q73 92 72 278v819l-30 29
h-135z" />
    <glyph glyph-name="Uacute" unicode="&#xda;" horiz-adv-x="1431" 
d="M877 1327v107h493v-107h-137l-29 -29v-817q0 -256 -130 -379q-130 -122 -356 -122t-359 122q-132 123 -132 379v817l-28 29h-138v107h535v-107h-137l-27 -29v-819q0 -186 74 -278t232 -92t232 92q73 92 72 278v819l-30 29h-135zM721 1548l-51 56l233 284h37l86 -104
l-276 -236h-29z" />
    <glyph glyph-name="Ucircumflex" unicode="&#xdb;" horiz-adv-x="1431" 
d="M502 1548l-39 45l248 299h67l246 -299l-37 -45h-33l-209 203l-213 -203h-30zM877 1327v107h493v-107h-137l-29 -29v-817q0 -256 -130 -379q-130 -122 -356 -122t-359 122q-132 123 -132 379v817l-28 29h-138v107h535v-107h-137l-27 -29v-819q0 -186 74 -278t232 -92
t232 92q73 92 72 278v819l-30 29h-135z" />
    <glyph glyph-name="Udieresis" unicode="&#xdc;" horiz-adv-x="1431" 
d="M877 1327v107h493v-107h-137l-29 -29v-817q0 -256 -130 -379q-130 -122 -356 -122t-359 122q-132 123 -132 379v817l-28 29h-138v107h535v-107h-137l-27 -29v-819q0 -186 74 -278t232 -92t232 92q73 92 72 278v819l-30 29h-135zM791 1705q-1 37 25 65t67 28t67 -28
t25 -66q0 -38 -26 -63q-27 -25 -67 -25t-66 25q-25 26 -25 64zM512 1705q0 37 26 65t66 28t66 -28q24 -28 24 -66t-24 -63t-66 -25q-40 0 -66 26t-26 63z" />
    <glyph glyph-name="Yacute" unicode="&#xdd;" horiz-adv-x="1288" 
d="M0 1327v107h510v-107h-133l-23 -24l322 -574l311 571l-20 27h-140v107h451v-107h-109l-30 -29l-387 -688v-475l28 -29h138v-106h-529v106h135l29 29v440l-414 725l-30 27h-109zM641 1548l-51 56l233 284h37l86 -104l-276 -236h-29z" />
    <glyph glyph-name="Thorn" unicode="&#xde;" horiz-adv-x="1314" 
d="M455 1010v-568h276q166 0 238.5 69t72.5 215t-72.5 215t-238.5 69h-276zM90 0v106h135l31 29v1163l-31 29h-135v107h531v-107h-140l-26 -29v-170h276q242 0 379 -95t137 -303t-137 -307t-379 -99h-276v-189l26 -29h140v-106h-531z" />
    <glyph glyph-name="germandbls" unicode="&#xdf;" horiz-adv-x="1267" 
d="M63 102h136l28 29v840h-164v102h136l28 29v37q0 174 105.5 275.5t334.5 101.5t292 -119t63 -196t-34 -123t-76 -84t-75.5 -73.5t-33.5 -73.5t11 -60.5t31.5 -45t50.5 -49t74 -68.5t88 -83t95 -105.5t51 -186.5t-82 -195.5t-203 -73.5t-190 22q-37 8 -63 23v229h106v-135
l27 -29q25 -10 84 -10t106 39t47 130t-144 211t-195.5 189t-51.5 138t34 109t76 80t75.5 88t33.5 144t-58 156.5t-165 60.5t-167 -61t-60 -211v-1022l28 -29h115v-102h-494v102z" />
    <glyph glyph-name="agrave" unicode="&#xe0;" horiz-adv-x="1087" 
d="M713 483h-244q-88 0 -142 -41q-55 -41 -55 -137t30 -127q53 -55 168 -55q116 0 243 127v233zM537 1098q362 0 362 -348v-617l29 -33h137v-100h-256q-86 0 -86 82v59h-6q-67 -73 -113 -102q-94 -59 -190 -59q-95 0 -153 24q-177 75 -177 285q0 148 95 231q95 84 243 84
h291v117q0 125 -33 171q-98 137 -369 56l-28 -26v-170h-131v274q66 24 160 48t225 24zM549 1192h-27l-278 235l86 103h37l233 -283z" />
    <glyph glyph-name="aacute" unicode="&#xe1;" horiz-adv-x="1087" 
d="M713 483h-244q-88 0 -142 -41q-55 -41 -55 -137t30 -127q53 -55 168 -55q116 0 243 127v233zM537 1098q362 0 362 -348v-617l29 -33h137v-100h-256q-86 0 -86 82v59h-6q-67 -73 -113 -102q-94 -59 -190 -59q-95 0 -153 24q-177 75 -177 285q0 148 95 231q95 84 243 84
h291v117q0 125 -33 171q-98 137 -369 56l-28 -26v-170h-131v274q66 24 160 48t225 24zM500 1192l-51 55l233 283h39l86 -103l-277 -235h-30z" />
    <glyph glyph-name="acircumflex" unicode="&#xe2;" horiz-adv-x="1087" 
d="M713 483h-244q-88 0 -142 -41q-55 -41 -55 -137t30 -127q53 -55 168 -55q116 0 243 127v233zM537 1098q362 0 362 -348v-617l29 -33h137v-100h-256q-86 0 -86 82v59h-6q-67 -73 -113 -102q-94 -59 -190 -59q-95 0 -153 24q-177 75 -177 285q0 148 95 231q95 84 243 84
h291v117q0 125 -33 171q-98 137 -369 56l-28 -26v-170h-131v274q66 24 160 48t225 24zM289 1192l-35 41l242 297h65l240 -297l-33 -41h-33l-209 205l-207 -205h-30z" />
    <glyph glyph-name="atilde" unicode="&#xe3;" horiz-adv-x="1087" 
d="M713 483h-244q-88 0 -142 -41q-55 -41 -55 -137t30 -127q53 -55 168 -55q116 0 243 127v233zM537 1098q362 0 362 -348v-617l29 -33h137v-100h-256q-86 0 -86 82v59h-6q-67 -73 -113 -102q-94 -59 -190 -59q-95 0 -153 24q-177 75 -177 285q0 148 95 231q95 84 243 84
h291v117q0 125 -33 171q-98 137 -369 56l-28 -26v-170h-131v274q66 24 160 48t225 24zM852 1473v-80q0 -80 -41 -123t-115 -43t-178 53q-102 53 -148 53t-64 -18t-19 -37v-70h-88v72q0 92 44 135t104 43q61 0 103 -17t115 -55t123 -38q49 0 66 19q16 19 16 40v66h82z" />
    <glyph glyph-name="adieresis" unicode="&#xe4;" horiz-adv-x="1087" 
d="M713 483h-244q-88 0 -142 -41q-55 -41 -55 -137t30 -127q53 -55 168 -55q116 0 243 127v233zM537 1098q362 0 362 -348v-617l29 -33h137v-100h-256q-86 0 -86 82v59h-6q-67 -73 -113 -102q-94 -59 -190 -59q-95 0 -153 24q-177 75 -177 285q0 148 95 231q95 84 243 84
h291v117q0 125 -33 171q-98 137 -369 56l-28 -26v-170h-131v274q66 24 160 48t225 24zM573 1348q0 38 26 66t67 28q40 0 66 -28t26 -66t-26 -65q-26 -26 -66 -26t-67 26q-26 26 -26 65zM295 1348q0 38 26 66q27 28 67 28t65 -28t25 -66t-26 -65q-24 -26 -65 -26t-67 26
t-25 65z" />
    <glyph glyph-name="aring" unicode="&#xe5;" horiz-adv-x="1087" 
d="M713 483h-244q-88 0 -142 -41q-55 -41 -55 -137t30 -127q53 -55 168 -55q116 0 243 127v233zM537 1098q362 0 362 -348v-617l29 -33h137v-100h-256q-86 0 -86 82v59h-6q-67 -73 -113 -102q-94 -59 -190 -59q-95 0 -153 24q-177 75 -177 285q0 148 95 231q95 84 243 84
h291v117q0 125 -33 171q-98 137 -369 56l-28 -26v-170h-131v274q66 24 160 48t225 24zM649 1343q0 109 -125 109q-55 0 -88 -27t-33 -81t33 -82t89 -27q56 -1 90 27t34 81zM525 1516q97 0 164 -42t67 -130q0 -87 -67 -129q-67 -41 -164 -41t-163 42t-66 128q0 87 66 130
q66 42 163 42z" />
    <glyph glyph-name="ae" unicode="&#xe6;" horiz-adv-x="1652" 
d="M272 314q0 -191 178 -191q157 0 308 133q-41 96 -45 227h-244q-88 0 -142.5 -41t-54.5 -128zM1148 979q-110 0 -172.5 -100.5t-72.5 -268.5h481v60q0 160 -63 234.5t-173 74.5zM399 -20q-150 0 -232.5 88.5t-82.5 230.5t94 223.5t244 81.5h291v117q0 123 -47.5 190.5
t-180.5 67.5q-59 0 -174 -31l-28 -26v-170h-131v274q207 72 389 72q227 0 299 -170q117 170 306 170q190 0 308.5 -116.5t118.5 -324.5v-141l-29 -27h-643q19 -387 348 -387q150 0 267 54v-107q-126 -69 -326 -69q-119 0 -222.5 48t-168.5 150q-171 -198 -400 -198z" />
    <glyph glyph-name="ccedilla" unicode="&#xe7;" horiz-adv-x="948" 
d="M741 -219q0 -145 -223 -150q-124 0 -203 50l29 59q75 -39 160 -39q108 0 106 74q0 78 -194 96v27l70 89q-153 24 -255 125q-145 143 -145 410t144 422q144 154 360 154q150 0 272 -47v-277h-129v160l-26 24q-55 19 -105 19q-152 0 -236 -110t-85 -337q0 -227 92 -326
t250 -100q71 0 137 16t100 36v-103q-90 -71 -271 -73l-48 -64q200 -14 200 -135z" />
    <glyph glyph-name="egrave" unicode="&#xe8;" horiz-adv-x="1038" 
d="M770 670q0 162 -64 236t-168 75q-104 0 -174 -91t-83 -280h489v60zM901 49q-126 -69 -335 -69t-343 137q-135 137 -135 411q0 275 130 423q130 147 318 147q189 0 306 -117t116 -324v-141l-28 -27h-649q19 -385 350 -387q156 0 270 54v-107zM586 1192h-27l-278 235
l86 103h36l234 -283z" />
    <glyph glyph-name="eacute" unicode="&#xe9;" horiz-adv-x="1038" 
d="M537 1192l-52 55l234 283h39l86 -103l-277 -235h-30zM770 670q0 162 -64 236t-168 75q-104 0 -174 -91t-83 -280h489v60zM901 49q-126 -69 -335 -69t-343 137q-135 137 -135 411q0 275 130 423q130 147 318 147q189 0 306 -117t116 -324v-141l-28 -27h-649
q19 -385 350 -387q156 0 270 54v-107z" />
    <glyph glyph-name="ecircumflex" unicode="&#xea;" horiz-adv-x="1038" 
d="M326 1192l-35 41l241 297h66l240 -297l-33 -41h-33l-209 205l-207 -205h-30zM770 670q0 162 -64 236t-168 75q-104 0 -174 -91t-83 -280h489v60zM901 49q-126 -69 -335 -69t-343 137q-135 137 -135 411q0 275 130 423q130 147 318 147q189 0 306 -117t116 -324v-141
l-28 -27h-649q19 -385 350 -387q156 0 270 54v-107z" />
    <glyph glyph-name="edieresis" unicode="&#xeb;" horiz-adv-x="1038" 
d="M612 1348q0 38 26 66t67 28t67 -28t25 -66q0 -38 -26 -65q-27 -26 -67 -26t-66 26t-26 65zM334 1348q0 38 26 66t66 28q41 0 66 -28q24 -28 24 -66t-24 -65q-24 -26 -66 -26q-41 0 -67 26q-25 26 -25 65zM770 670q0 162 -64 236t-168 75q-104 0 -174 -91t-83 -280h489v60
zM901 49q-126 -69 -335 -69t-343 137q-135 137 -135 411q0 275 130 423q130 147 318 147q189 0 306 -117t116 -324v-141l-28 -27h-649q19 -385 350 -387q156 0 270 54v-107z" />
    <glyph glyph-name="igrave" unicode="&#xec;" horiz-adv-x="626" 
d="M334 1077q82 0 84 -82v-864l28 -31h138v-100h-518v100h137l28 31v809l-28 31h-137v106h268zM338 1192h-27l-278 235l86 103h37l233 -283z" />
    <glyph glyph-name="iacute" unicode="&#xed;" horiz-adv-x="626" 
d="M289 1192l-51 55l233 283h39l86 -103l-277 -235h-30zM334 1077q82 0 84 -82v-864l28 -31h138v-100h-518v100h137l28 31v809l-28 31h-137v106h268z" />
    <glyph glyph-name="icircumflex" unicode="&#xee;" horiz-adv-x="626" 
d="M76 1192l-35 41l242 297h65l240 -297l-33 -41h-33l-209 205l-207 -205h-30zM334 1077q82 0 84 -82v-864l28 -31h138v-100h-518v100h137l28 31v809l-28 31h-137v106h268z" />
    <glyph glyph-name="idieresis" unicode="&#xef;" horiz-adv-x="626" 
d="M362 1348q0 38 26 66t67 28t67 -28t25 -66q0 -38 -26 -65q-27 -26 -67 -26t-66 26t-26 65zM84 1348q0 38 26 66t66 28t66 -28q24 -28 24 -66t-24 -65q-24 -26 -66 -26q-40 0 -66 26t-26 65zM334 1077q82 0 84 -82v-864l28 -31h138v-100h-518v100h137l28 31v809l-28 31
h-137v106h268z" />
    <glyph glyph-name="eth" unicode="&#xf0;" horiz-adv-x="1112" 
d="M825 538.5q0 223.5 -71.5 331t-200.5 107.5t-199.5 -107.5t-70.5 -331t70.5 -332t199.5 -108.5t200.5 108.5t71.5 332zM698 1327q322 -310 322 -810q0 -253 -134 -395t-333.5 -142t-332 143t-132.5 414t132.5 416t332.5 145q92 0 174 -41q-61 117 -154 215l-170 -80
l-32 72l143 65q-61 61 -156 119l60 70q136 -69 215 -132l158 74l34 -74z" />
    <glyph glyph-name="ntilde" unicode="&#xf1;" horiz-adv-x="1253" 
d="M567 100v-100h-504v100h136l28 31v809l-28 31h-136v106h254q51 0 70 -23q18 -24 19 -59v-57h4q144 157 322 158q177 2 251 -88t76 -238v-639l31 -31h135v-100h-504v100h123l28 31v610q0 94 -25 135q-47 76 -151 76q-160 0 -282 -131v-690l30 -31h123zM989 1473v-80
q0 -80 -41 -123t-115 -43t-175 53q-40 20 -78 36t-78 17q-42 0 -60 -18t-18 -37v-70h-88v72q0 92 44 135t104 43t103 -17q42 -17 116 -55t123 -38q48 0 65 19q16 19 16 40v66h82z" />
    <glyph glyph-name="ograve" unicode="&#xf2;" horiz-adv-x="1105" 
d="M825 539q1 223 -71 331t-201 107q-129 0 -200 -108q-71 -109 -71 -331t72 -331q70 -109 199 -109t201 109q71 109 71 332zM227 961q123 137 324 137q200 0 334 -144q135 -144 135 -415q0 -272 -135 -417t-333 -143q-198 1 -331 145t-133 412t139 425zM590 1192h-27
l-278 235l86 103h37l233 -283z" />
    <glyph glyph-name="oacute" unicode="&#xf3;" horiz-adv-x="1105" 
d="M543 1192l-51 55l233 283h39l86 -103l-277 -235h-30zM825 539q1 223 -71 331t-201 107q-129 0 -200 -108q-71 -109 -71 -331t72 -331q70 -109 199 -109t201 109q71 109 71 332zM227 961q123 137 324 137q200 0 334 -144q135 -144 135 -415q0 -272 -135 -417t-333 -143
q-198 1 -331 145t-133 412t139 425z" />
    <glyph glyph-name="ocircumflex" unicode="&#xf4;" horiz-adv-x="1105" 
d="M330 1192l-35 41l242 297h65l240 -297l-33 -41h-33l-209 205l-207 -205h-30zM825 539q1 223 -71 331t-201 107q-129 0 -200 -108q-71 -109 -71 -331t72 -331q70 -109 199 -109t201 109q71 109 71 332zM227 961q123 137 324 137q200 0 334 -144q135 -144 135 -415
q0 -272 -135 -417t-333 -143q-198 1 -331 145t-133 412t139 425z" />
    <glyph glyph-name="otilde" unicode="&#xf5;" horiz-adv-x="1105" 
d="M825 539q1 223 -71 331t-201 107q-129 0 -200 -108q-71 -109 -71 -331t72 -331q70 -109 199 -109t201 109q71 109 71 332zM227 961q123 137 324 137q200 0 334 -144q135 -144 135 -415q0 -272 -135 -417t-333 -143q-198 1 -331 145t-133 412t139 425zM893 1473v-80
q0 -80 -41 -123t-115 -43t-178 53q-103 53 -149 53t-64 -18t-18 -37v-70h-88v72q0 92 44 135t104 43t102 -17t82 -37t80 -38t83 -18t60 19q16 19 16 40v66h82z" />
    <glyph glyph-name="odieresis" unicode="&#xf6;" horiz-adv-x="1105" 
d="M616 1348q0 38 26 66t67 28t67 -28t25 -66q0 -38 -26 -65q-27 -26 -67 -26t-66 26t-26 65zM338 1348q0 38 26 66t66 28t66 -28q24 -28 24 -66t-24 -65q-24 -26 -66 -26q-40 0 -66 26t-26 65zM825 539q1 223 -71 331t-201 107q-129 0 -200 -108q-71 -109 -71 -331t72 -331
q70 -109 199 -109t201 109q71 109 71 332zM227 961q123 137 324 137q200 0 334 -144q135 -144 135 -415q0 -272 -135 -417t-333 -143q-198 1 -331 145t-133 412t139 425z" />
    <glyph glyph-name="divide" unicode="&#xf7;" horiz-adv-x="1081" 
d="M444 1013q0 40 29 67.5t68 27.5t67.5 -27.5t28.5 -67.5t-28.5 -69t-67.5 -29t-68 29t-29 69zM444 349q0 40 29 67.5t68 27.5t67.5 -27.5t28.5 -67.5t-28.5 -68.5t-67.5 -28.5t-68 28.5t-29 68.5zM129 741h825v-120h-825v120z" />
    <glyph glyph-name="oslash" unicode="&#xf8;" horiz-adv-x="1122" 
d="M831 539q0 135 -28 233l-430 -586q67 -88 191 -88t195.5 109t71.5 332zM287 568q0 -194 41 -300l436 592q-72 117 -203 117t-202.5 -107.5t-71.5 -301.5zM223 125q-131 150 -131 417t134 411.5t321 144.5t311 -111l82 111h102l-127 -172q111 -152 111 -407
q0 -254 -134 -396.5t-333 -142.5q-159 0 -274 88l-64 -88h-106z" />
    <glyph glyph-name="ugrave" unicode="&#xf9;" horiz-adv-x="1216" 
d="M504 -20q-311 0 -311 327v633l-29 31h-137v106h266q49 1 67 -25t19 -65v-653q0 -96 29 -135q30 -40 66 -58t97 -18q133 0 254 127v690l-28 31h-138v106h269q82 0 84 -82v-864l30 -31h136v-100h-256q-51 0 -68 24q-16 24 -16 58v55h-4q-157 -157 -330 -157zM582 1192h-27
l-279 235l86 103h37l234 -283z" />
    <glyph glyph-name="uacute" unicode="&#xfa;" horiz-adv-x="1216" 
d="M535 1192l-52 55l234 283h39l86 -103l-277 -235h-30zM504 -20q-311 0 -311 327v633l-29 31h-137v106h266q49 1 67 -25t19 -65v-653q0 -96 29 -135q30 -40 66 -58t97 -18q133 0 254 127v690l-28 31h-138v106h269q82 0 84 -82v-864l30 -31h136v-100h-256q-51 0 -68 24
q-16 24 -16 58v55h-4q-157 -157 -330 -157z" />
    <glyph glyph-name="ucircumflex" unicode="&#xfb;" horiz-adv-x="1216" 
d="M322 1192l-35 41l241 297h66l240 -297l-33 -41h-33l-209 205l-207 -205h-30zM504 -20q-311 0 -311 327v633l-29 31h-137v106h266q49 1 67 -25t19 -65v-653q0 -96 29 -135q30 -40 66 -58t97 -18q133 0 254 127v690l-28 31h-138v106h269q82 0 84 -82v-864l30 -31h136v-100
h-256q-51 0 -68 24q-16 24 -16 58v55h-4q-157 -157 -330 -157z" />
    <glyph glyph-name="udieresis" unicode="&#xfc;" horiz-adv-x="1216" 
d="M608 1348q0 38 26 66t66 28t67 -28q26 -28 26 -66t-26 -65q-26 -26 -67 -26q-40 0 -66 26t-26 65zM330 1348q0 38 26 66t66 28q42 0 66 -28t24 -66t-25 -65q-25 -26 -65 -26t-67 26q-25 26 -25 65zM504 -20q-311 0 -311 327v633l-29 31h-137v106h266q49 1 67 -25t19 -65
v-653q0 -96 29 -135q30 -40 66 -58t97 -18q133 0 254 127v690l-28 31h-138v106h269q82 0 84 -82v-864l30 -31h136v-100h-256q-51 0 -68 24q-16 24 -16 58v55h-4q-157 -157 -330 -157z" />
    <glyph glyph-name="yacute" unicode="&#xfd;" horiz-adv-x="1177" 
d="M750 -248v-100h-480v100h160l31 31l67 186l-370 973l-27 29h-123v106h490v-106h-121l-29 -31l268 -727l265 727l-25 31h-131v106h440v-106h-118l-29 -31l-424 -1157l27 -31h129zM594 1192l-51 55l233 283h39l86 -103l-276 -235h-31z" />
    <glyph glyph-name="thorn" unicode="&#xfe;" horiz-adv-x="1138" 
d="M856 545q0 411 -254 411q-127 0 -248 -133v-600q106 -118 230 -120q125 -3 198.5 105.5t73.5 336.5zM354 944q132 154 314 154q66 0 138.5 -33t158.5 -142t86 -375t-123.5 -417t-321.5 -151q-142 0 -252 100v-297l29 -31h143v-100h-524v100h137l29 31v1577l-29 29h-137
v106h268q84 0 84 -80v-471z" />
    <glyph glyph-name="ydieresis" unicode="&#xff;" horiz-adv-x="1177" 
d="M750 -248v-100h-480v100h160l31 31l67 186l-370 973l-27 29h-123v106h490v-106h-121l-29 -31l268 -727l265 727l-25 31h-131v106h440v-106h-118l-29 -31l-424 -1157l27 -31h129zM668 1348q0 38 26 66t66 28t66 -28t26 -66t-26 -65q-26 -26 -66 -26t-67 26q-25 26 -25 65z
M389 1348q0 38 26 66q27 28 67 28t65 -28t25 -66t-26 -65q-24 -26 -65 -26t-67 26t-25 65z" />
    <glyph glyph-name="Amacron" unicode="&#x100;" horiz-adv-x="1374" 
d="M430 539h455l-232 684zM457 106v-106h-467v106h129l28 29l449 1303h178l457 -1307l31 -25h127v-106h-517v106h127l25 25l-98 287h-537l-92 -287l25 -25h135zM422 1751h524v-111h-524v111z" />
    <glyph glyph-name="amacron" unicode="&#x101;" horiz-adv-x="1087" 
d="M713 483h-244q-88 0 -142 -41q-55 -41 -55 -137t30 -127q53 -55 168 -55q116 0 243 127v233zM537 1098q362 0 362 -348v-617l29 -33h137v-100h-256q-86 0 -86 82v59h-6q-67 -73 -113 -102q-94 -59 -190 -59q-95 0 -153 24q-177 75 -177 285q0 148 95 231q95 84 243 84
h291v117q0 125 -33 171q-98 137 -369 56l-28 -26v-170h-131v274q66 24 160 48t225 24zM264 1395h522v-113h-522v113z" />
    <glyph glyph-name="Abreve" unicode="&#x102;" horiz-adv-x="1374" 
d="M430 539h455l-232 684zM457 106v-106h-467v106h129l28 29l449 1303h178l457 -1307l31 -25h127v-106h-517v106h127l25 25l-98 287h-537l-92 -287l25 -25h135zM686 1575q-107 0 -170 66t-82 163l92 23q14 -57 52 -101t110 -45q70 0 112 43t54 99l84 -19q-27 -153 -153 -210
q-44 -19 -99 -19z" />
    <glyph glyph-name="abreve" unicode="&#x103;" horiz-adv-x="1087" 
d="M713 483h-244q-88 0 -142 -41q-55 -41 -55 -137t30 -127q53 -55 168 -55q116 0 243 127v233zM537 1098q362 0 362 -348v-617l29 -33h137v-100h-256q-86 0 -86 82v59h-6q-67 -73 -113 -102q-94 -59 -190 -59q-95 0 -153 24q-177 75 -177 285q0 148 95 231q95 84 243 84
h291v117q0 125 -33 171q-98 137 -369 56l-28 -26v-170h-131v274q66 24 160 48t225 24zM526 1219q-158 0 -224 143q-19 41 -28 84l95 24q12 -57 50 -101q37 -44 109 -44t113 43t55 98l82 -20q-18 -97 -82 -162t-170 -65z" />
    <glyph glyph-name="Aogonek" unicode="&#x104;" horiz-adv-x="1372" 
d="M428 539h455l-232 684zM909 -199q0 128 160 199h-199v106h127l25 25l-98 287h-535l-94 -287l24 -25h136v-106h-467v106h129l28 29l449 1303h178l457 -1307l31 -25h126v-106h-110q-100 -18 -168 -62t-68 -113t38 -94.5t112 -25.5t141 43l31 -57q-35 -25 -95.5 -42.5
t-125.5 -17.5q-232 0 -232 170z" />
    <glyph glyph-name="aogonek" unicode="&#x105;" horiz-adv-x="1087" 
d="M463 123q121 0 250 127v233h-244q-88 0 -142.5 -41t-54.5 -158q0 -161 191 -161zM733 -175q0 -120 130 -120q52 0 96.5 14.5t64.5 28.5l33 -57q-35 -25 -95.5 -42.5t-125.5 -17.5q-232 0 -232 170q0 133 172 203q-33 8 -43 28.5t-10 49.5v59h-6q-66 -72 -137 -116.5
t-166 -44.5q-164 0 -247 87t-83 229t95 225t243 83h291v117q0 123 -47.5 190.5t-180.5 67.5q-59 0 -174 -31l-28 -26v-170h-131v274q206 72 372 72q374 0 375 -348v-617l29 -33h137v-100h-96q-98 -18 -167 -62t-69 -113z" />
    <glyph glyph-name="Cacute" unicode="&#x106;" horiz-adv-x="1202" 
d="M752 1454q129 0 221 -18t121 -35v-314h-129v183l-25 26q-82 29 -188 29q-229 0 -335 -150q-105 -151 -105 -455t107 -456q108 -152 343 -151q113 0 192 26l27 29v190h131v-303q-181 -80 -383 -75q-299 2 -463 180t-164 550t174 558q173 186 476 186zM723 1548l-51 56
l233 284h37l86 -104l-276 -236h-29z" />
    <glyph glyph-name="cacute" unicode="&#x107;" horiz-adv-x="948" 
d="M578 1192l-52 55l234 283h39l86 -103l-277 -235h-30zM860 53q-93 -73 -294 -73t-341 137q-139 137 -139 405q0 267 144 422q144 154 360 154q150 0 272 -47v-277h-129v160l-26 24q-55 19 -105 19q-152 0 -236 -110t-85 -337q0 -227 92 -326t250 -100q71 0 137 16t100 36
v-103z" />
    <glyph glyph-name="Ccircumflex" unicode="&#x108;" horiz-adv-x="1202" 
d="M752 1454q129 0 221 -18t121 -35v-314h-129v183l-25 26q-82 29 -188 29q-229 0 -335 -150q-105 -151 -105 -455t107 -456q108 -152 343 -151q113 0 192 26l27 29v190h131v-303q-181 -80 -383 -75q-299 2 -463 180t-164 550t174 558q173 186 476 186zM504 1548l-39 45
l248 299h67l246 -299l-37 -45h-33l-208 203l-213 -203h-31z" />
    <glyph glyph-name="ccircumflex" unicode="&#x109;" horiz-adv-x="948" 
d="M367 1192l-35 41l241 297h66l240 -297l-33 -41h-33l-209 205l-207 -205h-30zM860 53q-93 -73 -294 -73t-341 137q-139 137 -139 405q0 267 144 422q144 154 360 154q150 0 272 -47v-277h-129v160l-26 24q-55 19 -105 19q-152 0 -236 -110t-85 -337q0 -227 92 -326
t250 -100q71 0 137 16t100 36v-103z" />
    <glyph glyph-name="Cdotaccent" unicode="&#x10a;" horiz-adv-x="1202" 
d="M625 1713q0 46 35 79q36 33 84 33t84 -33t36 -79t-36 -80t-84 -34t-84 34q-35 34 -35 80zM752 1454q129 0 221 -18t121 -35v-314h-129v183l-25 26q-82 29 -188 29q-229 0 -335 -150q-105 -151 -105 -455t107 -456q108 -152 343 -151q113 0 192 26l27 29v190h131v-303
q-181 -80 -383 -75q-299 2 -463 180t-164 550t174 558q173 186 476 186z" />
    <glyph glyph-name="cdotaccent" unicode="&#x10b;" horiz-adv-x="948" 
d="M860 53q-93 -73 -294 -73t-341 137q-139 137 -139 405q0 267 144 422q144 154 360 154q150 0 272 -47v-277h-129v160l-26 24q-55 19 -105 19q-152 0 -236 -110t-85 -337q0 -227 92 -326t250 -100q71 0 137 16t100 36v-103zM481 1356q0 45 35 80q35 34 83 34t84 -34
t36 -80q0 -45 -36 -79t-84 -34t-83 34t-35 79z" />
    <glyph glyph-name="Ccaron" unicode="&#x10c;" horiz-adv-x="1202" 
d="M752 1454q129 0 221 -18t121 -35v-314h-129v183l-25 26q-82 29 -188 29q-229 0 -335 -150q-105 -151 -105 -455t107 -456q108 -152 343 -151q113 0 192 26l27 29v190h131v-303q-181 -80 -383 -75q-299 2 -463 180t-164 550t174 558q173 186 476 186zM991 1892l35 -45
l-244 -299h-69l-246 299l37 45h33l211 -202l210 202h33z" />
    <glyph glyph-name="ccaron" unicode="&#x10d;" horiz-adv-x="948" 
d="M848 1534l35 -43l-244 -299h-70l-243 299l34 43h35l209 -203l211 203h33zM860 53q-93 -73 -294 -73t-341 137q-139 137 -139 405q0 267 144 422q144 154 360 154q150 0 272 -47v-277h-129v160l-26 24q-55 19 -105 19q-152 0 -236 -110t-85 -337q0 -227 92 -326t250 -100
q71 0 137 16t100 36v-103z" />
    <glyph glyph-name="Dcaron" unicode="&#x10e;" horiz-adv-x="1435" 
d="M455 125h241q223 0 326 148q102 147 102 451t-103 444t-325 141h-241v-1184zM90 106h135l31 29v1163l-31 29h-135v107h606q463 0 594 -390q45 -133 45 -316q0 -357 -168 -543q-168 -185 -471 -185h-606v106zM977 1892l35 -45l-244 -299h-70l-245 299l36 45h33l211 -202
l211 202h33z" />
    <glyph glyph-name="dcaron" unicode="&#x10f;" horiz-adv-x="1239" 
d="M1178 1192v405h125v-165l-23 -240h-102zM542 121q126 0 244 131v616q-99 105 -226 105q-126 0 -200 -108t-74 -330t66 -318q64 -96 190 -96zM795 139q-135 -159 -319 -159q-68 0 -141 32t-127 101q-118 149 -118 415t123 418t341 152q116 0 232 -88v350l-28 29h-137v106
h268q49 -1 66 -23t18 -57v-1284l31 -31h135v-100h-256q-51 0 -68 24q-16 24 -16 58v57h-4z" />
    <glyph glyph-name="Dcroat" unicode="&#x110;" horiz-adv-x="1437" 
d="M457 780h362v-96h-362v-557h241q223 0 325.5 148.5t102.5 451.5t-103 443.5t-325 140.5h-241v-531zM92 780h164v520l-29 29h-135v107h606q463 0 551 -261.5t88 -444.5q0 -359 -168 -543.5t-471 -184.5h-606v107h135l29 28v547h-164v96z" />
    <glyph glyph-name="dcroat" unicode="&#x111;" horiz-adv-x="1177" 
d="M287 536q0 -222 64.5 -318.5t190.5 -96.5t244 131v616q-99 105 -226 105q-126 0 -199.5 -107.5t-73.5 -329.5zM795 139q-135 -159 -319 -159q-68 0 -141 32.5t-159 140t-86 375.5t123 419t341 151q116 0 232 -88v186h-227v92h227v72l-28 29h-137v106h268q84 0 84 -80
v-127h182v-92h-182v-1065l31 -31h135v-100h-256q-51 0 -67.5 23.5t-16.5 58.5v57h-4z" />
    <glyph glyph-name="Emacron" unicode="&#x112;" horiz-adv-x="1282" 
d="M455 1313v-522h374l29 28v135h115v-440h-115v135l-27 27h-376v-555h581l29 29v180h123v-330h-1098v106h135l31 29v1163l-31 29h-135v107h1077v-328h-123v180l-28 27h-561zM436 1751h525v-111h-525v111z" />
    <glyph glyph-name="emacron" unicode="&#x113;" horiz-adv-x="1038" 
d="M770 670q0 162 -64 236t-168 75q-104 0 -174 -91t-83 -280h489v60zM901 49q-126 -69 -335 -69t-343 137q-135 137 -135 411q0 275 130 423q130 147 318 147q189 0 306 -117t116 -324v-141l-28 -27h-649q19 -385 350 -387q156 0 270 54v-107zM301 1395h522v-113h-522v113z
" />
    <glyph glyph-name="Ebreve" unicode="&#x114;" horiz-adv-x="1282" 
d="M455 1313v-522h374l29 28v135h115v-440h-115v135l-27 27h-376v-555h581l29 29v180h123v-330h-1098v106h135l31 29v1163l-31 29h-135v107h1077v-328h-123v180l-28 27h-561zM874 1646q-69 -71 -175 -71t-170 66q-63 66 -80 163l92 23q14 -57 52 -101q39 -44 109 -45
q70 0 112 43t54 99l84 -19q-18 -100 -78 -158z" />
    <glyph glyph-name="ebreve" unicode="&#x115;" horiz-adv-x="1038" 
d="M770 670q0 162 -64 236t-168 75q-104 0 -174 -91t-83 -280h489v60zM901 49q-126 -69 -335 -69t-343 137q-135 137 -135 411q0 275 130 423q130 147 318 147q189 0 306 -117t116 -324v-141l-28 -27h-649q19 -385 350 -387q156 0 270 54v-107zM564 1219q-107 0 -170 65
t-83 162l95 24q12 -57 50 -101t110 -44t112 43q41 43 55 98l82 -20q-29 -154 -153 -208q-42 -19 -98 -19z" />
    <glyph glyph-name="Edotaccent" unicode="&#x116;" horiz-adv-x="1282" 
d="M578 1713q0 46 35 79q36 33 84 33t84 -33t36 -79t-36 -80t-84 -34t-84 34q-35 34 -35 80zM455 1313v-522h374l29 28v135h115v-440h-115v135l-27 27h-376v-555h581l29 29v180h123v-330h-1098v106h135l31 29v1163l-31 29h-135v107h1077v-328h-123v180l-28 27h-561z" />
    <glyph glyph-name="edotaccent" unicode="&#x117;" horiz-adv-x="1038" 
d="M770 670q0 162 -64 236t-168 75q-104 0 -174 -91t-83 -280h489v60zM901 49q-126 -69 -335 -69t-343 137q-135 137 -135 411q0 275 130 423q130 147 318 147q189 0 306 -117t116 -324v-141l-28 -27h-649q19 -385 350 -387q156 0 270 54v-107zM440 1356q0 45 35 80
q35 34 83 34t84 -34t36 -80q0 -45 -36 -79t-84 -34t-83 34t-35 79z" />
    <glyph glyph-name="Eogonek" unicode="&#x118;" horiz-adv-x="1282" 
d="M729 -199q0 126 164 199h-803v106h135l31 29v1163l-31 29h-135v107h1077v-328h-123v180l-28 27h-561v-522h374l29 28v135h115v-440h-115v135l-27 27h-376v-555h581l29 29v180h123v-330h-96q-98 -18 -165 -62t-67 -113t38 -94.5t110 -25.5t143 43l31 -57
q-35 -25 -95.5 -42.5t-125.5 -17.5q-232 0 -232 170z" />
    <glyph glyph-name="eogonek" unicode="&#x119;" horiz-adv-x="1038" 
d="M538 981q-104 0 -173.5 -91t-83.5 -280h489v60q0 162 -64 236.5t-168 74.5zM522 -173.5q0 -121.5 130 -121.5q99 0 161 43l33 -57q-35 -25 -95.5 -42.5t-125.5 -17.5q-232 0 -232 170q0 115 129 181q-303 26 -369.5 217.5t-66.5 331.5q0 274 132 420.5t319 146.5
t303 -115t116 -326v-141l-26 -27h-651q19 -387 356 -387q144 0 266 54v-107q-66 -36 -159 -56q-220 -45 -220 -166.5z" />
    <glyph glyph-name="Ecaron" unicode="&#x11a;" horiz-adv-x="1282" 
d="M455 1313v-522h374l29 28v135h115v-440h-115v135l-27 27h-376v-555h581l29 29v180h123v-330h-1098v106h135l31 29v1163l-31 29h-135v107h1077v-328h-123v180l-28 27h-561zM944 1892l35 -45l-244 -299h-69l-246 299l37 45h32l211 -202l211 202h33z" />
    <glyph glyph-name="ecaron" unicode="&#x11b;" horiz-adv-x="1038" 
d="M807 1534l35 -43l-244 -299h-70l-243 299l34 43h35l209 -203l211 203h33zM770 670q0 162 -64 236t-168 75q-104 0 -174 -91t-83 -280h489v60zM901 49q-126 -69 -335 -69t-343 137q-135 137 -135 411q0 275 130 423q130 147 318 147q189 0 306 -117t116 -324v-141l-28 -27
h-649q19 -385 350 -387q156 0 270 54v-107z" />
    <glyph glyph-name="Gcircumflex" unicode="&#x11c;" horiz-adv-x="1312" 
d="M506 1548l-39 45l248 299h67l246 -299l-37 -45h-33l-208 203l-213 -203h-31zM102 717q0 363 173 550t479 187q135 0 234 -18t128 -35v-314h-129v183l-22 22q-98 35 -211 35q-231 0 -337 -150q-105 -151 -105 -455t107 -461q108 -157 345 -157q122 0 182 29v434l-28 29
h-121v106h456v-106h-100l-29 -29v-512q-180 -77 -391 -75q-631 0 -631 737z" />
    <glyph glyph-name="gcircumflex" unicode="&#x11d;" horiz-adv-x="1103" 
d="M305 1192l-35 41l242 297h66l239 -297l-33 -41h-32l-209 205l-207 -205h-31zM474 -262q400 0 396 207q0 69 -46 101t-150 32h-334q-70 -30 -102 -111q-12 -31 -13 -69q1 -160 249 -160zM522 506q102 0 169 60t67 185q0 124 -67 184t-169 60t-168 -60t-66 -184t66 -185
q66 -60 168 -60zM936 752q0 -168 -118 -258q-118 -91 -296 -91q-108 0 -182 29q-80 -39 -80 -100q0 -88 129 -86h322q148 0 241 -67q94 -67 92 -187q0 -170 -153 -265q-153 -96 -375 -96q-223 1 -340 53t-117 177q0 86 56 149q34 39 114 82q-61 23 -97 68t-36 105
q0 59 39 115t117 95q-139 91 -139 268t112 265t297 90q87 0 158 -21h362v-106h-180l-4 -4q78 -86 78 -215z" />
    <glyph glyph-name="Gbreve" unicode="&#x11e;" horiz-adv-x="1312" 
d="M102 717q0 363 173 550t479 187q135 0 234 -18t128 -35v-314h-129v183l-22 22q-98 35 -211 35q-231 0 -337 -150q-105 -151 -105 -455t107 -461q108 -157 345 -157q122 0 182 29v434l-28 29h-121v106h456v-106h-100l-29 -29v-512q-180 -77 -391 -75q-631 0 -631 737z
M750 1575q-108 0 -172 66q-63 66 -80 163l92 23q14 -57 52 -101t109 -45q71 0 113 43t54 99l83 -19q-27 -153 -152 -210q-44 -19 -99 -19z" />
    <glyph glyph-name="gbreve" unicode="&#x11f;" horiz-adv-x="1103" 
d="M474 -262q400 0 396 207q0 69 -46 101t-150 32h-334q-70 -30 -102 -111q-12 -31 -13 -69q1 -160 249 -160zM522 506q102 0 169 60t67 185q0 124 -67 184t-169 60t-168 -60t-66 -184t66 -185q66 -60 168 -60zM936 752q0 -168 -118 -258q-118 -91 -296 -91q-108 0 -182 29
q-80 -39 -80 -100q0 -88 129 -86h322q148 0 241 -67q94 -67 92 -187q0 -170 -153 -265q-153 -96 -375 -96q-223 1 -340 53t-117 177q0 86 56 149q34 39 114 82q-61 23 -97 68t-36 105q0 59 39 115t117 95q-139 91 -139 268t112 265t297 90q87 0 158 -21h362v-106h-180l-4 -4
q78 -86 78 -215zM543 1219q-155 0 -225 143q-19 41 -27 84l94 24q12 -57 50 -101t110 -44q73 0 113 43t55 98l82 -20q-29 -154 -153 -208q-44 -19 -99 -19z" />
    <glyph glyph-name="Gdotaccent" unicode="&#x120;" horiz-adv-x="1312" 
d="M629 1713q0 46 36 79t84 33t84 -33q35 -33 35 -79t-36 -80t-83 -34q-48 0 -84 34t-36 80zM102 717q0 363 173 550t479 187q135 0 234 -18t128 -35v-314h-129v183l-22 22q-98 35 -211 35q-231 0 -337 -150q-105 -151 -105 -455t107 -461q108 -157 345 -157q122 0 182 29
v434l-28 29h-121v106h456v-106h-100l-29 -29v-512q-180 -77 -391 -75q-631 0 -631 737z" />
    <glyph glyph-name="gdotaccent" unicode="&#x121;" horiz-adv-x="1103" 
d="M474 -262q400 0 396 207q0 69 -46 101t-150 32h-334q-70 -30 -102 -111q-12 -31 -13 -69q1 -160 249 -160zM522 506q102 0 169 60t67 185q0 124 -67 184t-169 60t-168 -60t-66 -184t66 -185q66 -60 168 -60zM936 752q0 -168 -118 -258q-118 -91 -296 -91q-108 0 -182 29
q-80 -39 -80 -100q0 -88 129 -86h322q148 0 241 -67q94 -67 92 -187q0 -170 -153 -265q-153 -96 -375 -96q-223 1 -340 53t-117 177q0 86 56 149q34 39 114 82q-61 23 -97 68t-36 105q0 59 39 115t117 95q-139 91 -139 268t112 265t297 90q87 0 158 -21h362v-106h-180l-4 -4
q78 -86 78 -215zM420 1356q0 45 35 80q35 34 83 34t84 -34t36 -80q0 -45 -36 -79t-84 -34t-83 34t-35 79z" />
    <glyph glyph-name="uni0122" unicode="&#x122;" horiz-adv-x="1312" 
d="M621 -283q0 105 104 105q51 0 79 -27q53 -51 1 -151l-113 -209q-5 0 -39 18l-37 21l70 125l-14 32q-51 27 -51 86zM102 717q0 363 173 550t479 187q135 0 234 -18t128 -35v-314h-129v183l-22 22q-98 35 -211 35q-231 0 -337 -150q-105 -151 -105 -455t107 -461
q108 -157 345 -157q122 0 182 29v434l-28 29h-121v106h456v-106h-100l-29 -29v-512q-180 -77 -391 -75q-631 0 -631 737z" />
    <glyph glyph-name="uni0123" unicode="&#x123;" horiz-adv-x="1103" 
d="M647 1348q0 -105 -102 -105q-51 0 -79 27t-28 66t27 85l113 209l75 -39l-69 -125l12 -32q51 -27 51 -86zM474 -262q400 0 396 207q0 69 -46 101t-150 32h-334q-70 -30 -102 -111q-12 -31 -13 -69q1 -160 249 -160zM522 506q102 0 169 60t67 185q0 124 -67 184t-169 60
t-168 -60t-66 -184t66 -185q66 -60 168 -60zM936 752q0 -168 -118 -258q-118 -91 -296 -91q-108 0 -182 29q-80 -39 -80 -100q0 -88 129 -86h322q148 0 241 -67q94 -67 92 -187q0 -170 -153 -265q-153 -96 -375 -96q-223 1 -340 53t-117 177q0 86 56 149q34 39 114 82
q-61 23 -97 68t-36 105q0 59 39 115t117 95q-139 91 -139 268t112 265t297 90q87 0 158 -21h362v-106h-180l-4 -4q78 -86 78 -215z" />
    <glyph glyph-name="Hcircumflex" unicode="&#x124;" horiz-adv-x="1517" 
d="M1065 670h-610v-535l26 -29h140v-106h-531v106h135l31 29v1163l-31 29h-135v107h531v-107h-140l-26 -29v-501h610v501l-29 29h-137v107h528v-107h-135l-30 -29v-1163l30 -29h135v-106h-528v106h137l29 29v535zM522 1548l-39 45l248 299h68l245 -299l-36 -45h-33l-209 203
l-213 -203h-31z" />
    <glyph glyph-name="hcircumflex" unicode="&#x125;" 
d="M59 1589l-34 41l241 297h66l239 -297l-32 -41h-33l-209 205l-207 -205h-31zM674 952q-159 0 -281 -131v-690l29 -31h123v-100h-504v100h135l31 31v1229l-31 29h-135v106h266q51 0 69 -22q17 -23 17 -58v-471q48 52 132 102t184 51q174 2 252 -89q77 -90 77 -238v-639
l29 -31h135v-100h-504v100h123l31 31v610q0 146 -92 193q-35 18 -86 18z" />
    <glyph glyph-name="Hbar" unicode="&#x126;" horiz-adv-x="1517" 
d="M1065 797v202h-610v-202h610zM90 1096h166v202l-31 29h-135v107h531v-107h-140l-26 -29v-202h610v202l-29 29h-137v107h528v-107h-135l-30 -29v-202h165v-97h-165v-864l30 -29h135v-106h-528v106h137l29 29v535h-610v-535l26 -29h140v-106h-531v106h135l31 29v864h-166
v97z" />
    <glyph glyph-name="hbar" unicode="&#x127;" 
d="M545 102v-100h-504v100h135l31 31v1063h-162v92h162v74l-31 29h-135v106h266q86 0 86 -80v-129h246v-92h-246v-250q142 154 318 154t251.5 -90t75.5 -238v-639l29 -31h135v-100h-504v100h123l31 31v610q0 94 -41 152.5t-137 58.5q-157 0 -281 -131v-690l29 -31h123z" />
    <glyph glyph-name="Itilde" unicode="&#x128;" horiz-adv-x="708" 
d="M90 1327v107h531v-107h-140l-26 -29v-1163l26 -29h140v-106h-531v106h135l31 29v1163l-31 29h-135zM678 1831v-80q0 -82 -41 -125t-115 -43t-177 53t-149 53q-46 1 -64 -17t-19 -38v-69h-88v73q0 92 44 136t104 43q60 1 102 -17t113 -57t123 -39t69 20q16 20 16 39v68h82
z" />
    <glyph glyph-name="itilde" unicode="&#x129;" horiz-adv-x="626" 
d="M334 1077q82 0 84 -82v-864l28 -31h138v-100h-518v100h137l28 31v809l-28 31h-137v106h268zM621 1473v-80q0 -80 -41 -123t-115 -43t-178 53q-103 53 -149 53t-64 -18t-19 -37v-70h-88v72q0 92 44 135q45 43 105 43t102 -17t82 -37t80 -38t83 -18t59 19t17 40v66h82z" />
    <glyph glyph-name="Imacron" unicode="&#x12a;" horiz-adv-x="708" 
d="M90 1327v107h531v-107h-140l-26 -29v-1163l26 -29h140v-106h-531v106h135l31 29v1163l-31 29h-135zM90 1751h524v-111h-524v111z" />
    <glyph glyph-name="imacron" unicode="&#x12b;" horiz-adv-x="626" 
d="M334 1077q82 0 84 -82v-864l28 -31h138v-100h-518v100h137l28 31v809l-28 31h-137v106h268zM33 1395h522v-113h-522v113z" />
    <glyph glyph-name="Iogonek" unicode="&#x12e;" horiz-adv-x="708" 
d="M141 -199q0 126 160 199h-211v106h135l29 29v1163l-29 29h-135v107h531v-107h-140l-26 -29v-1163l26 -29h140v-106h-117q-98 -18 -165 -62t-67 -113t38 -94.5t112 -25.5t141 43l31 -57q-35 -25 -95.5 -42.5t-125.5 -17.5q-232 0 -232 170z" />
    <glyph glyph-name="iogonek" unicode="&#x12f;" horiz-adv-x="622" 
d="M188 1386.5q0 49.5 30 79t85 29.5t85 -29.5t30 -79t-30 -80t-85 -30.5t-85 30.5t-30 80zM96 -199q0 127 162 199h-195v100h138l28 31v809l-28 31h-138v106h269q84 0 84 -82v-864l28 -31h138v-100h-121q-98 -18 -166 -62t-68 -113t38 -94.5t112 -25.5t141 43l31 -57
q-35 -25 -95.5 -42.5t-125.5 -17.5q-232 0 -232 170z" />
    <glyph glyph-name="Idotaccent" unicode="&#x130;" horiz-adv-x="708" 
d="M90 1327v107h531v-107h-140l-26 -29v-1163l26 -29h140v-106h-531v106h135l31 29v1163l-31 29h-135zM231 1713q0 46 36 79t84 33t84 -33t36 -79t-36 -80t-84 -34t-84 34t-36 80z" />
    <glyph glyph-name="dotlessi" unicode="&#x131;" horiz-adv-x="626" 
d="M334 1077q84 0 84 -82v-864l28 -31h138v-100h-518v100h137l28 31v809l-28 31h-137v106h268z" />
    <glyph glyph-name="IJ" unicode="&#x132;" horiz-adv-x="1355" 
d="M289 348h133v-180l22 -27q70 -39 203 -39q134 0 206.5 63.5t72.5 207.5v925l-31 29h-135v107h528v-107h-137l-29 -29v-909q0 -185 -118 -297t-339 -112q-220 0 -376 104v264zM90 1327v107h528v-107h-135l-30 -29v-716l30 -29h135v-107h-528v107h137l29 29v716l-29 29
h-137z" />
    <glyph glyph-name="ij" unicode="&#x133;" horiz-adv-x="1218" 
d="M188 1386q0 49 29 79t85 30t86 -30t30 -79q0 -50 -30 -80t-86 -30t-85 30t-29 80zM332 1077q82 0 84 -82v-864l28 -31h138v-100h-519v100h138l28 31v809l-28 31h-138v106h269zM1055 0q0 -369 -327 -369q-92 0 -167 15v213h117v-107l24 -24q8 -2 21 -2q82 0 114 72t31 194
v948l-30 31h-136v106h267q51 1 68 -23t18 -59v-995zM825 1386q0 49 30 79t86 30t85 -30t29 -79q0 -50 -29 -80t-85 -30t-86 30t-30 80z" />
    <glyph glyph-name="Jcircumflex" unicode="&#x134;" horiz-adv-x="1077" 
d="M55 358h133v-190l23 -27q71 -39 187 -39t182 64t65 209v923l-29 29h-137v107h531v-107h-136l-28 -29v-909q0 -287 -244 -379q-82 -31 -192 -30q-216 0 -355 104v274zM498 1548l-39 45l248 299h67l246 -299l-37 -45h-33l-209 203l-213 -203h-30z" />
    <glyph glyph-name="jcircumflex" unicode="&#x135;" horiz-adv-x="561" 
d="M20 1192l-34 41l241 297h66l239 -297l-32 -41h-33l-209 205l-207 -205h-31zM71 -369q-91 0 -167 15v213h116v-107l25 -24q8 -2 21 -2q82 0 113.5 72.5t31.5 193.5v948l-31 31h-135v106h266q86 0 86 -82v-995q0 -369 -326 -369z" />
    <glyph glyph-name="uni0136" unicode="&#x136;" horiz-adv-x="1443" 
d="M639 -283q0 105 104 105q51 0 79 -27t28 -66t-27 -85l-112 -209q-8 0 -39 18l-37 21l70 125l-15 32q-51 27 -51 86zM1413 106v-106h-526v106h135l14 17l-377 553h-204v-541l26 -29h140v-106h-531v106h135l31 29v1163l-31 29h-135v107h531v-107h-140l-26 -29v-507h204
l416 520l-12 16h-127v107h457v-107h-119l-33 -22l-432 -531l446 -645l33 -23h125z" />
    <glyph glyph-name="uni0137" unicode="&#x137;" horiz-adv-x="1220" 
d="M592 -178q51 0 79 -27q53 -51 1 -151l-113 -209q-5 0 -39 18l-37 21l70 125l-14 32q-51 27 -52 86q0 105 105 105zM1194 100v-100h-502v100h129l15 19l-283 426h-160v-414l29 -31h123v-100h-504v100h135l31 31v1229l-31 29h-135v106h266q51 0 69 -22q17 -23 17 -58v-774
h160l309 317l-8 13h-119v106h436v-106h-127l-34 -25l-310 -313l353 -508l30 -25h111z" />
    <glyph glyph-name="kgreenlandic" unicode="&#x138;" horiz-adv-x="1241" 
d="M328 1077q86 0 86 -82v-354h159l312 317l-8 13h-119v106h436v-106h-127l-35 -25l-309 -313l348 -508l29 -25h117v-100h-502v100h125l14 19l-279 426h-161v-414l28 -31h125v-100h-504v100h136l28 31v809l-28 31h-136v106h265z" />
    <glyph glyph-name="Lacute" unicode="&#x139;" horiz-adv-x="1187" 
d="M332 1548l-51 56l233 284h37l86 -104l-277 -236h-28zM455 127h522l29 29v190h127v-346h-1043v106h135l31 29v1163l-31 29h-135v107h531v-107h-140l-26 -29v-1171z" />
    <glyph glyph-name="lacute" unicode="&#x13a;" horiz-adv-x="602" 
d="M291 1587l-51 55l233 283h39l86 -102l-276 -236h-31zM307 1495q51 0 69 -22q17 -23 17 -58v-1284l29 -31h137v-100h-516v100h135l31 31v1229l-31 29h-135v106h264z" />
    <glyph glyph-name="uni013B" unicode="&#x13b;" horiz-adv-x="1187" 
d="M631 -178q51 0 79 -27q53 -51 1 -151l-113 -209q-5 0 -39 18l-37 21l70 125l-14 32q-51 27 -52 86q0 105 105 105zM455 127h522l29 29v190h127v-346h-1043v106h135l31 29v1163l-31 29h-135v107h531v-107h-140l-26 -29v-1171z" />
    <glyph glyph-name="uni013C" unicode="&#x13c;" horiz-adv-x="602" 
d="M295 -178q51 0 79 -27q53 -51 1 -151l-113 -209q-5 0 -39 18l-37 21l70 125l-14 32q-51 27 -52 86q0 105 105 105zM307 1495q51 0 69 -22q17 -23 17 -58v-1284l29 -31h137v-100h-516v100h135l31 31v1229l-31 29h-135v106h264z" />
    <glyph glyph-name="Lcaron" unicode="&#x13d;" horiz-adv-x="1193" 
d="M922 1192v405h125v-165l-23 -240h-102zM455 127h522l29 29v190h127v-346h-1043v106h135l31 29v1163l-31 29h-135v107h531v-107h-140l-26 -29v-1171z" />
    <glyph glyph-name="lcaron" unicode="&#x13e;" horiz-adv-x="661" 
d="M592 1192v405h125v-165l-23 -240h-102zM307 1495q51 0 69 -22q17 -23 17 -58v-1284l29 -31h137v-100h-516v100h135l31 31v1229l-31 29h-135v106h264z" />
    <glyph glyph-name="Ldot" unicode="&#x13f;" horiz-adv-x="1222" 
d="M455 127h522l29 29v190h127v-346h-1043v106h135l31 29v1163l-31 29h-135v107h531v-107h-140l-26 -29v-1171zM854 756q0 45 36 80q36 34 84 34t84 -34t36 -80q0 -45 -36 -79t-84 -34t-84 34t-36 79z" />
    <glyph glyph-name="ldot" unicode="&#x140;" horiz-adv-x="743" 
d="M557 746q0 46 36 80t84 34t84 -35t36 -79t-36 -79q-36 -34 -84 -34t-84 34t-36 79zM307 1495q51 0 69 -22q17 -23 17 -58v-1284l29 -31h137v-100h-516v100h135l31 31v1229l-31 29h-135v106h264z" />
    <glyph glyph-name="Lslash" unicode="&#x141;" horiz-adv-x="1191" 
d="M459 127h522l29 29v190h127v-346h-1043v106h135l29 29v463l-186 -106v112l186 107v587l-29 29h-135v107h531v-107h-140l-26 -29v-475l266 152v-111l-266 -153v-584z" />
    <glyph glyph-name="lslash" unicode="&#x142;" horiz-adv-x="630" 
d="M319 1495q87 0 87 -80v-567l190 123v-113l-190 -123v-604l26 -31h139v-100h-518v100h137l29 31v487l-186 -116v112l186 117v629l-29 29h-137v106h266z" />
    <glyph glyph-name="Nacute" unicode="&#x143;" horiz-adv-x="1501" 
d="M729 1548l-51 56l233 284h37l86 -104l-276 -236h-29zM90 0v106h135l29 29v1163l-29 29h-135v107h338l684 -1094v958l-29 29h-137v107h481v-107h-135l-30 -29v-1302h-144l-712 1137v-998l28 -29h137v-106h-481z" />
    <glyph glyph-name="nacute" unicode="&#x144;" horiz-adv-x="1253" 
d="M637 1192l-51 55l233 283h39l86 -103l-276 -235h-31zM567 100v-100h-504v100h136l28 31v809l-28 31h-136v106h254q51 0 70 -23q18 -24 19 -59v-57h4q144 157 322 158q177 2 251 -88t76 -238v-639l31 -31h135v-100h-504v100h123l28 31v610q0 94 -25 135q-47 76 -151 76
q-160 0 -282 -131v-690l30 -31h123z" />
    <glyph glyph-name="uni0145" unicode="&#x145;" horiz-adv-x="1501" 
d="M672 -283q0 105 104 105q51 0 79 -27t28 -63t-27 -88l-113 -209q-6 0 -38 18l-37 21l69 125l-14 32q-51 27 -51 86zM90 0v106h135l29 29v1163l-29 29h-135v107h338l684 -1094v958l-29 29h-137v107h481v-107h-135l-30 -29v-1302h-144l-712 1137v-998l28 -29h137v-106h-481
z" />
    <glyph glyph-name="uni0146" unicode="&#x146;" horiz-adv-x="1253" 
d="M633 -178q51 0 79 -27q53 -51 1 -151l-113 -209q-5 0 -39 18l-37 21l70 125l-14 32q-51 27 -52 86q0 105 105 105zM567 100v-100h-504v100h136l28 31v809l-28 31h-136v106h254q51 0 70 -23q18 -24 19 -59v-57h4q144 157 322 158q177 2 251 -88t76 -238v-639l31 -31h135
v-100h-504v100h123l28 31v610q0 94 -25 135q-47 76 -151 76q-160 0 -282 -131v-690l30 -31h123z" />
    <glyph glyph-name="Ncaron" unicode="&#x147;" horiz-adv-x="1501" 
d="M90 0v106h135l29 29v1163l-29 29h-135v107h338l684 -1094v958l-29 29h-137v107h481v-107h-135l-30 -29v-1302h-144l-712 1137v-998l28 -29h137v-106h-481zM997 1892l35 -45l-244 -299h-69l-246 299l37 45h33l211 -202l211 202h32z" />
    <glyph glyph-name="ncaron" unicode="&#x148;" horiz-adv-x="1253" 
d="M907 1534l35 -43l-244 -299h-69l-244 299l35 43h35l209 -203l210 203h33zM567 100v-100h-504v100h136l28 31v809l-28 31h-136v106h254q51 0 70 -23q18 -24 19 -59v-57h4q144 157 322 158q177 2 251 -88t76 -238v-639l31 -31h135v-100h-504v100h123l28 31v610
q0 94 -25 135q-47 76 -151 76q-160 0 -282 -131v-690l30 -31h123z" />
    <glyph glyph-name="napostrophe" unicode="&#x149;" horiz-adv-x="1253" 
d="M162 1577q51 0 79 -27q46 -45 19 -113q-8 -19 -18 -38l-113 -209q-5 0 -39 18l-37 21l70 125l-14 32q-51 27 -52 87q0 104 105 104zM567 100v-100h-504v100h136l28 31v809l-28 31h-136v106h254q51 0 70 -23q18 -24 19 -59v-57h4q144 157 322 158q177 2 251 -88t76 -238
v-639l31 -31h135v-100h-504v100h123l28 31v610q0 94 -25 135q-47 76 -151 76q-160 0 -282 -131v-690l30 -31h123z" />
    <glyph glyph-name="Omacron" unicode="&#x14c;" horiz-adv-x="1366" 
d="M309 718q0 -605 373 -605q188 0 282 148q93 149 93 457t-93 456q-92 148 -280 147q-188 0 -282 -147q-93 -148 -93 -456zM100 718q0 352 158 544t426 192t425 -191t157 -546q0 -356 -158 -546q-158 -191 -426 -191q-131 0 -238 47q-219 97 -302 371q-42 138 -42 320z
M422 1751h524v-111h-524v111z" />
    <glyph glyph-name="omacron" unicode="&#x14d;" horiz-adv-x="1105" 
d="M305 1395h522v-113h-522v113zM825 539q1 223 -71 331t-201 107q-129 0 -200 -108q-71 -109 -71 -331t72 -331q70 -109 199 -109t201 109q71 109 71 332zM227 961q123 137 324 137q200 0 334 -144q135 -144 135 -415q0 -272 -135 -417t-333 -143q-198 1 -331 145t-133 412
t139 425z" />
    <glyph glyph-name="Obreve" unicode="&#x14e;" horiz-adv-x="1366" 
d="M309 718q0 -605 373 -605q188 0 282 148q93 149 93 457t-93 456q-92 148 -280 147q-188 0 -282 -147q-93 -148 -93 -456zM100 718q0 352 158 544t426 192t425 -191t157 -546q0 -356 -158 -546q-158 -191 -426 -191q-131 0 -238 47q-219 97 -302 371q-42 138 -42 320z
M684 1575q-107 0 -170 66t-82 163l92 23q14 -57 52 -101t110 -45q70 0 112 43t54 99l84 -19q-27 -153 -153 -210q-44 -19 -99 -19z" />
    <glyph glyph-name="obreve" unicode="&#x14f;" horiz-adv-x="1105" 
d="M825 539q1 223 -71 331t-201 107q-129 0 -200 -108q-71 -109 -71 -331t72 -331q70 -109 199 -109t201 109q71 109 71 332zM227 961q123 137 324 137q200 0 334 -144q135 -144 135 -415q0 -272 -135 -417t-333 -143q-198 1 -331 145t-133 412t139 425zM568 1219
q-158 0 -225 143q-19 41 -28 84l95 24q12 -57 50 -101t110 -44t112 43q41 43 55 98l82 -20q-18 -97 -82 -162q-63 -65 -169 -65z" />
    <glyph glyph-name="Ohungarumlaut" unicode="&#x150;" horiz-adv-x="1366" 
d="M776 1548l-33 47l248 265h37l76 -82l-297 -230h-31zM541 1548l-45 49l221 291h37l67 -71l-252 -269h-28zM309 718q0 -605 373 -605q188 0 282 148q93 149 93 457t-93 456q-92 148 -280 147q-188 0 -282 -147q-93 -148 -93 -456zM100 718q0 352 158 544t426 192t425 -191
t157 -546q0 -356 -158 -546q-158 -191 -426 -191q-131 0 -238 47q-219 97 -302 371q-42 138 -42 320z" />
    <glyph glyph-name="ohungarumlaut" unicode="&#x151;" horiz-adv-x="1105" 
d="M659 1192l-34 45l247 266h37l76 -82l-297 -229h-29zM422 1192l-43 47l219 291h37l67 -72l-251 -266h-29zM825 539q1 223 -71 331t-201 107q-129 0 -200 -108q-71 -109 -71 -331t72 -331q70 -109 199 -109t201 109q71 109 71 332zM227 961q123 137 324 137q200 0 334 -144
q135 -144 135 -415q0 -272 -135 -417t-333 -143q-198 1 -331 145t-133 412t139 425z" />
    <glyph glyph-name="OE" unicode="&#x152;" horiz-adv-x="1945" 
d="M686 113q137 0 234 30v1143q-98 35 -234 35q-190 0 -283.5 -147.5t-93.5 -455.5t93.5 -456.5t283.5 -148.5zM693 1454q140 0 255 -20h885v-328h-123v180l-31 27h-561v-522h377l27 28v135h114v-440h-114v135l-27 27h-377v-555h582l31 29v180h122v-330h-907
q-109 -20 -251 -20q-279 0 -437 190.5t-158 546.5t158 546.5t435 190.5z" />
    <glyph glyph-name="oe" unicode="&#x153;" horiz-adv-x="1773" 
d="M1276 981q-104 0 -175 -91t-83 -280h489v60q0 162 -63.5 236.5t-167.5 74.5zM283 538.5q0 -223.5 70.5 -332t199.5 -108.5t200.5 109t72.5 333t-71.5 330.5t-201.5 106.5t-199.5 -107.5t-70.5 -331zM543 -18q-198 0 -326.5 143t-128.5 415t134.5 415t344.5 143
q111 0 205 -58.5t150 -179.5q57 121 152.5 179.5t195.5 58.5q192 0 308 -116t116 -325v-141l-29 -27h-649q19 -387 354 -387q146 0 268 54v-107q-126 -69 -325 -69q-282 0 -395 231q-112 -229 -375 -229z" />
    <glyph glyph-name="Racute" unicode="&#x154;" horiz-adv-x="1398" 
d="M455 1311v-572h260q159 0 237 71t78 222q0 279 -311 279h-264zM90 1327v107h633q240 0 376 -94t136 -298q0 -154 -96 -251q-96 -98 -242 -115v-2q72 -12 124 -56t87 -151l113 -334l34 -27h105v-106h-236q-78 0 -108 84l-119 381q-42 133 -134 147q-28 4 -56 4h-252v-481
l26 -29h148v-106h-539v106h135l31 29v1163l-31 29h-135zM688 1548l-51 56l233 284h37l86 -104l-276 -236h-29z" />
    <glyph glyph-name="racute" unicode="&#x155;" horiz-adv-x="862" 
d="M469 1192l-51 55l233 283h39l86 -103l-276 -235h-31zM813 754h-117v153l-30 29q-86 -6 -151 -43t-101 -78v-684l30 -31h158v-100h-539v100h136l28 31v809l-28 31h-136v106h254q51 0 70 -23q18 -24 19 -59v-63h4q76 98 224 151q67 24 179 9v-338z" />
    <glyph glyph-name="uni0156" unicode="&#x156;" horiz-adv-x="1398" 
d="M727 -283q0 105 104 105q51 0 79 -27t28 -66t-27 -85l-112 -209q-8 0 -39 18l-37 21l70 125l-15 32q-51 27 -51 86zM455 1311v-572h260q159 0 237 71t78 222q0 279 -311 279h-264zM90 1327v107h633q240 0 376 -94t136 -298q0 -154 -96 -251q-96 -98 -242 -115v-2
q72 -12 124 -56t87 -151l113 -334l34 -27h105v-106h-236q-78 0 -108 84l-119 381q-42 133 -134 147q-28 4 -56 4h-252v-481l26 -29h148v-106h-539v106h135l31 29v1163l-31 29h-135z" />
    <glyph glyph-name="uni0157" unicode="&#x157;" horiz-adv-x="862" 
d="M219 -281q0 105 105 105q50 0 78 -27t28 -66t-27 -85l-112 -209q-5 0 -39 18l-37 21l70 125l-15 32q-51 27 -51 86zM813 754h-117v153l-30 29q-86 -6 -151 -43t-101 -78v-684l30 -31h158v-100h-539v100h136l28 31v809l-28 31h-136v106h254q51 0 70 -23q18 -24 19 -59v-63
h4q76 98 224 151q67 24 179 9v-338z" />
    <glyph glyph-name="Rcaron" unicode="&#x158;" horiz-adv-x="1398" 
d="M455 1311v-572h260q159 0 237 71t78 222q0 279 -311 279h-264zM90 1327v107h633q240 0 376 -94t136 -298q0 -154 -96 -251q-96 -98 -242 -115v-2q72 -12 124 -56t87 -151l113 -334l34 -27h105v-106h-236q-78 0 -108 84l-119 381q-42 133 -134 147q-28 4 -56 4h-252v-481
l26 -29h148v-106h-539v106h135l31 29v1163l-31 29h-135zM956 1892l35 -45l-243 -299h-70l-246 299l37 45h33l211 -202l211 202h32z" />
    <glyph glyph-name="rcaron" unicode="&#x159;" horiz-adv-x="862" 
d="M741 1534l35 -43l-244 -299h-69l-244 299l35 43h35l209 -203l211 203h32zM813 754h-117v153l-30 29q-86 -6 -151 -43t-101 -78v-684l30 -31h158v-100h-539v100h136l28 31v809l-28 31h-136v106h254q51 0 70 -23q18 -24 19 -59v-63h4q76 98 224 151q67 24 179 9v-338z" />
    <glyph glyph-name="Sacute" unicode="&#x15a;" horiz-adv-x="1140" 
d="M666 1454q156 0 333 -47v-320h-131v193l-30 31q-137 20 -217 20q-150 0 -234 -60t-84 -162t62 -164t270 -127q208 -64 301 -145q113 -99 113 -261q0 -214 -145 -324t-389 -109t-406 56v334h131v-205l32 -35q95 -23 254 -24q160 -1 246 68t86 185t-72 180q-72 62 -263 117
t-297 153t-105 259q0 94 37 166q73 143 261 195q91 26 247 26zM598 1548l-51 56l233 284h37l86 -104l-276 -236h-29z" />
    <glyph glyph-name="sacute" unicode="&#x15b;" horiz-adv-x="935" 
d="M481 1192l-51 55l234 283h38l86 -103l-276 -235h-31zM510 1098q130 0 301 -35v-254h-121v137l-24 23q-77 16 -176 16t-157 -45q-59 -45 -59 -115t34 -102q34 -33 78 -51t116 -37q190 -47 271 -121t81 -197q0 -157 -119 -248t-285 -90q-167 1 -264 23q-51 8 -90 23v256
h121v-140l27 -28q99 -17 202 -17q104 0 168 48t64 131t-52 124t-174 73q-205 54 -275 129t-72 203q-1 128 105 211t300 83z" />
    <glyph glyph-name="Scircumflex" unicode="&#x15c;" horiz-adv-x="1140" 
d="M666 1454q156 0 333 -47v-320h-131v193l-30 31q-137 20 -217 20q-150 0 -234 -60t-84 -162t62 -164t270 -127q208 -64 301 -145q113 -99 113 -261q0 -214 -145 -324t-389 -109t-406 56v334h131v-205l32 -35q95 -23 254 -24q160 -1 246 68t86 185t-72 180q-72 62 -263 117
t-297 153t-105 259q0 94 37 166q73 143 261 195q91 26 247 26zM379 1548l-39 45l248 299h67l246 -299l-37 -45h-33l-208 203l-213 -203h-31z" />
    <glyph glyph-name="scircumflex" unicode="&#x15d;" horiz-adv-x="935" 
d="M270 1192l-34 41l241 297h66l239 -297l-32 -41h-33l-209 205l-207 -205h-31zM510 1098q130 0 301 -35v-254h-121v137l-24 23q-77 16 -176 16t-157 -45q-59 -45 -59 -115t34 -102q34 -33 78 -51t116 -37q190 -47 271 -121t81 -197q0 -157 -119 -248t-285 -90
q-167 1 -264 23q-51 8 -90 23v256h121v-140l27 -28q99 -17 202 -17q104 0 168 48t64 131t-52 124t-174 73q-205 54 -275 129t-72 203q-1 128 105 211t300 83z" />
    <glyph glyph-name="Scedilla" unicode="&#x15e;" horiz-adv-x="1140" 
d="M666 1454q156 0 333 -47v-320h-131v193l-30 31q-137 20 -217 20q-150 0 -234 -60t-84 -162t62 -164t270 -127q208 -64 301 -145q113 -99 113 -261q0 -214 -143 -322t-366 -110l-48 -64q200 -14 200 -135q0 -145 -223 -150q-124 0 -203 50l29 59q75 -39 170 -39
q96 0 96 74q0 78 -194 96v27l66 84q-197 10 -324 53v334h131v-205l32 -35q95 -23 254 -24q160 -1 246 68t86 185t-72 180q-72 62 -263 117t-297 153t-105 259q0 94 37 166q73 143 261 195q91 26 247 26z" />
    <glyph glyph-name="scedilla" unicode="&#x15f;" horiz-adv-x="937" 
d="M510 1098q130 0 301 -35v-254h-121v137l-24 23q-77 16 -176 16t-157 -45q-59 -45 -59 -115t34 -102q34 -33 78 -51t116 -37q190 -47 271 -121t81 -197q0 -157 -116 -246t-290 -91l-49 -64q201 -14 201 -135q0 -145 -223 -150q-124 0 -203 50l29 59q75 -39 159 -39
q107 0 107 74q0 78 -195 96v27l67 84q-81 3 -155 20q-51 8 -90 23v256h121v-140l27 -28q99 -17 202 -17q104 0 168 48t64 131t-52 124t-174 73q-205 54 -275 129t-72 203q-1 128 105 211t300 83z" />
    <glyph glyph-name="Scaron" unicode="&#x160;" horiz-adv-x="1140" 
d="M666 1454q156 0 333 -47v-320h-131v193l-30 31q-137 20 -217 20q-150 0 -234 -60t-84 -162t62 -164t270 -127q208 -64 301 -145q113 -99 113 -261q0 -214 -145 -324t-389 -109t-406 56v334h131v-205l32 -35q95 -23 254 -24q160 -1 246 68t86 185t-72 180q-72 62 -263 117
t-297 153t-105 259q0 94 37 166q73 143 261 195q91 26 247 26zM866 1892l35 -45l-244 -299h-69l-246 299l37 45h33l211 -202l211 202h32z" />
    <glyph glyph-name="scaron" unicode="&#x161;" horiz-adv-x="935" 
d="M756 1534l35 -43l-244 -299h-70l-244 299l35 43h35l209 -203l211 203h33zM510 1098q130 0 301 -35v-254h-121v137l-24 23q-77 16 -176 16t-157 -45q-59 -45 -59 -115t34 -102q34 -33 78 -51t116 -37q190 -47 271 -121t81 -197q0 -157 -119 -248t-285 -90q-167 1 -264 23
q-51 8 -90 23v256h121v-140l27 -28q99 -17 202 -17q104 0 168 48t64 131t-52 124t-174 73q-205 54 -275 129t-72 203q-1 128 105 211t300 83z" />
    <glyph glyph-name="uni0162" unicode="&#x162;" horiz-adv-x="1185" 
d="M651 -225q0 78 -194 96v27l80 102h-222v106h148l31 29v1174h-285l-29 -29v-178h-123v332h1069v-332h-120v178l-29 29h-285v-1174l29 -29h147v-106h-223l-63 -84q200 -14 200 -135q0 -145 -223 -150q-124 0 -203 50l29 59q75 -39 170 -39q96 0 96 74z" />
    <glyph glyph-name="uni0163" unicode="&#x163;" horiz-adv-x="688" 
d="M469 -223q0 78 -195 96v27l65 82q-60 8 -100 42t-40 136v811h-150v102h121l29 29l69 270h117v-299h240v-102h-240v-840l29 -31h254v-100q-102 -10 -158 -14q-56 -3 -62 -4l-49 -64q201 -14 201 -135q0 -145 -223 -150q-124 0 -203 50l29 59q75 -39 159 -39q107 0 107 74z
" />
    <glyph glyph-name="Tcaron" unicode="&#x164;" horiz-adv-x="1185" 
d="M57 1434h1069v-332h-120v178l-29 29h-285v-1174l29 -29h147v-106h-553v106h148l31 29v1174h-285l-29 -29v-178h-123v332zM838 1892l34 -45l-243 -299h-70l-246 299l37 45h33l211 -202l211 202h33z" />
    <glyph glyph-name="tcaron" unicode="&#x165;" horiz-adv-x="688" 
d="M561 1192v405h125v-165l-22 -240h-103zM199 160v811h-150v102h121l29 29l69 270h117v-299h240v-102h-240v-840l29 -31h254v-100q-197 -20 -287 -20t-136 40t-46 140z" />
    <glyph glyph-name="Tbar" unicode="&#x166;" horiz-adv-x="1191" 
d="M61 1434h1069v-332h-120v178l-31 29h-283v-523h234v-96h-234v-555l29 -29h147v-106h-553v106h148l31 29v555h-236v96h236v523h-285l-29 -29v-178h-123v332z" />
    <glyph glyph-name="tbar" unicode="&#x167;" horiz-adv-x="688" 
d="M199 160v403h-127v96h127v312h-150v102h121l29 29l69 270h117v-299h240v-102h-240v-312h219v-96h-219v-432l29 -31h254v-100q-197 -20 -287 -20t-136 39.5t-46 140.5z" />
    <glyph glyph-name="Utilde" unicode="&#x168;" horiz-adv-x="1431" 
d="M877 1327v107h493v-107h-137l-29 -29v-817q0 -256 -130 -379q-130 -122 -356 -122t-359 122q-132 123 -132 379v817l-28 29h-138v107h535v-107h-137l-27 -29v-819q0 -186 74 -278t232 -92t232 92q73 92 72 278v819l-30 29h-135zM1071 1831v-80q0 -82 -41 -125t-115 -43
t-177 53t-149 53q-47 1 -65 -17t-18 -38v-69h-88v73q0 92 44 136t104 43q60 1 103 -17q42 -18 113 -57t122 -39q52 0 69 20q16 20 16 39v68h82z" />
    <glyph glyph-name="utilde" unicode="&#x169;" horiz-adv-x="1216" 
d="M504 -20q-311 0 -311 327v633l-29 31h-137v106h266q49 1 67 -25t19 -65v-653q0 -96 29 -135q30 -40 66 -58t97 -18q133 0 254 127v690l-28 31h-138v106h269q82 0 84 -82v-864l30 -31h136v-100h-256q-51 0 -68 24q-16 24 -16 58v55h-4q-157 -157 -330 -157zM885 1473v-80
q0 -80 -41 -123t-115 -43t-178 53q-103 53 -149 53t-64 -18t-19 -37v-70h-88v72q0 92 44 135q45 43 105 43t102 -17t82 -37t80 -38t83 -18t59 19t17 40v66h82z" />
    <glyph glyph-name="Umacron" unicode="&#x16a;" horiz-adv-x="1431" 
d="M877 1327v107h493v-107h-137l-29 -29v-817q0 -256 -130 -379q-130 -122 -356 -122t-359 122q-132 123 -132 379v817l-28 29h-138v107h535v-107h-137l-27 -29v-819q0 -186 74 -278t232 -92t232 92q73 92 72 278v819l-30 29h-135zM481 1751h525v-111h-525v111z" />
    <glyph glyph-name="umacron" unicode="&#x16b;" horiz-adv-x="1216" 
d="M504 -20q-311 0 -311 327v633l-29 31h-137v106h266q49 1 67 -25t19 -65v-653q0 -96 29 -135q30 -40 66 -58t97 -18q133 0 254 127v690l-28 31h-138v106h269q82 0 84 -82v-864l30 -31h136v-100h-256q-51 0 -68 24q-16 24 -16 58v55h-4q-157 -157 -330 -157zM297 1395h522
v-113h-522v113z" />
    <glyph glyph-name="Ubreve" unicode="&#x16c;" horiz-adv-x="1431" 
d="M877 1327v107h493v-107h-137l-29 -29v-817q0 -256 -130 -379q-130 -122 -356 -122t-359 122q-132 123 -132 379v817l-28 29h-138v107h535v-107h-137l-27 -29v-819q0 -186 74 -278t232 -92t232 92q73 92 72 278v819l-30 29h-135zM746 1681q70 0 113 43q42 43 54 99l84 -19
q-18 -99 -82 -164t-171 -65t-170 66t-80 163l92 23q14 -57 52 -101t108 -45z" />
    <glyph glyph-name="ubreve" unicode="&#x16d;" horiz-adv-x="1216" 
d="M504 -20q-311 0 -311 327v633l-29 31h-137v106h266q49 1 67 -25t19 -65v-653q0 -96 29 -135q30 -40 66 -58t97 -18q133 0 254 127v690l-28 31h-138v106h269q82 0 84 -82v-864l30 -31h136v-100h-256q-51 0 -68 24q-16 24 -16 58v55h-4q-157 -157 -330 -157zM559 1219
q-106 0 -169 65t-83 162l94 24q13 -57 51 -101t110 -44t112 43q41 43 55 98l82 -20q-29 -154 -153 -208q-44 -19 -99 -19z" />
    <glyph glyph-name="Uring" unicode="&#x16e;" horiz-adv-x="1431" 
d="M744 1593q122 0 122 110t-123 108q-123 -1 -122 -109q1 -109 123 -109zM975 1702q0 -88 -67 -130t-164 -42q-96 0 -162 42t-66 130t66 129t162 41t164 -41q67 -41 67 -129zM877 1327v107h493v-107h-137l-29 -29v-817q0 -256 -130 -379q-130 -122 -356 -122t-359 122
q-132 123 -132 379v817l-28 29h-138v107h535v-107h-137l-27 -29v-819q0 -186 74 -278t232 -92t232 92q73 92 72 278v819l-30 29h-135z" />
    <glyph glyph-name="uring" unicode="&#x16f;" horiz-adv-x="1216" 
d="M682 1343q0 109 -125 109q-55 0 -88 -27t-33 -81t33 -82t89 -27q56 -1 90 27t34 81zM788 1344q0 -87 -66 -129q-66 -41 -164 -41q-97 0 -163 42q-65 42 -65 128q0 87 65 130q66 42 163 42t164 -42q66 -43 66 -130zM504 -20q-311 0 -311 327v633l-29 31h-137v106h266
q49 1 67 -25t19 -65v-653q0 -96 29 -135q30 -40 66 -58t97 -18q133 0 254 127v690l-28 31h-138v106h269q82 0 84 -82v-864l30 -31h136v-100h-256q-51 0 -68 24q-16 24 -16 58v55h-4q-157 -157 -330 -157z" />
    <glyph glyph-name="Uhungarumlaut" unicode="&#x170;" horiz-adv-x="1431" 
d="M838 1548l-33 47l248 265h37l75 -82l-297 -230h-30zM602 1548l-45 49l221 291h37l68 -71l-252 -269h-29zM877 1327v107h493v-107h-137l-29 -29v-817q0 -256 -130 -379q-130 -122 -356 -122t-359 122q-132 123 -132 379v817l-28 29h-138v107h535v-107h-137l-27 -29v-819
q0 -186 74 -278t232 -92t232 92q73 92 72 278v819l-30 29h-135z" />
    <glyph glyph-name="uhungarumlaut" unicode="&#x171;" horiz-adv-x="1216" 
d="M504 -20q-311 0 -311 327v633l-29 31h-137v106h266q49 1 67 -25t19 -65v-653q0 -96 29 -135q30 -40 66 -58t97 -18q133 0 254 127v690l-28 31h-138v106h269q82 0 84 -82v-864l30 -31h136v-100h-256q-51 0 -68 24q-16 24 -16 58v55h-4q-157 -157 -330 -157zM651 1192
l-35 45l248 266h37l76 -82l-297 -229h-29zM414 1192l-43 47l219 291h37l67 -72l-252 -266h-28z" />
    <glyph glyph-name="Uogonek" unicode="&#x172;" horiz-adv-x="1431" 
d="M879 -4q-238 -55 -238 -173t130 -118q96 0 161 43l33 -57q-84 -60 -222 -60q-231 0 -231 170q0 115 135 181q-197 20 -308.5 141t-111.5 358v817l-28 29h-138v107h535v-107h-137l-27 -29v-819q0 -186 74 -278t232 -92t231 92t73 278v819l-30 29h-135v107h493v-107h-137
l-29 -29v-817q0 -209 -86 -327.5t-239 -157.5z" />
    <glyph glyph-name="uogonek" unicode="&#x173;" horiz-adv-x="1214" 
d="M657 971v106h269q84 0 84 -82v-864l30 -31h136v-100h-84q-100 -18 -167 -62t-67 -113t38 -94.5t110 -25.5t143 43l31 -57q-84 -60 -222 -60q-231 0 -231 170q0 129 168 201q-59 10 -59 80v55h-5q-72 -72 -149.5 -114.5t-179.5 -42.5q-312 0 -312 327v633l-28 31h-137v106
h266q86 0 86 -90v-653q0 -96 42 -153.5t150 -57.5q136 0 254 127v690l-28 31h-138z" />
    <glyph glyph-name="Wcircumflex" unicode="&#x174;" horiz-adv-x="1970" 
d="M784 1548l-39 45l248 299h68l246 -299l-37 -45h-33l-209 203l-213 -203h-31zM1968 1327h-127l-29 -29l-364 -1302h-166l-295 1071l-291 -1071h-168l-376 1307l-25 24h-125v107h508v-107h-127l-27 -29l279 -1048l311 1184h133l312 -1182l274 1046l-25 29h-137v107h465
v-107z" />
    <glyph glyph-name="wcircumflex" unicode="&#x175;" horiz-adv-x="1703" 
d="M649 1192l-35 41l242 297h66l239 -297l-33 -41h-32l-209 205l-207 -205h-31zM1251 971v106h437v-106h-121l-29 -27l-305 -946h-139l-242 756l-231 -756h-144l-319 946l-25 27h-127v106h494v-106h-125l-27 -31l223 -700l250 837h117l250 -835l217 698l-27 31h-127z" />
    <glyph glyph-name="Ycircumflex" unicode="&#x176;" horiz-adv-x="1288" 
d="M0 1327v107h510v-107h-133l-23 -24l322 -574l311 571l-20 27h-140v107h451v-107h-109l-30 -29l-387 -688v-475l28 -29h138v-106h-529v106h135l29 29v440l-414 725l-30 27h-109zM424 1548l-39 45l248 299h67l246 -299l-37 -45h-32l-209 203l-213 -203h-31z" />
    <glyph glyph-name="ycircumflex" unicode="&#x177;" horiz-adv-x="1177" 
d="M750 -248v-100h-480v100h160l31 31l67 186l-370 973l-27 29h-123v106h490v-106h-121l-29 -31l268 -727l265 727l-25 31h-131v106h440v-106h-118l-29 -31l-424 -1157l27 -31h129zM381 1192l-35 41l242 297h65l240 -297l-33 -41h-33l-209 205l-206 -205h-31z" />
    <glyph glyph-name="Ydieresis" unicode="&#x178;" horiz-adv-x="1288" 
d="M0 1327v107h510v-107h-133l-23 -24l322 -574l311 571l-20 27h-140v107h451v-107h-109l-30 -29l-387 -688v-475l28 -29h138v-106h-529v106h135l29 29v440l-414 725l-30 27h-109zM713 1705q-1 37 25 65t67 28t67 -28t25 -66q0 -38 -26 -63q-27 -25 -67 -25t-66 25
q-25 26 -25 64zM434 1705q0 37 26 65t66 28t66 -28q24 -28 24 -66t-24 -63t-66 -25q-40 0 -66 26t-26 63z" />
    <glyph glyph-name="Zacute" unicode="&#x179;" horiz-adv-x="1214" 
d="M1126 0h-1044v106l784 1205h-600l-26 -27v-178h-131v328h985v-107l-779 -1202h654l28 27v178h129v-330zM588 1548l-51 56l233 284h37l86 -104l-277 -236h-28z" />
    <glyph glyph-name="zacute" unicode="&#x17a;" horiz-adv-x="1048" 
d="M516 1192l-51 55l233 283h39l86 -103l-276 -235h-31zM223 780h-127v297h848v-90l-641 -878h510l29 26v164h127v-299h-893v86l645 885h-471l-27 -29v-162z" />
    <glyph glyph-name="Zdotaccent" unicode="&#x17b;" horiz-adv-x="1214" 
d="M492 1713q0 46 35 79q36 33 84 33t84 -33t36 -79t-36 -80t-84 -34t-84 34q-35 34 -35 80zM1126 0h-1044v106l784 1205h-600l-26 -27v-178h-131v328h985v-107l-779 -1202h654l28 27v178h129v-330z" />
    <glyph glyph-name="zdotaccent" unicode="&#x17c;" horiz-adv-x="1048" 
d="M223 780h-127v297h848v-90l-641 -878h510l29 26v164h127v-299h-893v86l645 885h-471l-27 -29v-162zM418 1356q0 45 35 80q35 34 83 34t84 -34t36 -80q0 -45 -36 -79t-84 -34t-83 34t-35 79z" />
    <glyph glyph-name="Zcaron" unicode="&#x17d;" horiz-adv-x="1214" 
d="M1126 0h-1044v106l784 1205h-600l-26 -27v-178h-131v328h985v-107l-779 -1202h654l28 27v178h129v-330zM858 1892l35 -45l-244 -299h-69l-246 299l37 45h32l211 -202l211 202h33z" />
    <glyph glyph-name="zcaron" unicode="&#x17e;" horiz-adv-x="1048" 
d="M784 1534l35 -43l-244 -299h-69l-244 299l35 43h35l209 -203l211 203h32zM223 780h-127v297h848v-90l-641 -878h510l29 26v164h127v-299h-893v86l645 885h-471l-27 -29v-162z" />
    <glyph glyph-name="longs" unicode="&#x17f;" horiz-adv-x="688" 
d="M567 1516q115 0 199 -21v-211h-117v105l-26 26q-29 6 -54 6q-86 0 -120.5 -64.5t-34.5 -193.5v-1032l28 -31h164v-100h-543v100h136l28 31v840h-164v102h136l28 29v49q0 172 77 268.5t263 96.5z" />
    <glyph glyph-name="florin" unicode="&#x192;" horiz-adv-x="1017" 
d="M154 889h239l31 264q17 181 104 272t273 91q102 0 196 -21l-22 -201h-117l12 99l-26 26q-20 4 -45 4q-82 0 -127 -56t-62 -204l-30 -274h251v-98h-262l-88 -797q-22 -186 -106.5 -274.5t-270.5 -88.5q-102 0 -196 21l24 201h115l-12 -97l26 -26q25 -6 45 -6
q80 0 126.5 56t62.5 204l88 807h-229v98z" />
    <glyph glyph-name="uni0218" unicode="&#x218;" horiz-adv-x="1140" 
d="M428 -283q0 105 104 105q51 0 79 -27t28 -66t-27 -85l-112 -209q-8 0 -39 18l-37 21l70 125l-15 32q-51 27 -51 86zM666 1454q156 0 333 -47v-320h-131v193l-30 31q-137 20 -217 20q-150 0 -234 -60t-84 -162t62 -164t270 -127q208 -64 301 -145q113 -99 113 -261
q0 -214 -145 -324t-389 -109t-406 56v334h131v-205l32 -35q95 -23 254 -24q160 -1 246 68t86 185t-72 180q-72 62 -263 117t-297 153t-105 259q0 94 37 166q73 143 261 195q91 26 247 26z" />
    <glyph glyph-name="uni0219" unicode="&#x219;" horiz-adv-x="935" 
d="M336 -283q0 105 104 105q51 0 79 -27t28 -66t-27 -85l-112 -209q-7 0 -39 18l-37 21l69 125l-14 32q-51 27 -51 86zM510 1098q130 0 301 -35v-254h-121v137l-24 23q-77 16 -176 16t-157 -45q-59 -45 -59 -115t34 -102q34 -33 78 -51t116 -37q190 -47 271 -121t81 -197
q0 -157 -119 -248t-285 -90q-167 1 -264 23q-51 8 -90 23v256h121v-140l27 -28q99 -17 202 -17q104 0 168 48t64 131t-52 124t-174 73q-205 54 -275 129t-72 203q-1 128 105 211t300 83z" />
    <glyph glyph-name="uni021A" unicode="&#x21a;" horiz-adv-x="1185" 
d="M496 -283q0 105 104 105q51 0 79 -27t28 -63t-27 -88l-113 -209q-5 0 -39 18l-36 21l69 125l-14 32q-51 27 -51 86zM57 1434h1069v-332h-120v178l-29 29h-285v-1174l29 -29h147v-106h-553v106h148l31 29v1174h-285l-29 -29v-178h-123v332z" />
    <glyph glyph-name="uni021B" unicode="&#x21b;" horiz-adv-x="688" 
d="M307 -281q0 105 105 105q50 0 78 -27t28 -64t-26 -87l-113 -209q-5 0 -39 18l-37 21l70 125l-15 32q-51 27 -51 86zM199 160v811h-150v102h121l29 29l69 270h117v-299h240v-102h-240v-840l29 -31h254v-100q-197 -20 -287 -20t-136 40t-46 140z" />
    <glyph glyph-name="uni0237" unicode="&#x237;" horiz-adv-x="561" 
d="M71 -369q-91 0 -167 15v213h116v-107l25 -24q8 -2 21 -2q82 0 113.5 72.5t31.5 193.5v948l-31 31h-135v106h266q86 0 86 -82v-995q0 -369 -326 -369z" />
    <glyph glyph-name="circumflex" unicode="&#x2c6;" horiz-adv-x="819" 
d="M164 1192l-35 41l242 297h65l240 -297l-33 -41h-33l-209 205l-206 -205h-31z" />
    <glyph glyph-name="caron" unicode="&#x2c7;" horiz-adv-x="821" 
d="M647 1534l35 -43l-244 -299h-69l-244 299l35 43h35l208 -203l211 203h33z" />
    <glyph glyph-name="uni02C9" unicode="&#x2c9;" horiz-adv-x="800" 
d="M139 1413h523v-113h-523v113z" />
    <glyph glyph-name="breve" unicode="&#x2d8;" horiz-adv-x="819" 
d="M409.5 1219q-107.5 0 -171 66.5t-80.5 160.5l94 24q12 -57 50 -101t109.5 -44t112.5 43t56 98l82 -20q-17 -93 -81 -160t-171.5 -67z" />
    <glyph glyph-name="dotaccent" unicode="&#x2d9;" horiz-adv-x="600" 
d="M176 1356q0 45 35 79.5t83 34.5t84 -34.5t36 -79.5t-36 -79t-84 -34t-83 34t-35 79z" />
    <glyph glyph-name="ring" unicode="&#x2da;" horiz-adv-x="819" 
d="M532 1343q0 109 -122 109t-123 -109q0 -53 32.5 -80.5t88.5 -27.5t90 27.5t34 80.5zM639 1344q0 -87 -66.5 -128.5t-163.5 -41.5t-163 41.5t-66 128.5t65 129.5t163 42.5t164.5 -42.5t66.5 -129.5z" />
    <glyph glyph-name="ogonek" unicode="&#x2db;" horiz-adv-x="819" 
d="M383 -369q-231 0 -231 170q0 117 128.5 184t297.5 76l2 -53q-124 -13 -187 -46.5t-87.5 -65.5t-24.5 -86q0 -106 141 -105q43 0 86 14.5t63 28.5l33 -57q-84 -60 -221 -60z" />
    <glyph glyph-name="tilde" unicode="&#x2dc;" horiz-adv-x="819" 
d="M735 1473v-80q0 -80 -41 -123t-102 -43t-104.5 16.5t-115.5 53t-119 36.5q-46 0 -64.5 -18.5t-18.5 -36.5v-70h-88v72q0 92 44 135t104 43t102.5 -17.5t115.5 -55t123 -37.5q49 0 65.5 19t16.5 40v66h82z" />
    <glyph glyph-name="hungarumlaut" unicode="&#x2dd;" horiz-adv-x="819" 
d="M391 1192l-35 45l248 266h37l76 -82l-297 -229h-29zM154 1192l-43 47l219 291h37l67 -72l-252 -266h-28z" />
    <glyph glyph-name="uni0394" unicode="&#x394;" horiz-adv-x="1337" 
d="M186 113h885l-455 1159zM1288 0h-1239v96l524 1342h179l536 -1344v-94z" />
    <glyph glyph-name="uni03A9" unicode="&#x3a9;" horiz-adv-x="1601" 
d="M1022 135h313l31 29l66 166l110 -37l-102 -293h-514v317q129 43 188 170q60 127 60 363t-90 354t-286 117q-198 0 -286 -118t-88 -354q0 -237 60 -365t190 -169v-315h-514l-103 293l111 37l65 -166l31 -29h314v113q-359 109 -359 588q0 319 155 469q155 149 425 149
t425 -150t154 -468q0 -477 -356 -588v-113z" />
    <glyph glyph-name="uni03BC" unicode="&#x3bc;" horiz-adv-x="1343" 
 />
    <glyph glyph-name="pi" unicode="&#x3c0;" horiz-adv-x="1222" 
d="M205 0v940l-31 31h-127v106h1127v-106h-127l-27 -31v-940h-186v940l-31 31h-385l-27 -31v-940h-186z" />
    <glyph glyph-name="Wgrave" unicode="&#x1e80;" horiz-adv-x="1970" 
d="M1044 1548h-28l-279 236l86 104h39l234 -284zM1968 1327h-127l-29 -29l-364 -1302h-166l-295 1071l-291 -1071h-168l-376 1307l-25 24h-125v107h508v-107h-127l-27 -29l279 -1048l311 1184h133l312 -1182l274 1046l-25 29h-137v107h465v-107z" />
    <glyph glyph-name="wgrave" unicode="&#x1e81;" horiz-adv-x="1703" 
d="M1251 971v106h437v-106h-121l-29 -27l-305 -946h-139l-242 756l-231 -756h-144l-319 946l-25 27h-127v106h494v-106h-125l-27 -31l223 -700l250 837h117l250 -835l217 698l-27 31h-127zM909 1192h-26l-279 235l86 103h37l234 -283z" />
    <glyph glyph-name="Wacute" unicode="&#x1e82;" horiz-adv-x="1970" 
d="M1004 1548l-52 56l234 284h37l86 -104l-277 -236h-28zM1968 1327h-127l-29 -29l-364 -1302h-166l-295 1071l-291 -1071h-168l-376 1307l-25 24h-125v107h508v-107h-127l-27 -29l279 -1048l311 1184h133l312 -1182l274 1046l-25 29h-137v107h465v-107z" />
    <glyph glyph-name="wacute" unicode="&#x1e83;" horiz-adv-x="1703" 
d="M862 1192l-51 55l233 283h39l86 -103l-276 -235h-31zM1251 971v106h437v-106h-121l-29 -27l-305 -946h-139l-242 756l-231 -756h-144l-319 946l-25 27h-127v106h494v-106h-125l-27 -31l223 -700l250 837h117l250 -835l217 698l-27 31h-127z" />
    <glyph glyph-name="Wdieresis" unicode="&#x1e84;" horiz-adv-x="1970" 
d="M1968 1327h-127l-29 -29l-364 -1302h-166l-295 1071l-291 -1071h-168l-376 1307l-25 24h-125v107h508v-107h-127l-27 -29l279 -1048l311 1184h133l312 -1182l274 1046l-25 29h-137v107h465v-107zM1073 1705q0 37 26 65q27 28 67 28t66 -28t26 -66t-26 -63t-67 -25t-67 26
t-25 63zM795 1705q-1 37 25 65t67 28t65 -28t25 -66q0 -38 -25 -63q-26 -25 -66 -25t-66 25q-25 26 -25 64z" />
    <glyph glyph-name="wdieresis" unicode="&#x1e85;" horiz-adv-x="1703" 
d="M936 1348q0 38 26 66t66 28t67 -28q25 -28 25 -66t-26 -65q-26 -26 -66 -26t-66 26t-26 65zM657 1348q0 38 26 66t67 28q42 0 66 -28t24 -66t-25 -65q-25 -26 -65 -26t-67 26q-26 26 -26 65zM1251 971v106h437v-106h-121l-29 -27l-305 -946h-139l-242 756l-231 -756h-144
l-319 946l-25 27h-127v106h494v-106h-125l-27 -31l223 -700l250 837h117l250 -835l217 698l-27 31h-127z" />
    <glyph glyph-name="Ygrave" unicode="&#x1ef2;" horiz-adv-x="1288" 
d="M0 1327v107h510v-107h-133l-23 -24l322 -574l311 571l-20 27h-140v107h451v-107h-109l-30 -29l-387 -688v-475l28 -29h138v-106h-529v106h135l29 29v440l-414 725l-30 27h-109zM702 1548h-28l-279 236l86 104h39l234 -284z" />
    <glyph glyph-name="ygrave" unicode="&#x1ef3;" horiz-adv-x="1177" 
d="M750 -248v-100h-480v100h160l31 31l67 186l-370 973l-27 29h-123v106h490v-106h-121l-29 -31l268 -727l265 727l-25 31h-131v106h440v-106h-118l-29 -31l-424 -1157l27 -31h129zM643 1192h-27l-278 235l86 103h37l233 -283z" />
    <glyph glyph-name="endash" unicode="&#x2013;" horiz-adv-x="1120" 
d="M119 727h880v-131h-880v131z" />
    <glyph glyph-name="emdash" unicode="&#x2014;" horiz-adv-x="1712" 
d="M119 727h1472v-131h-1472v131z" />
    <glyph glyph-name="quoteleft" unicode="&#x2018;" horiz-adv-x="452" 
d="M336 1150q0 -124 -119 -124q-57 0 -88 31t-31 69t10 60t21 39l131 250l14 -7t30 -14t42 -22l-82 -154l12 -35q60 -31 60 -93z" />
    <glyph glyph-name="quoteright" unicode="&#x2019;" horiz-adv-x="444" 
d="M121 1330q0 124 119 124q57 0 88 -31q60 -60 0 -168l-131 -249q-14 0 -86 43l82 153l-13 35q-59 31 -59 93z" />
    <glyph glyph-name="quotesinglbase" unicode="&#x201a;" horiz-adv-x="466" 
d="M115 84q0 124 118 123q57 0 89 -31q61 -60 0 -168l-132 -250q-9 0 -86 43l82 154l-12 35q-59 32 -59 94z" />
    <glyph glyph-name="quotedblleft" unicode="&#x201c;" horiz-adv-x="765" 
d="M649 1150q0 -124 -119 -124q-57 0 -88 31q-60 60 0 168l131 250q3 -1 15 -7t29 -14t42 -22l-81 -154l12 -35q59 -31 59 -93zM336 1150q0 -124 -119 -124q-57 0 -88 31t-31 69t10 60t21 39l131 250l14 -7t30 -14t42 -22l-82 -154l12 -35q60 -31 60 -93z" />
    <glyph glyph-name="quotedblright" unicode="&#x201d;" horiz-adv-x="757" 
d="M121 1330q0 124 119 124q57 0 88 -31q60 -60 0 -168l-131 -249q-14 0 -86 43l82 153l-13 35q-59 31 -59 93zM432 1330q0 124 119 124q57 0 88 -31t31 -69t-10 -60t-21 -39l-131 -249q-2 0 -14 6t-30 14t-42 23l82 153l-12 35q-60 31 -60 93z" />
    <glyph glyph-name="quotedblbase" unicode="&#x201e;" horiz-adv-x="780" 
d="M115 84q0 124 118 123q57 0 89 -31q61 -60 0 -168l-132 -250q-9 0 -86 43l82 154l-12 35q-59 32 -59 94zM428 84q0 124 119 123q57 0 88 -31t31 -69q0 -37 -10 -59t-21 -40l-131 -250q-9 0 -86 43l82 154l-13 35q-59 32 -59 94z" />
    <glyph glyph-name="dagger" unicode="&#x2020;" horiz-adv-x="974" 
d="M59 1055l246 -29h135l-41 408h183l-43 -408h131l245 29v-154l-256 31h-114l37 -236l-52 -696h-81l-50 696l35 236h-117l-258 -31v154z" />
    <glyph glyph-name="daggerdbl" unicode="&#x2021;" horiz-adv-x="1073" 
d="M109 535l258 -31h118l-36 213l36 215h-118l-258 -31v154l245 -29h138l-43 408h182l-41 -408h129l246 29v-154l-256 31h-113l35 -215l-35 -213h113l256 31v-154l-246 29h-129l41 -410h-182l43 410h-138l-245 -29v154z" />
    <glyph glyph-name="bullet" unicode="&#x2022;" horiz-adv-x="684" 
d="M336 1244q72 0 126 -52t54 -120t-54 -118t-126 -51q-72 1 -126 51t-53 118q0 68 53 120q54 52 126 52z" />
    <glyph glyph-name="ellipsis" unicode="&#x2026;" horiz-adv-x="1366" 
d="M1014 92q0 45 36 80t84 35t84 -35t36 -80t-36 -79q-36 -33 -84 -33t-84 34t-36 78zM113 92q0 45 35 80q36 35 84 35t84 -35t36 -80t-36 -79q-36 -33 -84 -33t-84 33q-35 34 -35 79zM563 92q0 45 36 80t84 35t84 -35t36 -80t-36 -79q-36 -33 -84 -33t-84 34t-36 78z" />
    <glyph glyph-name="perthousand" unicode="&#x2030;" horiz-adv-x="1974" 
d="M340 848q78 0 110 62q31 63 31 193t-31 191q-32 61 -110 62q-141 0 -140 -254t140 -254zM342 1444q122 0 192 -81t70 -260t-70 -261t-192 -82q-123 0 -194 82q-70 82 -70 261t70 260q71 81 194 81zM1016 78q78 0 110 62t31 193q0 130 -32 191t-109 62q-141 0 -140 -254
t140 -254zM1018 674q122 0 192 -81t70 -260t-70 -261t-192 -82t-194 82q-70 82 -70 261t70 260q71 81 194 81zM1507 332q0 -254 140 -254q77 0 109 62t32 193q0 130 -32 191t-109 62q-140 0 -140 -254zM1649 674q123 0 193 -81t69 -260q0 -179 -70 -261q-71 -82 -193 -82
t-193 82t-71 261t71 260t194 81zM160 0l930 1434h110l-930 -1434h-110z" />
    <glyph glyph-name="guilsinglleft" unicode="&#x2039;" horiz-adv-x="620" 
d="M78 489v66l340 393h104l-284 -426l284 -428h-104z" />
    <glyph glyph-name="guilsinglright" unicode="&#x203a;" horiz-adv-x="620" 
d="M543 489l-340 -395h-105l285 428l-285 426h105l340 -393v-66z" />
    <glyph glyph-name="fraction" unicode="&#x2044;" horiz-adv-x="184" 
d="M-426 0l930 1434h110l-929 -1434h-111z" />
    <glyph glyph-name="zero.superior" unicode="&#x2070;" horiz-adv-x="651" 
d="M324 1114q78 0 110 62t31 193q0 129 -32 191q-33 62 -107 62t-108 -61t-34 -191q0 -256 140 -256zM326 1710q122 0 192 -81t70 -260t-70 -261t-192 -82t-194 82q-71 82 -71 261t71 260t194 81z" />
    <glyph glyph-name="four.superior" unicode="&#x2074;" horiz-adv-x="614" 
d="M350 1294v279l-219 -279h219zM471 1708v-414h88v-69h-88v-109l12 -12h76v-68h-307v68h84l14 12v109h-313v63l319 420h115z" />
    <glyph glyph-name="five.superior" unicode="&#x2075;" horiz-adv-x="581" 
d="M284 1026q-139 0 -218 43v145h84v-69l18 -17q56 -14 114 -14t90 35t32 93q-1 104 -156 104h-162v354h412v-178h-80v71l-17 15h-227v-174h92q184 0 240 -106q20 -38 20 -84q0 -145 -138 -200q-48 -18 -104 -18z" />
    <glyph glyph-name="six.superior" unicode="&#x2076;" horiz-adv-x="595" 
d="M311 1362q-72 0 -135 -57q6 -199 133 -199q53 0 86 31t33 96q0 129 -117 129zM349 1710q75 0 151 -27v-145h-72v68l-12 14q-29 12 -68 12q-77 0 -121 -67t-49 -176q62 49 154 51q150 0 196 -110q16 -38 16 -91q1 -100 -66 -156q-67 -57 -176 -57q-110 0 -176 73t-67 237
q0 164 67 258q80 116 223 116z" />
    <glyph glyph-name="seven.superior" unicode="&#x2077;" horiz-adv-x="534" 
d="M506 1700v-68l-242 -596h-129l266 570h-262l-16 -15v-69h-76v178h459z" />
    <glyph glyph-name="eight.superior" unicode="&#x2078;" horiz-adv-x="608" 
d="M432 1532q0 43 -31 72q-31 28 -93 28t-95 -24t-33 -63q0 -41 39 -65t119 -50l24 -9q70 39 70 111zM292 1104q144 0 144 98q0 47 -33 74t-106 49l-45 14q-10 -6 -27 -16q-69 -43 -69 -120q0 -35 32 -67t104 -32zM78 1514q0 96 63 146t147 50q189 0 229 -105q11 -30 11 -57
q0 -95 -106 -149q127 -58 127 -162q0 -103 -70 -157t-159 -54q-206 0 -248 106q-12 30 -13 60q0 128 131 172q-112 54 -112 150z" />
    <glyph glyph-name="nine.superior" unicode="&#x2079;" horiz-adv-x="595" 
d="M166 1503q0 -129 121 -129q78 0 131 56q-8 200 -129 200q-55 0 -89 -31t-34 -96zM243 1026q-81 0 -145 29v145h70v-70q28 -24 72 -24q127 0 161 146q10 44 15 94q-65 -48 -154 -49q-88 -1 -148 46t-60 152t66 160q67 55 177 55q109 0 175 -73t65 -230q0 -259 -157 -349
q-56 -32 -137 -32z" />
    <glyph glyph-name="parenleft.superior" unicode="&#x207d;" horiz-adv-x="372" 
d="M61 1438q0 202 246 352l29 -35q-164 -139 -164 -317v-160q0 -183 164 -315l-29 -35q-243 147 -246 350v160z" />
    <glyph glyph-name="parenright.superior" unicode="&#x207e;" horiz-adv-x="370" 
d="M201 1280v160q0 181 -164 317l26 35q246 -150 246 -352v-160q1 -119 -71 -204t-175 -148l-26 35q164 142 164 317z" />
    <glyph glyph-name="zero.inferior" unicode="&#x2080;" horiz-adv-x="651" 
d="M324 -188q78 0 110 62t31 193q0 130 -32 191q-33 61 -107 61t-108 -61t-34 -190q0 -256 140 -256zM326 408q122 0 192 -81t70 -260t-70 -261t-192 -82t-194 82q-71 82 -71 260q0 180 71 261t194 81z" />
    <glyph glyph-name="one.inferior" unicode="&#x2081;" horiz-adv-x="444" 
d="M154 356q31 0 49 18t22 32h74v-592l14 -13h101v-67h-351v67h99l14 13v465l-14 14h-99v63h91z" />
    <glyph glyph-name="two.inferior" unicode="&#x2082;" horiz-adv-x="593" 
d="M518 233q0 -69 -45 -119t-137 -104t-121 -79q-29 -26 -29 -58v-51h252l15 14v80h79v-182h-464v125q0 68 37 106t149 107q82 47 113 81t30 78q0 95 -116 95q-44 0 -107 -21l-16 -16v-76h-82v141q107 52 193 53q249 3 249 -174z" />
    <glyph glyph-name="three.inferior" unicode="&#x2083;" horiz-adv-x="583" 
d="M510 232q0 -121 -113 -158v-4q55 -10 90 -47t35 -89q0 -149 -131 -194q-47 -16 -138 -16t-185 40v144h86v-74l14 -14q33 -19 101 -19q67 0 98 35q31 36 31 94q-1 107 -124 107h-77v76h77q113 0 113 114q0 41 -29 72t-84 31t-96 -17l-16 -14v-76h-84v144q86 38 175 40
q257 3 257 -175z" />
    <glyph glyph-name="four.inferior" unicode="&#x2084;" horiz-adv-x="614" 
d="M350 -8v278l-219 -278h219zM471 406v-414h88v-70h-88v-108l12 -13h76v-67h-307v67h84l14 13v108h-313v64l319 420h115z" />
    <glyph glyph-name="five.inferior" unicode="&#x2085;" horiz-adv-x="581" 
d="M240 -276q-100 0 -174 43v145h84v-70l18 -16q56 -14 114 -14t90 34t32 92q-1 104 -156 105h-162v354h412v-178h-80v72l-17 14h-227v-174h92q183 0 240 -105q20 -38 20 -84t-14 -84q-14 -36 -45 -67t-79 -49t-148 -18z" />
    <glyph glyph-name="six.inferior" unicode="&#x2086;" horiz-adv-x="595" 
d="M311 59q-75 0 -135 -57q6 -199 133 -199q53 0 86 31t33 96q0 129 -117 129zM345 408q71 0 155 -27v-145h-72v67l-12 14q-77 32 -138 -7q-93 -55 -100 -224q64 51 154 51q149 0 196 -109q16 -38 16 -91q1 -102 -66 -157q-67 -56 -176 -56q-110 0 -176 72t-67 231
q0 258 159 349q56 32 127 32z" />
    <glyph glyph-name="seven.inferior" unicode="&#x2087;" horiz-adv-x="534" 
d="M506 397v-67l-242 -596h-129l266 569h-262l-16 -14v-70h-76v178h459z" />
    <glyph glyph-name="eight.inferior" unicode="&#x2088;" horiz-adv-x="608" 
d="M432 229q0 43 -31 72t-93 29t-95 -24t-33 -64t39 -64q39 -25 119 -51l24 -8q70 39 70 110zM292 -199q144 0 144 99q0 48 -33 74t-106 49l-45 14q-10 -6 -37 -23t-43 -48q-16 -30 -16 -66t32 -67q32 -32 104 -32zM78 211q0 96 63 146q63 51 147 51q189 1 229 -106
q11 -29 11 -56q0 -93 -106 -150q55 -26 91 -64t36 -104q0 -98 -70 -151t-159 -53q-205 0 -248 105q-12 30 -13 60q0 128 131 172q-112 54 -112 150z" />
    <glyph glyph-name="nine.inferior" unicode="&#x2089;" horiz-adv-x="595" 
d="M166 201q0 -129 121 -129q79 0 131 55q-8 201 -129 201q-55 0 -89 -31t-34 -96zM98 -102h70v-70q29 -25 73 -25q127 0 160 147q10 44 15 93q-66 -49 -154 -49t-148 47t-60 152t66 159q67 54 176 55q110 1 176 -72t65 -231q0 -259 -157 -349q-56 -31 -135 -31t-147 28v146
z" />
    <glyph glyph-name="parenleft.inferior" unicode="&#x208d;" horiz-adv-x="372" 
d="M61 135q0 207 246 352l29 -34q-164 -139 -164 -318v-160q0 -183 164 -315l-29 -35q-243 147 -246 350v160z" />
    <glyph glyph-name="parenright.inferior" unicode="&#x208e;" horiz-adv-x="370" 
d="M201 -23v160q0 180 -164 318l26 34q246 -150 246 -352v-160q1 -119 -71 -203t-175 -149l-26 35q164 142 164 317z" />
    <glyph glyph-name="franc" unicode="&#x20a3;" horiz-adv-x="1286" 
d="M131 862h158v436l-31 29h-135v107h1104v-328h-123v176l-31 27h-586v-447h387v-96h-387v-133h387v-96h-387v-402l27 -29h170v-106h-561v106h135l31 29v402h-158v96h158v133h-158v96z" />
    <glyph glyph-name="lira" unicode="&#x20a4;" horiz-adv-x="1251" 
d="M455 373q0 -170 -33 -238h563l31 29v184h121v-348h-1035v106h127l29 29v402h-156v96h156v133h-156v96h156v156q0 194 118 315t341 121t403 -70v-286h-123v178l-26 24q-113 29 -242 29q-274 0 -274 -311v-156h362v-96h-362v-133h362v-96h-362v-164z" />
    <glyph glyph-name="peseta" unicode="&#x20a7;" horiz-adv-x="3000" 
d="M453 1311v-643h276q168 0 245 78t77 243q0 166 -76 244t-238 78h-284zM88 1327v107h649q242 0 378 -104t136 -334q0 -228 -138 -341t-384 -112h-276v-408l26 -29h158v-106h-549v106h135l31 29v1163l-31 29h-135zM2562 1098q130 0 301 -35v-254h-121v137l-24 23
q-77 16 -176 16t-157 -45t-58 -117q0 -105 111 -151q44 -18 116 -37q190 -47 271 -121t81 -197q0 -157 -119 -248t-285 -90q-167 1 -264 23q-51 8 -90 23v256h121v-140l27 -28q267 -46 369 31q65 48 65 131t-52 124t-174 73q-205 54 -276 130t-71 203t106 210t299 83z
M1546 160v811h-149v102h121l28 29l70 270h117v-299h239v-102h-239v-840l28 -31h254v-100q-197 -20 -286 -20q-90 0 -137 39q-46 40 -46 141z" />
    <glyph glyph-name="Euro" unicode="&#x20ac;" horiz-adv-x="1339" 
d="M74 555v96h172q-2 16 -2 21v51q0 47 2 63h-172v97h180q37 293 204 432t433 139q117 0 205 -18.5t114 -34.5v-287h-118v162l-25 27q-80 29 -176 28q-205 0 -309.5 -112.5t-128.5 -335.5h424v-97h-431v-57q0 -57 3 -78h428v-96h-422q29 -227 134 -338t310 -111
q104 0 182 27l29 29v170h117v-277q-153 -75 -359 -75q-260 0 -420.5 140t-195.5 435h-178z" />
    <glyph glyph-name="uni2113" unicode="&#x2113;" horiz-adv-x="835" 
d="M608 1184q0 184 -104 184q-53 0 -85 -71.5t-32 -217.5v-442q125 168 173 299t48 248zM547 104q90 0 194 56l37 -105q-134 -75 -263 -75q-130 0 -207 57t-77 209v28l-118 -122l-74 86l192 208v668q0 183 77 274t208 91q171 0 208.5 -103.5t37.5 -184.5q0 -164 -84 -333.5
t-291 -411.5v-182q0 -94 35 -127t125 -33z" />
    <glyph glyph-name="trademark" unicode="&#x2122;" horiz-adv-x="1644" 
d="M141 1434h512v-181h-69v78l-11 12h-116v-464l10 -13h82v-73h-301v73h80l10 13v464h-115l-12 -12v-78h-70v181zM1006 866v-73h-273v73h74l12 13v471l-12 10h-74v74h217l174 -328l170 328h215v-74h-75l-11 -10v-471l13 -13h73v-73h-288v73h75l11 13v393l-142 -277h-100
l-143 269v-385l10 -13h74z" />
    <glyph glyph-name="Omega" unicode="&#x2126;" horiz-adv-x="1601" 
d="M1378 836q0 -477 -356 -588v-113h313l31 29l66 166l110 -37l-102 -293h-514v317q129 43 188.5 170t59.5 363t-89 353.5t-287 117.5t-286 -118t-88 -354t60.5 -364.5t189.5 -169.5v-315h-514l-103 293l111 37l65 -166l31 -29h314v113q-359 109 -359 588q0 319 154.5 468.5
t425 149.5t425 -149.5t154.5 -468.5z" />
    <glyph glyph-name="estimated" unicode="&#x212e;" horiz-adv-x="1624" 
d="M96 714.5q0 153.5 58.5 288t159 233.5t233.5 155.5t281 56.5t277.5 -55.5t228 -150.5t159.5 -223t72 -271v-5l-66 -75h-1069l-18 -27v-373q152 -215 436 -215q154 0 277.5 57.5t205.5 157.5h113q-223 -288 -596 -288q-314 0 -474.5 157.5t-219 290.5t-58.5 286.5z
M829 1374q-267 0 -417 -182v-422l18 -27h795l20 27v422q-70 84 -178.5 133t-237.5 49z" />
    <glyph glyph-name="uni2153" unicode="&#x2153;" horiz-adv-x="1261" 
d="M215 1393q31 0 49 17t23 32h73v-592l15 -12h100v-68h-350v68h98l15 12v465l-15 14h-98v64h90zM78 0l930 1434h110l-930 -1434h-110zM907 674q200 0 242 -109q12 -31 12 -61q0 -127 -112 -164v-4q55 -10 90 -47t35 -89q0 -95 -59 -153q-59 -57 -183 -57t-213 41v143h86
v-74l14 -14q32 -18 100 -18t99 34t31 94q0 110 -123 107h-78v76h78q114 0 112 115q0 42 -28 72t-81 30q-52 0 -100 -16l-16 -15v-76h-84v144q92 41 178 41z" />
    <glyph glyph-name="uni2154" unicode="&#x2154;" horiz-adv-x="1370" 
d="M301 1444q140 0 194 -48t54 -122t-45 -124q-46 -50 -138 -104t-120 -78q-28 -26 -29 -59v-51h252l14 14v80h80v-182h-465v125q0 65 37 105t135 97q98 58 128 92t30 79q0 94 -117 94q-52 0 -106 -21l-17 -16v-76h-82v142q109 53 195 53zM186 0l930 1434h111l-930 -1434
h-111zM1018 674q200 0 242 -109q12 -31 12 -61q0 -127 -113 -164v-4q55 -10 90 -47t35 -89q0 -96 -59 -153t-181 -57q-123 0 -215 41v143h86v-74l15 -14q32 -18 100 -18q129 0 129 128q0 110 -123 107h-78v76h78q113 0 113 115q0 42 -29 72q-28 30 -80 30t-100 -16l-16 -15
v-76h-84v144q93 41 178 41z" />
    <glyph glyph-name="uni2155" unicode="&#x2155;" horiz-adv-x="1277" 
d="M78 0l930 1434h110l-930 -1434h-110zM215 1393q31 0 49 17t23 32h73v-592l15 -12h100v-68h-350v68h98l15 12v465l-15 14h-98v64h90zM904 -10q-100 0 -175 43v145h84v-69l18 -17q57 -14 115 -14t90 35t31 93q0 106 -156 103h-161v355h411v-179h-80v72l-16 14h-227v-174h92
q256 0 260 -198q0 -83 -60 -142q-32 -31 -78 -49q-48 -18 -148 -18z" />
    <glyph glyph-name="uni2156" unicode="&#x2156;" horiz-adv-x="1384" 
d="M301 1444q140 0 194 -48t54 -122t-45 -124q-46 -50 -138 -104t-120 -78q-28 -26 -29 -59v-51h252l14 14v80h80v-182h-465v125q0 65 37 105t135 97q98 58 128 92t30 79q0 94 -117 94q-52 0 -106 -21l-17 -16v-76h-82v142q109 53 195 53zM1042 -10q-130 0 -204 43v145h84
v-69l18 -17q56 -14 114 -14t90 35t32 93q0 106 -156 103h-162v355h412v-179h-80v72l-16 14h-228v-174h92q183 0 240 -105q20 -38 20 -84q0 -92 -63 -155t-193 -63zM184 0l930 1434h111l-930 -1434h-111z" />
    <glyph glyph-name="uni2157" unicode="&#x2157;" horiz-adv-x="1368" 
d="M997 -10q-99 0 -176 43v145h84v-69l19 -17q56 -14 114 -14t90 35t31 93q0 106 -155 103h-162v355h411v-179h-79v72l-17 14h-227v-174h92q180 0 240 -105q20 -38 20 -84t-14 -83t-45 -68t-79 -49t-147 -18zM168 0l930 1434h110l-929 -1434h-111zM297 838q129 0 129 128
q0 110 -123 107h-78v76h78q113 0 113 115q0 42 -29 72t-81 30t-99 -16l-17 -15v-75h-84v143q92 41 178 41q200 0 242 -109q12 -31 13 -61q0 -127 -113 -164v-4q55 -10 90 -47t35 -89q0 -96 -59 -153t-181 -57q-123 0 -215 41v143h86v-74l15 -14q32 -18 100 -18z" />
    <glyph glyph-name="uni2158" unicode="&#x2158;" horiz-adv-x="1409" 
d="M373 1028v279l-219 -279h219zM494 1442v-414h88v-70h-88v-108l12 -12h76v-68h-308v68h84l15 12v108h-314v64l320 420h115zM1036 -10q-99 0 -176 43v145h84v-69l19 -17q56 -14 114 -14q57 0 89 35t32 93q0 106 -156 103h-161v355h411v-179h-80v72l-16 14h-227v-174h92
q256 0 260 -198q0 -83 -59 -142q-31 -31 -79 -49t-147 -18zM207 0l930 1434h110l-930 -1434h-110z" />
    <glyph glyph-name="uni2159" unicode="&#x2159;" horiz-adv-x="1243" 
d="M922 326q-72 0 -136 -58q6 -199 134 -198q53 0 86 30t32 97q1 129 -116 129zM960 674q76 0 150 -27v-145h-72v67l-12 15q-30 12 -68 12q-79 0 -123 -72q-40 -60 -47 -172q64 51 154 51q150 0 197 -109q16 -38 16 -91q0 -102 -67 -157q-67 -56 -176 -56t-176 72t-66 231
q0 259 158 349q56 32 132 32zM215 1393q31 0 49 17t23 32h73v-592l15 -12h100v-68h-350v68h98l15 12v465l-15 14h-98v64h90zM78 0l930 1434h110l-930 -1434h-110z" />
    <glyph glyph-name="uni215A" unicode="&#x215a;" horiz-adv-x="1292" 
d="M971 326q-74 0 -135 -58q6 -199 133 -198q53 0 86 30t32 97q1 129 -116 129zM1010 674q76 0 149 -27v-145h-72v67l-12 15q-29 12 -67 12q-79 0 -124 -72q-42 -62 -46 -172q64 51 153 51q150 0 197 -109q16 -38 16 -91q0 -101 -66 -157t-176 -56t-177 72t-66 231
q1 259 159 349q56 32 132 32zM278 760q-99 0 -176 43v145h84v-69l19 -17q56 -14 114 -14t90 35q31 35 31 93q-1 106 -155 103h-162v355h412v-179h-80v72l-17 14h-227v-174h92q180 0 240 -105q20 -38 20 -84t-14 -83t-45 -68t-79 -49t-147 -18zM127 0l930 1434h110
l-929 -1434h-111z" />
    <glyph glyph-name="uni215B" unicode="&#x215b;" horiz-adv-x="1255" 
d="M78 0l930 1434h110l-930 -1434h-110zM215 1393q31 0 49 17t23 32h73v-592l15 -12h100v-68h-350v68h98l15 12v465l-15 14h-98v64h90zM929 596q-62 0 -95 -24t-33 -64t39 -64q39 -25 118 -51l25 -8q68 38 70 111q0 44 -31 72t-93 28zM776 166q0 -36 33 -67t105 -31
q144 1 143 96q0 49 -33 76t-106 49l-46 14q-10 -6 -26 -16q-70 -44 -70 -121zM941 -10q-261 0 -261 166q0 105 89 153q24 12 42 19q-113 55 -113 150q0 96 64 146t147 50q190 0 229 -106q11 -29 11 -56q0 -93 -107 -150q55 -25 92 -63q36 -39 35 -104q0 -98 -69 -152
q-70 -53 -159 -53z" />
    <glyph glyph-name="uni215C" unicode="&#x215c;" horiz-adv-x="1347" 
d="M170 0l930 1434h110l-929 -1434h-111zM1021 596q-62 0 -95 -24t-33 -64t39 -64q39 -25 119 -51l24 -8q68 38 70 111q0 44 -31 72t-93 28zM1149 166q0 47 -33 74t-106 49l-45 14q-42 -26 -69 -52q-26 -26 -27 -73t32 -79q33 -31 105 -31t107 26q36 26 36 72zM1033 -10
q-261 0 -261 166q0 105 89 153q24 12 42 19q-114 56 -113 150q1 96 64 146t147 50q190 0 229 -106q11 -29 11 -56q0 -92 -106 -150q55 -26 91 -64t36 -103q0 -97 -70 -151t-159 -54zM297 838q129 0 129 128q0 110 -123 107h-78v76h78q113 0 113 115q0 42 -29 72t-81 30
t-99 -16l-17 -15v-75h-84v143q92 41 178 41q200 0 242 -109q12 -31 13 -61q0 -127 -113 -164v-4q55 -10 90 -47t35 -89q0 -96 -59 -153t-181 -57q-123 0 -215 41v143h86v-74l15 -14q32 -18 100 -18z" />
    <glyph glyph-name="uni215D" unicode="&#x215d;" horiz-adv-x="1323" 
d="M274 760q-99 0 -176 43v145h84v-69l19 -17q56 -14 114 -14q57 0 89 35t32 93q0 106 -155 103h-162v355h411v-179h-79v72l-17 14h-227v-174h92q180 0 240 -105q20 -38 20 -84t-14 -83t-45 -68t-79 -49t-147 -18zM145 0l930 1434h111l-930 -1434h-111zM1120 496
q0 44 -30 72t-94 28q-62 0 -95 -24t-33 -64t39 -64q39 -25 119 -51l25 -8q69 38 69 111zM844 166q0 -36 33 -67t104 -31q145 1 143 96q0 49 -32 76q-33 27 -107 49l-45 14q-10 -6 -27 -16q-69 -44 -69 -121zM1008 -10q-260 0 -260 171q0 100 89 148q24 12 42 19
q-113 55 -113 150q0 96 63 146t147 50q190 0 229 -106q12 -29 12 -56q0 -93 -107 -150q55 -26 91 -64t36 -103q0 -97 -70 -151t-159 -54z" />
    <glyph glyph-name="uni215E" unicode="&#x215e;" horiz-adv-x="1251" 
d="M557 1434v-68l-242 -596h-129l267 569h-263l-16 -14v-70h-76v179h459zM74 0l930 1434h110l-930 -1434h-110zM925 596q-61 0 -95 -24t-34 -64t40 -64q39 -25 118 -51l25 -8q68 38 70 111q0 44 -31 72t-93 28zM772 166q0 -36 33 -67t105 -31q144 1 143 96q0 49 -33 76
t-107 49l-45 14q-10 -6 -26 -16q-70 -44 -70 -121zM936 -10q-260 0 -260 166q0 105 89 153q24 12 42 19q-113 55 -113 150q0 96 64 146t147 50q190 0 229 -106q11 -29 11 -56q0 -93 -107 -150q55 -26 91 -64t36 -103q0 -98 -69 -152q-70 -53 -160 -53z" />
    <glyph glyph-name="uni215F" unicode="&#x215f;" horiz-adv-x="718" 
d="M244 1384q31 0 49 18t22 32h74v-592l14 -13h101v-67h-350v67h98l14 13v465l-14 14h-98v63h90zM106 0l930 1434h111l-930 -1434h-111z" />
    <glyph glyph-name="partialdiff" unicode="&#x2202;" horiz-adv-x="1110" 
d="M825 538.5q0 223.5 -71.5 331t-200.5 107.5t-199.5 -107.5t-70.5 -331t70.5 -332t199.5 -108.5t200.5 108.5t71.5 332zM418 1518q285 -132 443.5 -395t158.5 -561t-134 -440t-333.5 -142t-332 143t-132.5 414t132.5 416t332.5 145q92 0 174 -41q-137 256 -369 391z" />
    <glyph glyph-name="Delta" unicode="&#x2206;" horiz-adv-x="1339" 
d="M188 113h885l-455 1159zM1290 0h-1239v96l524 1342h179l536 -1344v-94z" />
    <glyph glyph-name="product" unicode="&#x220f;" horiz-adv-x="1490" 
d="M86 1434h1319v-107h-137l-29 -29v-1163l29 -29h137v-106h-528v106h135l30 29v1163l-30 29h-533l-28 -29v-1163l28 -29h137v-106h-530v106h137l29 29v1163l-29 29h-137v107z" />
    <glyph glyph-name="summation" unicode="&#x2211;" horiz-adv-x="1216" 
d="M82 1434h958l66 -297l-96 -19l-58 180l-28 29h-611l389 -559l-448 -637h690l29 29l53 174l94 -21l-71 -313h-967v96l444 625l-444 620v93z" />
    <glyph glyph-name="minus" unicode="&#x2212;" horiz-adv-x="1095" 
d="M135 750h826v-121h-826v121z" />
    <glyph glyph-name="uni2215" unicode="&#x2215;" horiz-adv-x="1030" 
d="M-4 0l930 1434h110l-930 -1434h-110z" />
    <glyph glyph-name="uni2219" unicode="&#x2219;" horiz-adv-x="495" 
d="M129 762q0 45 36 80t84 35t84 -35t36 -80t-36 -79t-84 -34t-84 34t-36 79z" />
    <glyph glyph-name="radical" unicode="&#x221a;" horiz-adv-x="1136" 
d="M207 920l-166 -78l-33 78l309 153l392 -809l323 1663l82 -10l-391 -2013z" />
    <glyph glyph-name="infinity" unicode="&#x221e;" horiz-adv-x="1726" 
d="M1493 684q0 96 -60.5 156.5t-176.5 60.5t-199.5 -90t-116.5 -131q173 -215 328 -215q111 0 168 61.5t57 157.5zM233 684q0 -96 59.5 -157.5t181.5 -61.5t204 87t117 128q-93 109 -166.5 165t-174.5 56q-100 0 -160.5 -60.5t-60.5 -156.5zM197 923q99 97 266 97
t265.5 -98.5t137.5 -143.5q99 115 191 178.5t194 63.5q183 0 280 -98t97 -240t-92.5 -240t-265.5 -98q-197 0 -402 238q-103 -114 -192.5 -176t-197.5 -62q-107 0 -176 26.5t-136.5 95.5t-67.5 214.5t99 242.5z" />
    <glyph glyph-name="integral" unicode="&#x222b;" horiz-adv-x="1144" 
d="M976 1587q-113 0 -168.5 -57.5t-70.5 -204.5l-141 -1237q-24 -200 -117.5 -282t-288.5 -82q-92 0 -200 24l24 88q102 -20 158 -20q114 0 168.5 56.5t71.5 205.5l139 1239q23 199 120 280.5t285 81.5q101 0 199 -24l-25 -88q-98 20 -154 20z" />
    <glyph glyph-name="approxequal" unicode="&#x2248;" horiz-adv-x="1142" 
d="M766 825q35 0 76 35l108 103l68 -56q-115 -200 -256 -200q-88 0 -174 52t-130 75.5t-81 23.5t-76 -37l-102 -102l-66 55q111 201 254 201q89 0 173.5 -51.5t127.5 -75t78 -23.5zM387 645q90 0 212 -75.5t164 -75.5t66 24l121 115l68 -58q-114 -198 -256 -198
q-84 0 -173 51t-133 74.5t-79 23.5t-62 -22l-116 -117l-66 55q113 203 254 203z" />
    <glyph glyph-name="notequal" unicode="&#x2260;" horiz-adv-x="1077" 
d="M123 887h479l92 182h80l-90 -182h264v-121h-323l-101 -203h424v-121h-485l-88 -178h-80l88 178h-260v121h319l103 203h-422v121z" />
    <glyph glyph-name="lessequal" unicode="&#x2264;" horiz-adv-x="1126" 
d="M137 735v92l848 312v-125l-659 -230l659 -237v-125zM137 293h848v-121h-848v121z" />
    <glyph glyph-name="greaterequal" unicode="&#x2265;" horiz-adv-x="1126" 
d="M141 547l660 237l-660 230v125l848 -312v-92l-848 -313v125zM141 172v121h848v-121h-848z" />
    <glyph glyph-name="lozenge" unicode="&#x25ca;" horiz-adv-x="1097" 
d="M209 725l340 -745l340 737l-342 739zM463 -164l-406 871l404 895h176l403 -869l-403 -897h-174z" />
    <glyph glyph-name="sidebaring" unicode="&#xe000;" horiz-adv-x="6" 
d="M-51 1497h102v-4h-45v-57h45v-4h-45v-353h45v-4h-45v-1073h45v-4h-45v-344h45v-4h-102v4h51v344h-51v4h51v1073h-51v4h51v353h-51v4h51v57h-51v4z" />
    <glyph glyph-name="cent.denominator" unicode="&#xf629;" horiz-adv-x="507" 
d="M164 335q0 -147 98 -181v358q-98 -30 -98 -177zM328 145q66 0 112 23v-59q-47 -35 -129 -35v-86h-49v88q-88 10 -147.5 69.5t-59.5 179.5t57.5 184t149.5 81v86h49v-82h4q64 0 127 -25v-137h-63v70l-10 10q-20 8 -54 8h-4v-375h17z" />
    <glyph glyph-name="dollar.denominator" unicode="&#xf62a;" horiz-adv-x="579" 
d="M166 508q0 -37 19.5 -59.5t82.5 -45.5v195q-102 -12 -102 -90zM418 170q0 41 -23.5 62.5t-77.5 39.5v-204q101 14 101 102zM268 -10q-124 0 -205 26v160h72v-86l17 -14q45 -10 116 -10v219q-104 29 -153 72.5t-49 127.5t55 131.5t147 57.5v71h49v-69q104 0 183 -25v-153
h-72v80l-14 12q-33 8 -97 12v-213q98 -29 153.5 -69.5t55.5 -127.5t-57 -138.5t-152 -61.5v-88h-49v86z" />
    <glyph glyph-name="hyphen.denominator" unicode="&#xf62b;" horiz-adv-x="397" 
d="M80 360h235v-84h-235v84z" />
    <glyph glyph-name="parenleft.denominator" unicode="&#xf62c;" horiz-adv-x="370" 
d="M61 242v159q0 203 246 353l29 -35q-164 -139 -164 -318v-159q0 -181 164 -316l-29 -35q-246 150 -246 351z" />
    <glyph glyph-name="parenright.denominator" unicode="&#xf62d;" horiz-adv-x="368" 
d="M199 244v159q0 180 -164 318l26 35q246 -150 246 -353v-159q0 -119 -71.5 -204t-174.5 -149l-26 35q164 142 164 318z" />
    <glyph glyph-name="cent.numerator" unicode="&#xf62e;" horiz-adv-x="507" 
d="M164 1105q0 -147 98 -181v358q-98 -30 -98 -177zM328 915q66 0 112 23v-59q-47 -35 -129 -35v-86h-49v88q-88 10 -147 69t-59 179t56 186q58 64 150 80v86h49v-82h4q77 0 127 -25v-137h-63v70l-10 10q-20 8 -54 8h-4v-375h17z" />
    <glyph glyph-name="dollar.numerator" unicode="&#xf62f;" horiz-adv-x="579" 
d="M166 1278q0 -38 19 -60t83 -44v194q-102 -12 -102 -90zM418 940q0 40 -24 62t-77 40v-204q101 14 101 102zM268 760q-124 0 -205 26v160h72v-86l17 -14q45 -10 116 -10v219q-104 29 -153 73t-49 127q0 84 55 131t147 58v72h49v-70q104 0 183 -25v-153h-72v80l-14 12
q-33 8 -97 12v-213q98 -29 154 -69q55 -41 55 -128q0 -86 -57 -138t-152 -62v-88h-49v86z" />
    <glyph glyph-name="hyphen.numerator" unicode="&#xf630;" horiz-adv-x="397" 
d="M80 1130h235v-83h-235v83z" />
    <glyph glyph-name="parenleft.numerator" unicode="&#xf631;" horiz-adv-x="370" 
d="M61 1171q0 203 246 353l29 -35q-164 -139 -164 -318v-159q0 -181 164 -316l-29 -34q-243 147 -246 350v159z" />
    <glyph glyph-name="parenright.numerator" unicode="&#xf632;" horiz-adv-x="368" 
d="M199 1014v160q0 181 -164 317l26 35q246 -150 246 -352v-160q1 -119 -71 -204t-175 -148l-26 34q164 142 164 318z" />
    <glyph glyph-name="zero.denominator" unicode="&#xf655;" horiz-adv-x="651" 
d="M465 333q0 130 -32.5 191.5t-106.5 61.5t-108 -61.5t-34 -190.5q0 -256 140 -256q78 0 109.5 62.5t31.5 192.5zM588 333q0 -179 -69.5 -261t-192.5 -82t-194 82t-71 261t71 260t194 81t192.5 -81t69.5 -260z" />
    <glyph glyph-name="one.denominator" unicode="&#xf656;" horiz-adv-x="444" 
d="M154 623q31 0 49 17t22 32h74v-592l14 -12h101v-68h-351v68h99l14 12v465l-14 14h-99v64h91z" />
    <glyph glyph-name="two.denominator" unicode="&#xf657;" horiz-adv-x="593" 
d="M271 674q247 0 247 -170q0 -74 -45 -124t-137 -104t-121 -79t-29 -58v-51h252l15 14v80h79v-182h-464v125q0 67 35.5 104t150.5 109q82 47 112.5 81t30.5 79q0 94 -116 94q-50 0 -107 -21l-16 -16v-76h-82v142q110 53 195 53z" />
    <glyph glyph-name="three.denominator" unicode="&#xf658;" horiz-adv-x="581" 
d="M266 68q129 0 129 128q0 108 -123 107h-77v76h77q113 0 113 115q0 41 -28.5 71.5t-80.5 30.5t-100 -16l-16 -15v-76h-84v144q92 41 178 41q145 0 199.5 -50.5t54.5 -119.5q0 -127 -113 -164v-4q55 -10 90 -47t35 -89q0 -97 -59.5 -153.5t-182.5 -56.5t-212 41v143h86v-74
l14 -14q32 -18 100 -18z" />
    <glyph glyph-name="four.denominator" unicode="&#xf659;" horiz-adv-x="614" 
d="M350 258v279l-219 -279h219zM471 672v-414h88v-70h-88v-108l12 -12h76v-68h-307v68h84l14 12v108h-313v64l319 420h115z" />
    <glyph glyph-name="five.denominator" unicode="&#xf65a;" horiz-adv-x="581" 
d="M240 -10q-100 0 -174 43v145h84v-69l18 -17q56 -14 114 -14t89.5 34.5t31.5 92.5q0 104 -155 104h-162v355h412v-179h-80v72l-17 14h-227v-174h92q183 0 221.5 -71.5t38.5 -117.5t-14 -83t-45 -67.5t-79 -49t-148 -18.5z" />
    <glyph glyph-name="six.denominator" unicode="&#xf65b;" horiz-adv-x="595" 
d="M311 326q-71 0 -135 -58q6 -199 133 -198q53 0 86 30.5t33 96.5q0 129 -117 129zM345 674q71 0 155 -27v-145h-72v67l-12 15q-29 12 -68 12q-76 0 -121 -67.5t-49 -176.5q64 51 154 51q149 0 181 -73.5t32 -126.5q0 -100 -67 -156.5t-176 -56.5q-110 0 -176.5 72.5
t-66.5 230.5q0 258 107.5 319.5t178.5 61.5z" />
    <glyph glyph-name="seven.denominator" unicode="&#xf65c;" horiz-adv-x="532" 
d="M504 664v-68l-242 -596h-129l266 569h-262l-16 -14v-70h-76v179h459z" />
    <glyph glyph-name="eight.denominator" unicode="&#xf65d;" horiz-adv-x="608" 
d="M432 496q0 43 -31 71.5t-93 28.5t-95 -23.5t-33 -63.5t39 -64.5t119 -51.5l24 -8q70 39 70 111zM292 68q144 0 144 98q0 47 -32.5 73.5t-106.5 49.5l-45 14q-65 -39 -80.5 -69.5t-15.5 -66.5t32 -67.5t104 -31.5zM59 142q0 142 131 186q-112 55 -112 150t63 145.5
t147 50.5q135 0 187.5 -48t52.5 -114q0 -93 -106 -150q55 -25 91 -63.5t36 -103.5q0 -98 -69.5 -151.5t-159.5 -53.5q-149 0 -205 48.5t-56 103.5z" />
    <glyph glyph-name="nine.denominator" unicode="&#xf65e;" horiz-adv-x="595" 
d="M166 467q0 -129 121 -129q73 0 131 55q-8 201 -129 201q-55 0 -89 -31t-34 -96zM245 -10q-79 0 -147 28v146h70v-70q28 -24 72 -24q87 0 127 64t49 175q-66 -49 -154 -49t-148.5 47t-60.5 152q0 155 93.5 185t142.5 30q117 0 182.5 -73t65.5 -230q0 -261 -106.5 -321
t-185.5 -60z" />
    <glyph glyph-name="comma.denominator" unicode="&#xf65f;" horiz-adv-x="290" 
d="M80 59q0 66 65.5 66t65.5 -66q0 -12 -5 -24t-9 -23l-70 -133l-47 29l39 69l-6 19q-33 15 -33 63z" />
    <glyph glyph-name="period.denominator" unicode="&#xf660;" horiz-adv-x="290" 
d="M80 59.5q0 28.5 18 48t46 19.5t47.5 -19.5t19.5 -48t-19.5 -49t-47.5 -20.5t-46 20.5t-18 49z" />
    <glyph glyph-name="zero.numerator" unicode="&#xf661;" horiz-adv-x="651" 
d="M184 1102q0 -254 140 -254q78 0 110 62t31 193q0 130 -32 191t-109 62q-140 0 -140 -254zM326 1444q122 0 192 -81t70 -260t-70 -261t-192 -82t-194 82q-71 82 -71 261t71 260t194 81z" />
    <glyph glyph-name="one.numerator" unicode="&#xf662;" horiz-adv-x="444" 
d="M154 1393q31 0 49 17t22 32h74v-592l14 -12h101v-68h-351v68h99l14 12v465l-14 14h-99v64h91z" />
    <glyph glyph-name="two.numerator" unicode="&#xf663;" horiz-adv-x="593" 
d="M271 1444q247 0 247 -170q0 -74 -45 -124t-137 -104t-121 -78q-29 -26 -29 -59v-51h252l15 14v80h79v-182h-464v125q0 67 38 107t134 96q96 57 127 91t30 79q0 94 -116 94q-53 0 -107 -21l-16 -16v-76h-82v142q110 53 195 53z" />
    <glyph glyph-name="three.numerator" unicode="&#xf664;" horiz-adv-x="581" 
d="M254 1444q146 0 200 -50t54 -120q0 -127 -113 -164v-4q55 -10 90 -47t35 -89q0 -96 -59 -153t-182 -57q-124 0 -213 41v143h86v-74l14 -14q32 -18 100 -18t99 34t31 94q-1 110 -124 107h-77v76h77q113 0 113 115q0 42 -29 72t-80 30t-100 -16l-16 -15v-75h-84v143
q93 41 178 41z" />
    <glyph glyph-name="four.numerator" unicode="&#xf665;" horiz-adv-x="614" 
d="M350 1028v279l-219 -279h219zM471 1442v-414h88v-70h-88v-108l12 -12h76v-68h-307v68h84l14 12v108h-313v64l319 420h115z" />
    <glyph glyph-name="five.numerator" unicode="&#xf666;" horiz-adv-x="581" 
d="M240 760q-100 0 -174 43v145h84v-69l18 -17q56 -14 114 -14t90 35t32 93q-1 106 -156 103h-162v355h412v-179h-80v72l-17 14h-227v-174h92q183 0 240 -105q20 -38 20 -84t-14 -83t-45 -68t-79 -49t-148 -18z" />
    <glyph glyph-name="six.numerator" unicode="&#xf667;" horiz-adv-x="595" 
d="M311 1096q-74 0 -135 -58q6 -199 133 -198q53 0 86 30t33 97q0 129 -117 129zM349 1444q75 0 151 -27v-145h-72v67l-12 15q-29 12 -68 12q-77 0 -122 -67q-44 -67 -48 -177q63 50 154 52q148 0 196 -110q16 -38 16 -91q1 -100 -66 -156q-67 -57 -176 -57q-110 0 -176 73
t-67 230q0 258 159 349q56 32 131 32z" />
    <glyph glyph-name="seven.numerator" unicode="&#xf668;" horiz-adv-x="532" 
d="M504 1434v-68l-242 -596h-129l266 569h-262l-16 -14v-70h-76v179h459z" />
    <glyph glyph-name="eight.numerator" unicode="&#xf669;" horiz-adv-x="608" 
d="M432 1266q0 44 -31 72t-93 28t-95 -24t-33 -64t39 -64q39 -25 119 -51l24 -8q70 39 70 111zM156 936q0 -36 32 -67t104 -31q144 1 144 96q0 49 -33 76t-106 49l-45 14q-10 -6 -27 -16q-69 -44 -69 -121zM78 1248q0 96 63 146t147 50q190 0 229 -106q11 -29 11 -56
q0 -95 -106 -149q127 -58 127 -162q0 -103 -70 -157t-159 -54q-256 0 -261 166q0 121 131 172q-112 55 -112 150z" />
    <glyph glyph-name="nine.numerator" unicode="&#xf66a;" horiz-adv-x="595" 
d="M289 1364q-55 0 -89 -31t-34 -96q0 -129 121 -129q79 0 131 55q-8 201 -129 201zM245 760q-79 0 -147 28v146h70v-70q28 -24 72 -24q127 0 161 146q10 44 15 93q-66 -49 -154 -49t-148 47t-60 152t66 160q67 55 177 55q109 0 175 -73t65 -236q0 -163 -66 -259
q-78 -116 -226 -116z" />
    <glyph glyph-name="comma.numerator" unicode="&#xf66b;" horiz-adv-x="290" 
d="M80 829q0 66 66 66t65 -66q0 -12 -5 -24t-9 -23l-70 -133l-47 29l39 70l-6 18q-33 15 -33 63z" />
    <glyph glyph-name="period.numerator" unicode="&#xf66c;" horiz-adv-x="290" 
d="M80 829q0 29 18 49t46 19q28 0 47 -19q19 -18 19 -48t-18 -50q-20 -20 -48 -20t-46 20t-18 49z" />
    <glyph glyph-name="commaaccent" unicode="&#xf6c3;" horiz-adv-x="483" 
d="M150 -283q0 105 104 105q51 0 78.5 -26.5t27.5 -65.5t-26 -86l-113 -209q-5 0 -39 18l-37 21l70 125l-14 32q-51 27 -51 86z" />
    <glyph glyph-name="uniF8FF" unicode="&#xf8ff;" horiz-adv-x="2908" 
d="M143 10q0 -10 -10 -10h-22q-8 0 -9 10v62q0 10 9 10h22q10 0 10 -10v-62zM2591 854h96v23q0 37 -48 37t-48 -37v-23zM391 854h98v23q0 37 -49 37t-49 -37v-23zM2242 705q26 0 30.5 12t4.5 22v127q0 31 -32 31t-78 -31v-129q49 -32 75 -32zM926 299q0 66 -100 66t-101 -66
v-74h201v74zM1139 102q0 -67 102 -67h12q10 0 11 -10v-15q0 -10 -11 -10h-18q-80 0 -107.5 25.5t-27.5 72.5v258h-51q-8 0 -9 11v14q0 8 9 10h51v84q0 10 8 10h22q8 0 9 -10v-84h96q8 0 8 -8v-16q0 -10 -8 -11h-96v-254zM445 399q118 0 118 -94v-295q0 -10 -8 -10h-23
q-8 0 -8 10v287q0 63 -80 63q-47 0 -80.5 -17t-46.5 -30v-303q0 -10 -8 -10h-22q-10 0 -11 10v375q0 8 11 8h18q10 0 10 -8v-35q65 49 130 49zM684 301q0 98 142 98t141 -98v-100q0 -8 -9 -8h-233v-99q0 -67 100.5 -67t100.5 67v17q0 8 12 8h18q10 0 11 -8v-19
q1 -98 -141 -98t-142 98v209zM1561 997q23 0 22 -20v-55q0 -23 -22 -23h-64v-158q0 -37 49 -36h21q25 0 24 -23v-55q0 -23 -24 -23h-39q-92 0 -126 30t-34 93v172h-35q-23 0 -22 23v51q0 16 22 22l33 2h2v74q0 25 25 25h80q25 0 24 -25v-74h64zM1894 999h76q29 0 23 -22
l-172 -510q-8 -23 -29 -23h-57q-29 0 -23 23l33 121l-133 389q-8 23 22 22h82q16 0 25 -22l45 -143q14 -51 14 -76q7 7 21 71l49 148q4 10 8 16t16 6zM2466 883q0 125 170 125t170 -125v-88q0 -23 -23 -23h-192v-47q0 -37 48 -37t48 37v2q0 23 25 23h65q23 0 23 -23v-6
q0 -127 -127 -127t-167 35t-40 92v162zM264 883q0 125 171 125t171 -125v-88q0 -23 -24 -23h-191v-47q0 -37 49 -37t49 37v2q0 23 23 23h66q25 0 24 -23v-6q0 -127 -128 -127t-169 35t-41 92v162zM2286 594q-62 0 -119 43v-170q0 -23 -23 -23h-82q-23 0 -22 23v510
q0 23 22 22h74q25 0 25 -22l2 -14q51 45 123 45q116 0 116 -123v-164q0 -127 -116 -127zM863 897q-34 0 -62 -31v-239q0 -23 -21 -23h-84q-23 0 -22 23v350q0 23 22 22h78q23 0 23 -22v-12q55 43 120 43t103 -54q16 14 47 34t84 20t85 -32t32 -79v-270q0 -23 -25 -23h-78
q-27 0 -26 23v237q0 18 -5.5 25.5t-36.5 7.5t-65 -31v-239q0 -23 -22 -23h-78q-25 0 -25 23v237q0 18 -5 25.5t-39 7.5z" />
    <glyph glyph-name="f_f" unicode="&#xfb00;" horiz-adv-x="1458" 
d="M766 1284h-117v105l-26 26q-29 6 -54 6q-87 -1 -121 -65t-34 -195v-88h270v-102h-270v-840l28 -31h164v-100h-543v100h136l28 31v840h-164v102h136l28 29v49q0 172 77 268t263 97q110 0 199 -21v-211zM1495 1284h-117v105l-26 26q-29 6 -54 6q-86 -1 -120 -65t-35 -195
v-88h270v-102h-270v-840l28 -31h164v-100h-542v100h135l28 31v840h-163v102h135l28 29v49q0 172 77 268t263 97q110 0 199 -21v-211z" />
    <glyph glyph-name="f_f_i" unicode="&#xfb03;" horiz-adv-x="2115" 
d="M1683 1386q0 49 29 79t85 30t86 -30t30 -79q0 -50 -30 -80t-86 -30t-85 30t-29 80zM1827 1077q82 0 84 -82v-864l28 -31h138v-100h-518v100h137l28 31v809l-28 31h-137v106h268zM766 1284h-117v105l-26 26q-29 6 -54 6q-87 -1 -121 -65t-34 -195v-88h270v-102h-270v-840
l28 -31h164v-100h-543v100h136l28 31v840h-164v102h136l28 29v49q0 172 77 268t263 97q110 0 199 -21v-211zM1513 1284h-116v105l-27 26q-29 6 -53 6q-86 -1 -121 -65t-35 -195v-88h271v-102h-271v-840l29 -31h164v-100h-543v100h135l29 31v840h-164v102h135l29 29v49
q0 172 77 268t263 97q114 0 198 -21v-211z" />
    <glyph glyph-name="f_f_l" unicode="&#xfb04;" horiz-adv-x="2105" 
d="M1810 1495q51 0 69 -22q17 -23 17 -58v-1284l29 -31h137v-100h-516v100h135l31 31v1229l-31 29h-135v106h264zM766 1284h-117v105l-26 26q-29 6 -54 6q-87 -1 -121 -65t-34 -195v-88h270v-102h-270v-840l28 -31h164v-100h-543v100h136l28 31v840h-164v102h136l28 29v49
q0 172 77 268t263 97q110 0 199 -21v-211zM1495 1284h-117v105l-26 26q-29 6 -54 6q-86 -1 -120 -65t-35 -195v-88h270v-102h-270v-840l28 -31h164v-100h-542v100h135l28 31v840h-163v102h135l28 29v49q0 172 77 268t263 97q110 0 199 -21v-211z" />
    <glyph glyph-name="longs_t" unicode="&#xfb05;" horiz-adv-x="1335" 
d="M766 1284h-117v105l-26 26q-29 6 -54 6q-87 -1 -121 -65t-34 -193v-1032l28 -31h164v-100h-543v100h136l28 31v840h-164v102h136l28 29v49q0 172 77 268t263 97q110 0 199 -21v-211zM848 160v811h-150v102h121l29 29l70 270h116v-299h240v-102h-240v-840l29 -31h254v-100
q-197 -20 -287 -20t-136 40t-46 140z" />
    <glyph glyph-name="zero.tab" unicode="&#xff10;" 
d="M944 718q0 312 -80 460t-251 147q-171 0 -249 -147q-78 -148 -79 -460q0 -312 79 -460q80 -148 250 -149q170 1 250 149t80 460zM614 1454q388 0 498 -408q38 -138 37 -328q0 -366 -140 -552t-395 -186q-389 0 -498 409q-38 139 -38 329q0 368 143 552t393 184z" />
    <glyph glyph-name="one.tab" unicode="&#xff11;" 
d="M455 1356q74 0 126.5 33t61.5 65h102v-1319l29 -29h260v-106h-776v106h260l29 29v1084l-29 28h-260v109h197z" />
    <glyph glyph-name="two.tab" unicode="&#xff12;" 
d="M154 1339q206 115 447 115t353 -104q111 -104 111 -254q0 -149 -96 -256t-297 -234t-251 -180q-49 -53 -65 -89t-16 -79v-100h608l29 28v174h123v-360h-959v250q0 116 85 213t290 224q204 127 274 208t70 188q0 169 -152 222q-54 18 -161 18t-232 -53l-34 -35v-180h-127
v284z" />
    <glyph glyph-name="three.tab" unicode="&#xff13;" 
d="M172 1362q194 92 430 92q108 0 200 -31q255 -87 255 -333q0 -289 -260 -353v-6q129 -29 207 -109t77 -241q0 -272 -270 -369q-96 -35 -210 -35q-245 0 -449 91v288h127v-180l28 -29q111 -41 222 -42q186 -1 273 83q73 75 75 199q0 291 -299 291h-148v119h145
q197 0 259 140q22 51 22 117t-15 114q-30 97 -143 140q-57 22 -154 21t-214 -43l-31 -29v-182h-127v287z" />
    <glyph glyph-name="four.tab" unicode="&#xff14;" 
d="M737 532v709l-538 -709h538zM936 1454v-922h197v-120h-197v-277l29 -29h168v-106h-605v106h181l28 29v277h-676v120l697 922h178z" />
    <glyph glyph-name="five.tab" unicode="&#xff15;" 
d="M154 356h125v-170l32 -30q115 -45 232 -45q117 1 179 27q178 75 177 274q0 157 -93 223q-93 67 -261 67h-348v732h829v-338h-123v151l-29 29h-532v-430h229q529 0 529 -424q0 -180 -138 -313q-138 -132 -369 -132t-439 91v288z" />
    <glyph glyph-name="six.tab" unicode="&#xff16;" 
d="M634 102q300 0 300 336q0 152 -76 226t-208 75q-132 0 -267 -108q-35 -29 -59 -56q8 -245 85 -359t225 -114zM692 864q293 0 398 -233q34 -80 34 -194q-1 -219 -140 -345q-130 -114 -339 -112q-244 0 -380 156t-136 491q0 596 317 766q115 61 283 61q183 0 301 -59v-293
h-123v174l-30 31q-59 27 -159 27q-380 -2 -394 -632q162 162 368 162z" />
    <glyph glyph-name="seven.tab" unicode="&#xff17;" 
d="M1096 1434v-105l-516 -1329h-207l569 1282h-631l-28 -29v-159h-121v340h934z" />
    <glyph glyph-name="eight.tab" unicode="&#xff18;" 
d="M328 1110q0 -100 76 -161q77 -60 229 -107l57 -19q147 65 199 183q18 41 18 88q0 103 -72 171t-212 68q-139 1 -217 -61t-78 -162zM610 102q150 0 234 73t84 192q0 170 -186 243q-60 25 -138 49l-74 23q-151 -65 -219 -189q-31 -56 -31 -119q2 -193 175 -250
q63 -22 155 -22zM991 910q-57 -69 -182 -130q153 -61 232 -145q79 -85 77 -238q0 -199 -140 -309t-384 -109t-374 113q-111 98 -110 256q1 159 111 262q72 69 201 115q-264 130 -264 327t126 299q126 103 350 103q223 0 339 -111q96 -92 96 -215q0 -122 -78 -218z" />
    <glyph glyph-name="nine.tab" unicode="&#xff19;" 
d="M575 696q180 0 330 162q-8 244 -84 359t-224 115q-300 -1 -300 -335q-1 -153 75 -227t203 -74zM539 569q-293 0 -398 234q-35 79 -35 193t39 201q76 170 257 229q87 28 184 28q242 0 379 -156t137 -491q0 -597 -318 -766q-115 -61 -288 -61t-295 61v291h123v-174l30 -31
q66 -27 162 -27t170 47q209 130 219 582q-150 -160 -366 -160z" />
    <glyph glyph-name="grave.case" horiz-adv-x="735" 
d="M496 1548h-29l-279 236l86 104h39l234 -284z" />
    <glyph glyph-name="dieresis.case" horiz-adv-x="679" 
d="M387 1705q0 38 25.5 65.5t66.5 27.5t66.5 -27.5t25.5 -65.5t-25.5 -63.5t-66.5 -25.5t-66.5 25.5t-25.5 63.5zM109 1705q0 38 25.5 65.5t66.5 27.5t65.5 -27.5t24.5 -65.5t-24.5 -63.5t-65.5 -25.5t-66.5 25.5t-25.5 63.5z" />
    <glyph glyph-name="macron.case" horiz-adv-x="802" 
d="M139 1751h525v-111h-525v111z" />
    <glyph glyph-name="acute.case" horiz-adv-x="735" 
d="M240 1548l-52 56l234 284h37l86 -104l-277 -236h-28z" />
    <glyph glyph-name="circumflex.case" horiz-adv-x="831" 
d="M168 1548l-39 45l248 299h67l246 -299l-37 -45h-32l-209 203l-213 -203h-31z" />
    <glyph glyph-name="caron.case" horiz-adv-x="823" 
d="M649 1892l35 -45l-244 -299h-69l-246 299l37 45h33l211 -202l210 202h33z" />
    <glyph glyph-name="breve.case" horiz-adv-x="819" 
d="M384.5 1575q-80.5 0 -145 66.5t-81.5 162.5l92 23q14 -57 52 -101.5t109 -44.5t112.5 43t54.5 99l84 -19q-27 -154 -112 -191.5t-165.5 -37.5z" />
    <glyph glyph-name="dotaccent.case" horiz-adv-x="600" 
d="M178 1713q0 46 36 79t84 33t84 -33t36 -79t-36 -80t-84 -34t-84 34t-36 80z" />
    <glyph glyph-name="ring.case" horiz-adv-x="819" 
d="M408 1593q122 0 122 108.5t-122 108.5q-55 0 -89 -26.5t-34 -81.5t33.5 -82t89.5 -27zM639 1702q0 -88 -66.5 -130t-163.5 -42t-163 42t-66 130t65 129t163 41t164.5 -41t66.5 -129z" />
    <glyph glyph-name="tilde.case" horiz-adv-x="819" 
d="M735 1831v-80q0 -82 -41 -125t-102 -43t-104.5 16.5t-115 53.5t-118.5 37t-65.5 -18.5t-18.5 -37.5v-69h-88v73q0 92 44 135.5t104 43.5t102.5 -17.5t115 -56.5t122.5 -39t66.5 20.5t16.5 38.5v68h82z" />
    <glyph glyph-name="hungarumlaut.case" horiz-adv-x="821" 
d="M391 1548l-33 47l248 265h37l76 -82l-297 -230h-31zM156 1548l-45 49l221 291h37l67 -71l-252 -269h-28z" />
    <glyph glyph-name="caron.salt" horiz-adv-x="489" 
d="M193 1192v405h124v-165l-22 -240h-102z" />
    <glyph glyph-name="commaaccent.salt" horiz-adv-x="507" 
d="M352 1348q0 -105 -102 -105q-51 0 -79 26.5t-28 64.5t27 87l113 209l75 -39l-69 -125l12 -32q51 -27 51 -86z" />
    </font>
</defs>
</svg>
