<?xml version="1.0" standalone="no"?>
<!DOCTYPE svg PUBLIC "-//W3C//DTD SVG 1.1//EN" "http://www.w3.org/Graphics/SVG/1.1/DTD/svg11.dtd" >
<svg xmlns="http://www.w3.org/2000/svg">
<metadata>
Created by FontPrep 20130207 at Thu Nov 20 13:02:40 2014
 By usuario
Copyright (c) 2014 by Eduardo Manso. All rights reserved.
</metadata>
<defs>
<font id="a03bba80d2f34cad08d607e54ec05248" horiz-adv-x='1024' >
  <font-face 
    font-family="Catalana-Italic"
    font-weight="400"
    font-style="italic"
    font-stretch="normal"
    units-per-em="2048"
    panose-1="1 0 0 0 0 0 0 0 0 0"
    ascent="1536"
    descent="-512"
    x-height="1077"
    cap-height="1434"
    bbox="-465 -565 2888 1927"
    underline-thickness="102"
    underline-position="-102"
    unicode-range="U+000D-FF19"
  />
<missing-glyph horiz-adv-x="1808" 
d="M883 236q-35 0 -56.5 22t-21.5 54t21.5 53.5t56.5 21.5t57.5 -21.5t22.5 -53.5t-22.5 -54t-57.5 -22zM657 1042q128 84 264 84t201.5 -63t65.5 -145q0 -83 -35 -133t-107 -85t-92 -54t-20 -48v-27l-21 -88h-61l-25 88v27q0 59 32.5 93t98.5 68t85.5 70.5t19.5 83.5
t-36 89t-113 42t-160 -38l-19 -19v-108h-78v163zM262 715q0 -133 50 -249t136.5 -203t203 -137t249.5 -50t250 50t204 137t137 203t50 249t-50 250.5t-136 204.5t-203 137.5t-250 50.5t-249.5 -50.5t-204 -137.5t-137.5 -204.5t-50 -250.5zM162 714.5q0 153.5 58.5 289
t158.5 234.5t235.5 157.5t289 58.5t288.5 -58.5t234.5 -157.5t157.5 -234.5t58 -289t-58 -286.5t-159.5 -233.5t-235.5 -157.5t-287.5 -57t-289 57t-234.5 157.5t-157.5 233.5t-58.5 286.5z" />
    <glyph glyph-name="fi" unicode="fi" horiz-adv-x="1296" 
d="M1157 1495q109 -1 109 -99q0 -48 -34 -84t-92 -36q-108 0 -108 98q0 47 34 84t91 37zM1108 1077q55 0 67 -22q11 -23 3 -64l-185 -860l25 -31h133l-21 -100h-194q-72 0 -107 26t-16 111l168 803l-20 31h-138l25 106h260zM-104 -276q74 0 116 74t64 188l190 985h-164
l19 102h135l35 29l10 49q35 176 131 270t279 95q104 0 188 -21l-41 -207h-113l23 107l-23 24q-24 4 -51 4q-86 -1 -132 -65t-75 -197l-20 -88h266l-20 -102h-267l-186 -975q-70 -365 -381 -365q-106 0 -180 21l41 201h113l-21 -99l23 -26q20 -4 41 -4z" />
    <glyph glyph-name="fl" unicode="fl" horiz-adv-x="1349" 
d="M1253 1495q53 0 64 -22q10 -23 2 -58l-275 -1284l25 -31h133l-20 -100h-195q-67 0 -103 26t-20 109l262 1225l-20 29h-137l24 106h260zM-104 -276q74 0 116 74t64 188l190 985h-164l19 102h135l35 29l10 49q35 176 131 270t279 95q104 0 188 -21l-41 -207h-113l23 107
l-23 24q-24 4 -51 4q-86 -1 -132 -65t-75 -197l-20 -88h266l-20 -102h-267l-186 -975q-70 -365 -381 -365q-106 0 -180 21l41 201h113l-21 -99l23 -26q20 -4 41 -4z" />
    <glyph glyph-name=".notdef" horiz-adv-x="1808" 
d="M883 236q-35 0 -56.5 22t-21.5 54t21.5 53.5t56.5 21.5t57.5 -21.5t22.5 -53.5t-22.5 -54t-57.5 -22zM657 1042q128 84 264 84t201.5 -63t65.5 -145q0 -83 -35 -133t-107 -85t-92 -54t-20 -48v-27l-21 -88h-61l-25 88v27q0 59 32.5 93t98.5 68t85.5 70.5t19.5 83.5
t-36 89t-113 42t-160 -38l-19 -19v-108h-78v163zM262 715q0 -133 50 -249t136.5 -203t203 -137t249.5 -50t250 50t204 137t137 203t50 249t-50 250.5t-136 204.5t-203 137.5t-250 50.5t-249.5 -50.5t-204 -137.5t-137.5 -204.5t-50 -250.5zM162 714.5q0 153.5 58.5 289
t158.5 234.5t235.5 157.5t289 58.5t288.5 -58.5t234.5 -157.5t157.5 -234.5t58 -289t-58 -286.5t-159.5 -233.5t-235.5 -157.5t-287.5 -57t-289 57t-234.5 157.5t-157.5 233.5t-58.5 286.5z" />
    <glyph glyph-name=".null" horiz-adv-x="0" 
 />
    <glyph glyph-name="nonmarkingreturn" unicode="&#xd;" horiz-adv-x="0" 
 />
    <glyph glyph-name="NULL" horiz-adv-x="0" 
 />
    <glyph glyph-name="NULL" horiz-adv-x="0" 
 />
    <glyph glyph-name="space" unicode=" " horiz-adv-x="483" 
 />
    <glyph glyph-name="exclam" unicode="!" horiz-adv-x="493" 
d="M156 387l-23 74l90 549l90 424h215l-92 -424l-141 -549l-51 -74h-88zM14 86q0 47 42 88t94 41t81 -29.5t29 -75.5t-42 -88t-95 -42t-81 29.5t-28 76.5z" />
    <glyph glyph-name="quotedbl" unicode="&#x22;" horiz-adv-x="706" 
d="M510 944l39 313l39 177h164l-39 -177l-92 -313h-111zM219 944l41 313l39 177h162l-39 -177l-90 -313h-113z" />
    <glyph glyph-name="numbersign" unicode="#" horiz-adv-x="1099" 
d="M369 424h258l75 233h-256zM940 324h-227l-107 -324h-119l107 324h-258l-107 -324h-118l106 324h-170v100h203l76 233h-197v101h229l107 319h121l-107 -319h256l107 319h121l-107 -319h166v-101h-199l-78 -233h195v-100z" />
    <glyph glyph-name="dollar" unicode="$" horiz-adv-x="1132" 
d="M389 1079q0 -120 67.5 -162.5t123.5 -66.5l102 483q-293 -34 -293 -254zM809 401q0 84 -44 132.5t-149 89.5l-110 -523q147 18 225 99t78 202zM537 651q-330 117 -330 353q0 210 137 321t363 127l34 160h86l-34 -158q155 -4 228 -19q74 -15 120 -28l-66 -307h-114l38 186
l-24 31q-92 20 -207 20l-111 -518q178 -69 236.5 -123.5t82 -108t23.5 -145.5t-38.5 -177t-142 -174.5t-337.5 -106.5l-41 -193h-86l39 189q-241 0 -393 55l66 315h118l-43 -198l27 -31q93 -25 252 -25z" />
    <glyph glyph-name="percent" unicode="%" horiz-adv-x="1419" 
d="M504 1444q88 0 146 -57t59 -161q0 -204 -92 -335t-248 -131q-96 0 -154 57q-57 57 -57 159q0 205 90 337q91 131 256 131zM383 848q94 0 156 128q51 106 51 253q0 125 -105 125q-97 0 -154 -125q-52 -109 -52 -245t104 -136zM1303 456q0 -204 -92 -335t-248 -131
q-96 0 -154 57q-57 57 -57 159q0 205 90 337q90 131 256 131q88 0 146 -57t59 -161zM977 78q94 0 156 128q49 101 51 253q0 125 -105 125q-97 0 -154 -125q-53 -112 -53 -247q0 -134 105 -134zM1202 1434h109l-1051 -1434h-108z" />
    <glyph glyph-name="ampersand" unicode="&#x26;" horiz-adv-x="1452" 
d="M985 1202q1 156 -183 156q-98 0 -158 -74t-60 -185t69 -218l27 -43q131 64 218 147t87 217zM283 175.5q68 -69.5 215 -69.5t315 142l-276 444q-123 -42 -222.5 -122t-99.5 -203q0 -122 68 -191.5zM496 760q-86 124 -86 324q0 56 28.5 129t110 157t251.5 84t245 -69
t75 -165q0 -165 -109.5 -266t-291.5 -180l231 -377q86 104 174 275q30 67 60 98t88 31h145l-22 -105h-123l-33 -30q-107 -224 -225 -373l98 -158l35 -29h147l-22 -106h-215q-61 0 -91 27.5t-53 60.5l-41 66q-210 -174 -460 -174q-194 0 -291.5 95.5t-97.5 226.5
q0 222 147 318.5t326 139.5z" />
    <glyph glyph-name="quotesingle" unicode="'" horiz-adv-x="419" 
d="M219 944l41 313l39 177h166l-39 -177l-92 -313h-115z" />
    <glyph glyph-name="parenleft" unicode="(" horiz-adv-x="675" 
d="M72 350q0 58 14 137l78 420q69 357 295.5 506.5t341.5 216.5l33 -55q-206 -148 -331 -307t-161 -361l-82 -420q-18 -97 -18 -165q0 -271 227 -498l-53 -55q-344 256 -344 581z" />
    <glyph glyph-name="parenright" unicode=")" horiz-adv-x="673" 
d="M647 1049q0 -77 -14 -138l-90 -419q-74 -357 -297 -506.5t-340 -216.5l-33 55q188 133 318.5 290.5t177.5 377.5l88 419q18 88 18 168q0 269 -225 496l51 55q346 -257 346 -581z" />
    <glyph glyph-name="asterisk" unicode="*" horiz-adv-x="921" 
d="M489 1434h138v-117l-31 -197l164 119l106 53l62 -123l-105 -53l-211 -63l152 -146l72 -94l-111 -82l-72 94l-96 183l-98 -183l-72 -94l-106 82l69 94l152 146l-211 63l-105 53l62 123l106 -53l164 -119l-29 197v117z" />
    <glyph glyph-name="plus" unicode="+" horiz-adv-x="1011" 
d="M109 750h350v352h125v-352h350v-121h-350v-353h-125v353h-350v121z" />
    <glyph glyph-name="comma" unicode="," horiz-adv-x="466" 
d="M10 75q0 48 34 90t89 42t85 -27.5t30 -64.5t-15.5 -61.5t-31.5 -47.5l-187 -248l-73 43l112 154l-6 41q-37 31 -37 79z" />
    <glyph glyph-name="hyphen" unicode="-" horiz-adv-x="753" 
d="M147 678h484l-29 -131h-483z" />
    <glyph glyph-name="period" unicode="." horiz-adv-x="464" 
d="M8 80q0 45 37 86t92 41t82 -28.5t27 -74.5t-39 -85t-93 -39t-80 27.5t-26 72.5z" />
    <glyph glyph-name="slash" unicode="/" horiz-adv-x="892" 
d="M-127 -209l1051 1821h131l-1051 -1821h-131z" />
    <glyph glyph-name="zero" unicode="0" horiz-adv-x="1304" 
d="M1042 989q0 338 -264 338q-160 0 -266 -145.5t-157.5 -349.5t-51.5 -378t62.5 -261t212.5 -87t256 146.5t157 348.5t51 388zM565 -20q-226 0 -342.5 135.5t-116.5 363.5q0 355 135.5 602t279 311t261.5 64q224 0 341.5 -134t117.5 -368q0 -354 -137.5 -600.5t-279.5 -310
t-259 -63.5z" />
    <glyph glyph-name="one" unicode="1" horiz-adv-x="798" 
d="M424 1356q138 0 182 98h103l-281 -1319l21 -29h217l-23 -106h-680l21 106h215l37 29l229 1084l-25 28h-211l21 109h174z" />
    <glyph glyph-name="two" unicode="2" horiz-adv-x="1161" 
d="M1038 1366q97 -88 97 -213q0 -171 -111.5 -286t-362.5 -250t-310.5 -187.5t-82 -90.5t-35.5 -83l-24 -98h596l37 26l37 176h120l-73 -360h-940l55 260q28 132 125 225t339 217t333.5 211.5t91.5 219.5q0 86 -57.5 137t-176.5 51t-268 -51l-41 -35l-37 -180h-127l62 295
q2 0 38.5 16t150 52t290.5 36t274 -88z" />
    <glyph glyph-name="three" unicode="3" horiz-adv-x="1140" 
d="M766 731q223 -66 223 -268t-144 -344t-429 -142q-153 0 -301 43q-66 18 -117 43l63 293h119l-39 -180l21 -29q110 -43 224 -43q205 0 302.5 104t97.5 242t-65.5 183t-175.5 45h-148l27 119h143q237 0 288.5 115.5t51.5 179.5q0 119 -60 178t-178 59q-119 0 -245 -43
l-37 -29l-39 -182h-117l62 293q2 0 35.5 14.5t141 43t225.5 28.5q216 0 314.5 -90t98.5 -219q0 -182 -95 -281.5t-247 -126.5v-6z" />
    <glyph glyph-name="four" unicode="4" horiz-adv-x="1187" 
d="M702 532l152 709l-668 -709h516zM33 532l874 922h185l-197 -922h195l-23 -120h-197l-59 -277l25 -29h165l-24 -106h-594l25 106h176l34 29l60 277h-670z" />
    <glyph glyph-name="five" unicode="5" horiz-adv-x="1134" 
d="M563 846q311 0 378 -129t67 -223q0 -211 -153 -364t-441 -153q-148 0 -297 46q-66 20 -117 45l63 288h121l-37 -170l27 -30q104 -45 225 -45t195 31.5t122 82.5t70.5 117t22.5 162.5t-76.5 147t-218.5 50.5h-336l156 732h805l-70 -338h-119l31 151l-23 29h-512l-96 -430
h213z" />
    <glyph glyph-name="six" unicode="6" horiz-adv-x="1198" 
d="M895 516q0 106 -60.5 164.5t-170.5 58.5q-166 0 -257.5 -74.5t-117.5 -105.5q-4 -29 -4 -37v-82q0 -174 62.5 -256t203.5 -82t242.5 107t101.5 307zM707 864q259 0 317.5 -128t58.5 -236t-46 -210t-163.5 -206t-332.5 -104q-437 0 -437 491q0 371 153.5 614t320 306
t294.5 63t203.5 -20.5t98.5 -34.5l-64 -297h-121l39 176l-27 31q-53 24 -149 24t-191.5 -46t-204 -174t-151.5 -415q191 166 402 166z" />
    <glyph glyph-name="seven" unicode="7" horiz-adv-x="1024" 
d="M1153 1434l-25 -105l-768 -1329h-215l822 1282h-617l-33 -29l-34 -159h-119l72 340h917z" />
    <glyph glyph-name="eight" unicode="8" horiz-adv-x="1204" 
d="M420 1092q0 -100 73.5 -161t180.5 -102l33 -12q197 74 242.5 166.5t45.5 144.5q0 94 -63 149.5t-201 55.5q-137 0 -224 -70.5t-87 -170.5zM503 102q161 0 260 84t99 202q0 117 -69.5 175t-192.5 101l-51 18q-135 -52 -236.5 -131.5t-101.5 -229.5t105.5 -184.5
t186.5 -34.5zM821 770q236 -123 236 -330q0 -216 -158.5 -338t-402.5 -122t-348.5 90t-104.5 214t42 199.5t115 137.5t238 112q-196 107 -196 296t143.5 307t360.5 118t314 -84.5t97 -202.5q0 -264 -336 -397z" />
    <glyph glyph-name="nine" unicode="9" horiz-adv-x="1198" 
d="M346 920q0 -106 60.5 -165t167.5 -59t211.5 54t166.5 127q4 58 4 118q0 174 -63.5 256t-203.5 82t-241.5 -106.5t-101.5 -306.5zM369 100q225 0 372 171.5t195 465.5q-180 -168 -404 -168q-257 0 -315.5 128.5t-58.5 236.5t46 209.5t164.5 207t330.5 105.5
q438 0 438 -491q0 -363 -152 -609t-319.5 -311t-295.5 -65t-204 20t-98 35l61 297h121l-37 -176l27 -31q67 -25 129 -25z" />
    <glyph glyph-name="colon" unicode=":" horiz-adv-x="503" 
d="M314 872q-106 0 -105 100q0 46 38 86t93 40t82 -29t27 -75t-40.5 -84t-94.5 -38zM23 80q0 45 36.5 86t92.5 41t82 -28.5t26 -74.5t-39 -85t-93 -39t-79.5 27.5t-25.5 72.5z" />
    <glyph glyph-name="semicolon" unicode=";" horiz-adv-x="518" 
d="M326 872q-106 0 -105 100q0 46 38 86t92 40t81 -29t27 -75t-39.5 -84t-93.5 -38zM31 75q0 48 34.5 90t90.5 42t84 -27.5t28 -64.5t-14 -61.5t-31 -47.5l-186 -248l-74 43l113 154l-6 41q-39 31 -39 79z" />
    <glyph glyph-name="less" unicode="&#x3c;" horiz-adv-x="1105" 
d="M100 647v90l848 359v-131l-659 -273l659 -276v-131z" />
    <glyph glyph-name="equal" unicode="=" horiz-adv-x="1196" 
d="M190 580h826v-121h-826v121zM199 903h823v-121h-823v121z" />
    <glyph glyph-name="greater" unicode="&#x3e;" horiz-adv-x="1077" 
d="M160 416l659 276l-659 273v131l850 -359v-90l-850 -362v131z" />
    <glyph glyph-name="question" unicode="?" horiz-adv-x="999" 
d="M203 85q0 46 39 88t94 42t84 -28.5t29 -75.5t-40.5 -89t-94.5 -42t-82.5 29.5t-28.5 75.5zM632 1454q211 0 309.5 -82.5t98.5 -204.5q0 -156 -76.5 -250t-256.5 -174q-104 -47 -146.5 -82.5t-52.5 -85.5l-8 -45l-68 -143h-88l-12 143l10 56q21 127 115 177t151 79
q121 59 175.5 125.5t54.5 184.5t-91 146.5t-185 28.5t-193 -45l-47 -37l-37 -174h-119l57 272q57 31 172 71q116 40 237 40z" />
    <glyph glyph-name="at" unicode="@" horiz-adv-x="1734" 
d="M635 537q0 -211 168 -211q78 0 178 80q-2 10 -2 13v36q0 36 8 86l66 362q-52 60 -159 60q-48 0 -97 -36t-105.5 -129.5t-56.5 -260.5zM104 554q0 182 63.5 349.5t242.5 359t569 191.5q330 0 515 -197.5t185 -488.5t-135.5 -433t-318.5 -142t-232 141q-66 -85 -136.5 -107
t-104.5 -22q-123 0 -201 79.5t-78 237.5t38 259.5t97.5 169t130 100t136 32.5t120 -29.5t82.5 -66.5l23 55q10 16 19 21.5t32 5.5h92l-102 -551q-6 -35 -6 -69q0 -156 147 -156q111 0 197 124t86 364t-155 409.5t-431 169.5q-337 0 -547.5 -230.5t-210.5 -590.5
q0 -267 121.5 -408.5t268.5 -186t282 -44.5q221 0 414 69l20 -73q-201 -91 -449 -91q-249 0 -446.5 109t-262.5 283.5t-65 356.5z" />
    <glyph glyph-name="A" unicode="A" horiz-adv-x="1351" 
d="M416 539h448l-80 686zM879 418h-527l-153 -287l20 -25h131l-22 -106h-469l20 106h127l37 29l715 1303h182l170 -1307l25 -25h125l-23 -106h-498l21 106h127l26 25z" />
    <glyph glyph-name="B" unicode="B" horiz-adv-x="1341" 
d="M623 119q197 0 289 94t92 256q0 111 -67 161t-196 50h-278l-121 -561h281zM711 799q188 0 281 83t93 228q0 205 -272 205h-215l-111 -516h224zM1284 1126q0 -293 -311 -378v-5q111 -33 171 -101t60 -184q0 -225 -155.5 -341.5t-438.5 -116.5h-649l23 106h133l35 29
l247 1163l-24 29h-133l24 107h586q432 0 432 -308z" />
    <glyph glyph-name="C" unicode="C" horiz-adv-x="1187" 
d="M106 485q0 458 219.5 713.5t598.5 255.5q125 0 212 -19.5t111 -35.5l-65 -312h-123l39 183l-19 26q-73 29 -188 29t-224.5 -51t-232.5 -209t-123 -559q0 -186 85 -289.5t261 -103.5q105 0 191 28l33 27l41 190h122l-63 -309q-162 -69 -385 -69q-224 0 -357 137t-133 368z
" />
    <glyph glyph-name="D" unicode="D" horiz-adv-x="1431" 
d="M602 125q251 0 404 211.5t153 591.5t-346 381h-215l-252 -1184h256zM838 1434q247 0 387.5 -132.5t140.5 -363.5q0 -450 -210.5 -694t-582.5 -244h-612l23 106h133l35 29l247 1163l-24 29h-133l24 107h572z" />
    <glyph glyph-name="E" unicode="E" horiz-adv-x="1257" 
d="M598 1313l-109 -522h365l33 28l28 135h109l-94 -440h-107l29 135l-23 27h-366l-117 -555h567l35 29l39 180h117l-72 -330h-1071l23 106h135l35 29l245 1163l-24 29h-133l24 107h1051l-72 -328h-117l37 180l-22 27h-545z" />
    <glyph glyph-name="F" unicode="F" horiz-adv-x="1232" 
d="M596 1309l-115 -543h391l33 27l29 131h108l-94 -439h-108l26 131l-20 25h-393l-105 -506l21 -29h166l-23 -106h-551l23 106h133l35 29l247 1163l-24 29h-133l24 107h1073l-71 -328h-113l37 176l-25 27h-571z" />
    <glyph glyph-name="G" unicode="G" horiz-adv-x="1304" 
d="M106 600.5q0 344.5 218.5 599t588.5 254.5q141 0 237.5 -19.5t125.5 -35.5l-66 -312h-123l39 183l-18 22q-90 35 -213 35t-233.5 -51t-230.5 -208.5t-120 -561.5q0 -188 88 -295t263 -107q112 0 180 29l92 434l-25 29h-118l24 106h449l-25 -106h-100l-33 -29l-109 -518
q-162 -69 -370 -69q-252 0 -386.5 138t-134.5 482.5z" />
    <glyph glyph-name="H" unicode="H" horiz-adv-x="1492" 
d="M1057 670h-598l-113 -535l23 -29h133l-23 -106h-520l25 106h133l35 29l247 1163l-24 29h-133l24 107h518l-22 -107h-135l-33 -29l-107 -501h598l103 501l-21 29h-133l23 107h520l-23 -107h-135l-35 -29l-245 -1163l22 -29h133l-22 -106h-520l24 106h135l33 29z" />
    <glyph glyph-name="I" unicode="I" horiz-adv-x="702" 
d="M399 1298l-24 29h-133l24 107h520l-24 -107h-135l-33 -29l-246 -1163l21 -29h135l-23 -106h-520l23 106h133l35 29z" />
    <glyph glyph-name="J" unicode="J" horiz-adv-x="1056" 
d="M264 102q135 0 211 68t105 203l196 925l-22 29h-133l24 107h518l-24 -107h-133l-35 -29l-193 -909q-41 -199 -165 -304t-327 -105t-267 48t-74 56l59 274h129l-39 -188l17 -27q63 -41 153 -41z" />
    <glyph glyph-name="K" unicode="K" horiz-adv-x="1411" 
d="M481 0h-520l23 106h133l35 29l247 1163l-24 29h-133l24 107h520l-24 -107h-135l-33 -29l-109 -507h195l510 518l-10 18h-119l24 107h453l-25 -107h-116l-33 -18l-535 -535l301 -647l21 -21h125l-23 -106h-503l20 106h135l15 15l-248 555h-211l-113 -543l21 -27h133z" />
    <glyph glyph-name="L" unicode="L" horiz-adv-x="1157" 
d="M346 127h512l37 29l41 190h115l-74 -346h-1016l23 106h133l35 29l247 1163l-24 29h-133l24 107h520l-24 -107h-135l-33 -29z" />
    <glyph glyph-name="M" unicode="M" horiz-adv-x="1681" 
d="M1356 1128l-508 -659h-121l-219 643l-207 -977l21 -29h135l-21 -106h-477l23 106h135l35 29l247 1163l-24 29h-131l22 107h326l248 -775l577 775h348l-24 -107h-133l-37 -29l-246 -1163l23 -29h135l-23 -106h-506l21 106h133l35 29z" />
    <glyph glyph-name="N" unicode="N" horiz-adv-x="1464" 
d="M983 -4l-475 1139l-213 -1000l22 -29h136l-23 -106h-471l21 106h133l37 29l247 1163l-24 29h-133l24 107h314l446 -1088l203 952l-21 29h-135l25 107h471l-25 -107h-133l-37 -29l-274 -1302h-115z" />
    <glyph glyph-name="O" unicode="O" horiz-adv-x="1370" 
d="M305 455q0 -166 67.5 -254t231.5 -88t304 171.5t169 392t29 300.5q0 166 -67.5 255t-228.5 89t-304 -170t-172 -392t-29 -304zM823 1454q238 0 363 -141.5t125 -368.5q0 -352 -145 -594t-297 -306t-277 -64q-240 0 -365 139.5t-125 367.5q0 362 146 602.5t298 302.5
t277 62z" />
    <glyph glyph-name="P" unicode="P" horiz-adv-x="1308" 
d="M731 668q186 0 291.5 97t105.5 296q0 127 -67.5 188.5t-214.5 61.5h-250l-137 -643h272zM874 1434q215 0 334 -89.5t119 -277.5q0 -258 -162.5 -391t-455.5 -133h-277l-84 -408l21 -29h159l-22 -106h-545l23 106h133l35 29l247 1163l-24 29h-133l24 107h608z" />
    <glyph glyph-name="Q" unicode="Q" horiz-adv-x="1368" 
d="M305 455q0 -166 67.5 -254t231.5 -88t304 171.5t169 392t29 300.5q0 166 -67.5 255t-228.5 89t-304 -170t-172 -392t-29 -304zM823 1454q238 0 363 -141.5t125 -368.5q0 -305 -98.5 -500.5t-201 -297t-245.5 -142.5l121 -166l47 -22h125l-21 -107h-207q-88 0 -133 62
l-137 209q-224 8 -341.5 148t-117.5 359q0 362 146 602.5t298 302.5t277 62z" />
    <glyph glyph-name="R" unicode="R" horiz-adv-x="1380" 
d="M879 1434q207 0 320.5 -80t113.5 -258t-120.5 -290.5t-297.5 -129.5v-2q66 -12 106.5 -57.5t55.5 -149.5l41 -334l28 -27h105l-25 -106h-221q-78 0 -88 84l-45 381q-15 137 -74 144t-88 7h-241l-101 -483l21 -27h143l-23 -106h-528l23 106h133l35 29l247 1163l-24 29
h-133l24 107h613zM725 739q184 0 283.5 91.5t99.5 267.5q0 106 -62.5 159.5t-199.5 53.5h-250l-121 -572h250z" />
    <glyph glyph-name="S" unicode="S" horiz-adv-x="1138" 
d="M1008 450q0 -228 -163 -349t-439 -121q-149 0 -256 20t-154 39l70 330h129l-45 -205l26 -35q92 -25 265 -25q172 0 273 82t101 211q0 92 -62.5 149.5t-218.5 113.5t-240.5 143t-84.5 207q0 223 151.5 333.5t415.5 110.5q148 0 268 -27q57 -10 105 -24l-70 -316h-125
l39 193l-26 31q-93 20 -203 20q-172 0 -270.5 -65.5t-98.5 -188.5q0 -87 55.5 -143t219.5 -125q164 -70 251 -154t87 -205z" />
    <glyph glyph-name="T" unicode="T" horiz-adv-x="1159" 
d="M231 1434h1041l-72 -332h-119l37 178l-22 29h-277l-246 -1174l21 -29h151l-24 -106h-545l23 106h145l35 29l246 1174h-275l-37 -29l-34 -178h-119z" />
    <glyph glyph-name="U" unicode="U" horiz-adv-x="1413" 
d="M621 -18q-433 0 -433 348q0 81 17 151l172 817l-23 29h-133l25 107h520l-25 -107h-135l-35 -29l-172 -819q-16 -62 -16 -139q0 -117 62.5 -174t202.5 -57t224 91t125 279l174 819l-24 29h-133l24 107h484l-23 -107h-135l-33 -29l-174 -817q-55 -264 -193.5 -381.5
t-342.5 -117.5z" />
    <glyph glyph-name="V" unicode="V" horiz-adv-x="1312" 
d="M285 1298l-25 29h-113l23 107h502l-25 -107h-135l-27 -24l109 -1084l559 1081l-16 27h-142l25 107h465l-25 -107h-112l-35 -29l-699 -1302h-174z" />
    <glyph glyph-name="W" unicode="W" horiz-adv-x="1931" 
d="M293 1300l-23 27h-120l24 107h496l-25 -107h-129l-27 -24l50 -1041l551 1172h139l51 -1178l496 1044l-19 27h-133l23 107h454l-24 -107h-119l-33 -27l-633 -1304h-166l-67 1057l-508 -1057h-166z" />
    <glyph glyph-name="X" unicode="X" horiz-adv-x="1341" 
d="M-104 0l22 106h121l29 17l534 606l-250 574l-24 24h-129l24 107h520l-24 -107h-135l-21 -18l178 -439l389 441l-10 16h-129l25 107h452l-24 -107h-117l-35 -20l-497 -549l266 -633l20 -19h129l-22 -106h-514l20 106h135l21 19l-195 483l-417 -485l14 -17h119l-25 -106
h-450z" />
    <glyph glyph-name="Y" unicode="Y" horiz-adv-x="1259" 
d="M248 0l22 106h133l37 29l90 443l-249 725l-27 24h-107l25 107h481l-22 -107h-131l-25 -24l197 -582l430 579l-19 27h-129l25 107h442l-24 -107h-105l-28 -20l-529 -697l-100 -477l20 -27h136l-23 -106h-520z" />
    <glyph glyph-name="Z" unicode="Z" horiz-adv-x="1193" 
d="M-47 0l22 109l1010 1202h-571l-37 -31l-37 -174h-125l70 328h964l-22 -111l-1004 -1198h625l35 31l39 174h122l-69 -330h-1022z" />
    <glyph glyph-name="bracketleft" unicode="[" horiz-adv-x="612" 
d="M-35 -209l387 1819h408l-21 -94h-235l-346 -1633h235l-20 -92h-408z" />
    <glyph glyph-name="backslash" unicode="\" horiz-adv-x="864" 
d="M256 1612h117l270 -1821h-117z" />
    <glyph glyph-name="bracketright" unicode="]" horiz-adv-x="612" 
d="M684 1610l-387 -1819h-408l21 94h235l347 1633h-236l21 92h407z" />
    <glyph glyph-name="asciicircum" unicode="^" horiz-adv-x="884" 
d="M711 784l-222 512l-213 -512h-126l278 650h125l287 -650h-129z" />
    <glyph glyph-name="underscore" unicode="_" horiz-adv-x="987" 
d="M-166 -164h987l-22 -102h-987z" />
    <glyph glyph-name="grave" unicode="`" horiz-adv-x="720" 
d="M465 1427l108 103h33l170 -283l-63 -55h-25z" />
    <glyph glyph-name="a" unicode="a" horiz-adv-x="1167" 
d="M246 375q0 -139 48 -195.5t122 -56.5t156.5 50t150.5 134l115 557q-77 109 -184 109t-176.5 -51.5t-150.5 -181.5t-81 -365zM610 1098q164 0 262 -111l25 60q19 30 53 30h119l-205 -946l27 -31h133l-23 -100h-184q-71 0 -106.5 22t-24.5 89l12 59h-4q-63 -78 -148 -134
t-177 -56q-141 0 -226.5 98t-85.5 274t46.5 310.5t123 231.5t176 150.5t207.5 53.5z" />
    <glyph glyph-name="b" unicode="b" horiz-adv-x="1167" 
d="M889 692q0 143 -47.5 202.5t-123.5 59.5t-156.5 -50t-147.5 -132l-119 -561q81 -107 187 -107t175.5 50.5t150.5 180.5t81 357zM524 -20q-157 0 -260 108h-6q-9 -44 -31 -66t-69 -22h-254l22 100h135l35 31l260 1229l-20 29h-135l24 106h258q53 0 64.5 -23.5t3.5 -58.5
l-105 -502q61 76 144.5 131.5t175.5 55.5q141 0 226 -103t85 -279t-46 -308t-123 -227t-176 -148t-208 -53z" />
    <glyph glyph-name="c" unicode="c" horiz-adv-x="956" 
d="M59 416q0 140 49.5 273.5t175.5 271t386 137.5q106 0 180 -18.5t96 -28.5l-59 -277h-117l33 160l-19 24q-64 19 -144 19q-79 0 -154.5 -45t-156.5 -165.5t-81 -356.5q0 -156 68.5 -231t181.5 -75q72 0 142.5 30t119.5 69l37 -74q-137 -149 -359 -149q-261 0 -320 148
t-59 288z" />
    <glyph glyph-name="d" unicode="d" horiz-adv-x="1165" 
d="M246 375q0 -139 48 -195.5t122 -56.5t156.5 49t150.5 133l117 557q-75 111 -213 111q-80 0 -149.5 -51.5t-150.5 -181.5t-81 -365zM610 1098q156 0 258 -107l80 367l-24 31h-133l24 106h258q53 0 64.5 -23.5t3.5 -58.5l-275 -1282l25 -31h133l-12 -49q-4 -10 -5 -18
t-3.5 -16.5t-2.5 -16.5h-184q-71 0 -106.5 22t-24.5 89l12 59h-4q-63 -78 -148 -134t-177 -56q-141 0 -226.5 98t-85.5 274t46.5 310.5t123 231.5t176 150.5t207.5 53.5z" />
    <glyph glyph-name="e" unicode="e" horiz-adv-x="999" 
d="M626 981q-135 0 -238 -112.5t-130 -329.5q228 26 320 59t148 85t56 135t-46 123t-110 40zM61 416q0 140 48.5 272.5t169 271t360.5 138.5q137 0 226 -68.5t89 -198.5t-134.5 -231t-321.5 -128.5t-250 -35.5v-43q0 -145 68.5 -218t199.5 -73t266 97l41 -76
q-160 -143 -370 -143q-270 0 -331 148t-61 288z" />
    <glyph glyph-name="f" unicode="f" horiz-adv-x="663" 
d="M-104 -276q74 0 115.5 73.5t64.5 188.5l190 985h-164l19 102h135l35 29l10 49q35 176 131 270.5t279 94.5q104 0 188 -21l-41 -207h-113l23 107l-23 24q-24 4 -51 4q-86 0 -132 -64.5t-75 -197.5l-20 -88h266l-20 -102h-267l-186 -975q-70 -365 -381 -365q-106 0 -180 21
l41 201h113l-21 -99l23 -26q20 -4 41 -4z" />
    <glyph glyph-name="g" unicode="g" horiz-adv-x="1095" 
d="M115 -111q0 -82 59.5 -117.5t211.5 -35.5t263 55t111 156q0 70 -43 99.5t-146 29.5h-313q-92 -40 -117.5 -95t-25.5 -92zM484 506q135 0 213.5 77t78.5 197t-54 167.5t-131 47.5q-133 0 -211.5 -77t-78.5 -193t54.5 -167.5t128.5 -51.5zM260 992q131 106 320 106
q77 0 155 -21h379l-22 -106h-181l-10 -8q45 -68 45 -162q0 -182 -132.5 -290t-319.5 -108q-94 0 -164 25q-99 -51 -99 -111q0 -70 119 -69h279q137 0 221 -58.5t84 -191.5q0 -174 -166.5 -270.5t-429.5 -96.5q-397 0 -397 228q0 150 217 237q-100 37 -101 146q0 145 185 225
q-113 82 -113 251q0 168 131 274z" />
    <glyph glyph-name="h" unicode="h" horiz-adv-x="1159" 
d="M772 1098q123 0 186.5 -68.5t63.5 -179.5q0 -47 -12 -102l-131 -617l22 -31h135l-22 -100h-195q-72 0 -106.5 26.5t-16.5 110.5l129 604q25 120 -9 165.5t-114 45.5t-168 -50t-151 -132l-164 -770h-184l291 1360l-21 29h-137l25 106h260q53 0 64 -22.5t3 -57.5l-108 -506
q161 189 360 189z" />
    <glyph glyph-name="i" unicode="i" horiz-adv-x="585" 
d="M428 1276q-109 0 -109 98q0 47 33.5 84t91.5 37q108 0 109 -98q0 -49 -34 -85t-91 -36zM395 1077q55 0 66.5 -22.5t3.5 -63.5l-184 -860l24 -31h133l-20 -100h-195q-72 0 -106.5 25.5t-16.5 111.5l168 803l-20 31h-137l24 106h260z" />
    <glyph glyph-name="j" unicode="j" horiz-adv-x="552" 
d="M430 1276q-108 0 -108 98q0 47 34 84t92 37q108 0 107 -88q0 -59 -34 -95t-91 -36zM399 1077q53 0 65.5 -22.5t2.5 -63.5l-211 -991q-56 -281 -180.5 -325t-212.5 -44t-164 15l43 209h111l-23 -103l20 -26h21q82 0 128 70.5t73 195.5l202 948l-22 31h-137l24 106h260z
" />
    <glyph glyph-name="k" unicode="k" horiz-adv-x="1157" 
d="M838 0q-68 0 -99.5 29.5t-58.5 93.5l-186 422h-160l-115 -545h-184l291 1360l-21 29h-137l25 106h260q53 0 64 -22.5t3 -57.5l-166 -774h148l372 317l-6 13h-110l22 106h432l-24 -106h-121l-39 -25l-377 -313l236 -508l26 -25h115l-18 -100h-172z" />
    <glyph glyph-name="l" unicode="l" horiz-adv-x="555" 
d="M457 1495q53 0 63 -22.5t2 -57.5l-274 -1284l24 -31h134l-21 -100h-195q-68 0 -103.5 25.5t-18.5 109.5l262 1225l-21 29h-137l25 106h260z" />
    <glyph glyph-name="m" unicode="m" horiz-adv-x="1794" 
d="M440 907q164 191 352 191q112 0 174 -59.5t72 -155.5q173 215 367 215q125 0 188.5 -70t63.5 -178q0 -23 -4 -45.5t-8 -46.5l-136 -627l25 -31h133l-20 -100h-195q-72 0 -106.5 25.5t-16.5 111.5l131 604q8 47 8 91t-24.5 82t-102.5 38t-162.5 -50t-148.5 -128l-164 -774
h-184l160 741q10 47 10 91t-25.5 82t-101.5 38t-159 -49t-148 -127l-166 -776h-184l200 940l-22 31h-137l24 106h258q53 0 63.5 -22.5t2.5 -59.5l-19 -88h2z" />
    <glyph glyph-name="n" unicode="n" horiz-adv-x="1189" 
d="M391 1077q53 0 63.5 -22.5t2.5 -59.5l-19 -88h4q63 74 154.5 132.5t211.5 58.5t183.5 -68.5t63.5 -179.5q0 -47 -13 -102l-133 -617l23 -31h135l-20 -100h-195q-72 0 -106.5 25.5t-16.5 111.5l129 604q10 47 10 93t-27 82t-87 36q-185 0 -338 -180l-164 -772h-184
l200 940l-22 31h-137l24 106h258z" />
    <glyph glyph-name="o" unicode="o" horiz-adv-x="1118" 
d="M63 433q0 138 48.5 269.5t165 263.5t350.5 132q178 0 287.5 -105.5t109.5 -292.5q0 -188 -48 -320t-128 -221t-181.5 -134t-196.5 -45t-168 26.5t-126 78.5t-83 131t-30 217zM836 698q0 279 -199 279q-175 0 -280 -174.5t-105 -428.5q0 -132 50 -204t167 -72
q80 0 147.5 50.5t143.5 179t76 370.5z" />
    <glyph glyph-name="p" unicode="p" horiz-adv-x="1163" 
d="M502 104q82 0 151.5 50.5t149.5 179t80 358.5q0 143 -47.5 202.5t-123.5 59.5t-154.5 -49t-143.5 -127l-123 -571q78 -103 211 -103zM520 -20q-159 0 -254 100l-63 -297l22 -31h140l-21 -100h-516l20 100h138l34 31l244 1159l-20 29h-138l25 106h256q53 0 63.5 -22.5
t4.5 -59.5l-19 -82h4q61 74 144.5 129.5t175.5 55.5q141 0 226 -103t85 -279t-46 -308t-122 -227t-176 -148t-207 -53z" />
    <glyph glyph-name="q" unicode="q" horiz-adv-x="1163" 
d="M246 375q0 -139 48 -195.5t122 -56.5t155.5 50t147.5 130l119 561q-77 109 -184 109t-176.5 -51.5t-150.5 -181.5t-81 -365zM610 1098q156 0 260 -109h4l3 8q18 80 100 80h252l-23 -106h-135l-33 -31l-247 -1157l22 -31h135l-20 -100h-516l20 100h143l35 31l80 381
q-63 -76 -146 -130t-175 -54q-141 0 -226.5 98t-85.5 274t46.5 310.5t123 231.5t176 150.5t207.5 53.5z" />
    <glyph glyph-name="r" unicode="r" horiz-adv-x="817" 
d="M799 1098q29 0 47 -3t24 -3l-71 -338h-113l35 157l-25 29q-88 -10 -162.5 -63.5t-121.5 -120.5l-160 -756h-184l200 940l-22 31h-137l24 106h258q53 0 63.5 -23.5t0.5 -60.5l-21 -96h8q171 201 357 201z" />
    <glyph glyph-name="s" unicode="s" horiz-adv-x="925" 
d="M650.5 73.5q-133.5 -93.5 -345.5 -93.5q-209 0 -323 49l53 256h119l-31 -152l20 -24q76 -21 194 -21q117 0 194 56.5t77 136.5t-49 121.5t-145 74.5q-164 57 -221.5 129.5t-57.5 161.5q0 150 118 240t337 90q149 0 293 -37l-54 -254h-116l28 145l-18 23q-72 16 -168 16
t-173 -46t-77 -122t42 -115.5t169 -85.5q268 -97 268 -276t-133.5 -272.5z" />
    <glyph glyph-name="t" unicode="t" horiz-adv-x="636" 
d="M103.5 29q-35.5 41 -15.5 137l172 805h-129l21 102h100l35 29l119 270h120l-63 -299h217l-21 -102h-217l-180 -840l25 -31h227l-22 -100q-159 -12 -256 -12t-132.5 41z" />
    <glyph glyph-name="u" unicode="u" horiz-adv-x="1181" 
d="M709 170q-162 -190 -357 -190q-117 0 -180 67.5t-63 177.5q0 49 12 105l131 610l-25 31h-133l23 106h194q70 0 106 -27.5t17 -109.5l-131 -606q-8 -40 -8 -86t27.5 -84.5t105.5 -38.5t161 51t148 131l164 770h182l-200 -944l22 -33h135l-12 -49q-4 -10 -5 -19t-7 -32
h-185q-70 0 -105 22t-24 91l13 57h-6z" />
    <glyph glyph-name="v" unicode="v" horiz-adv-x="1095" 
d="M264 1077q63 0 102 -24t50 -99l104 -731l400 717l-19 31h-123l25 106h182q78 0 93.5 -41t-13.5 -90l-547 -948h-137l-154 944l-24 29h-121l24 106h158z" />
    <glyph glyph-name="w" unicode="w" horiz-adv-x="1601" 
d="M260 1077q65 0 105 -24.5t47 -98.5l63 -700l412 823h129l65 -825l355 688l-19 31h-123l23 106h182q78 0 91.5 -40t-15.5 -91l-500 -948h-133l-68 780l-397 -780h-137l-111 946l-20 27h-127l24 106h154z" />
    <glyph glyph-name="x" unicode="x" horiz-adv-x="1185" 
d="M328 1077q66 0 95.5 -28.5t57.5 -87.5l140 -293l299 288l-11 15h-114l24 106h422l-24 -106h-113l-31 -21l-401 -375l227 -448l27 -27h131l-19 -100h-188q-68 0 -98.5 28.5t-57.5 88.5l-159 329l-320 -329l10 -17h125l-24 -100h-428l24 100h105l26 19l428 428l-202 395
l-29 29h-137l24 106h191z" />
    <glyph glyph-name="y" unicode="y" horiz-adv-x="1110" 
d="M274 1077q64 0 101.5 -24t48.5 -99l104 -735l412 721l-18 31h-117l22 106h177q72 0 90 -40t-11 -91l-665 -1163l20 -31h133l-20 -100h-469l18 100h144l39 31l110 194l-153 965l-23 29h-135l24 106h168z" />
    <glyph glyph-name="z" unicode="z" horiz-adv-x="1036" 
d="M-51 0l20 86l801 885h-451l-32 -29l-35 -162h-123l64 297h837l-16 -88l-795 -880h477l33 26l35 164h123l-64 -299h-874z" />
    <glyph glyph-name="braceleft" unicode="{" horiz-adv-x="706" 
d="M254 713q111 -31 111 -118t-23 -177l-70 -330q-10 -62 -10 -84q0 -76 39 -106.5t107 -34.5q10 0 36.5 -1t42.5 1l-16 -76q-49 -6 -115 -6q-127 0 -195.5 53t-68.5 174q0 47 12 113l72 346q17 79 17 118q0 40 -25 57t-88 24l22 98q93 8 124 44t57 155l69 315
q70 340 364 340q99 0 142 -6l-16 -76h-78q-86 -4 -144.5 -53t-84.5 -172l-66 -299q-35 -167 -76.5 -220.5t-138.5 -74.5v-4z" />
    <glyph glyph-name="bar" unicode="|" horiz-adv-x="544" 
d="M231 -209v1821h119v-1821h-119z" />
    <glyph glyph-name="braceright" unicode="}" horiz-adv-x="706" 
d="M479 1395q0 77 -39 107t-106 34q-10 0 -37 1t-43 -1l16 76q50 6 115 6q127 0 196 -53t68 -174q0 -47 -12 -113l-72 -346q-16 -74 -16 -116q1 -42 25 -59t88 -24l-23 -98q-94 -8 -126 -47t-54 -152l-70 -315q-37 -180 -127 -260t-268 -80q-68 0 -111 6l17 76h78
q86 4 144 53t85 172l65 299q35 166 76 219t139 76v4q-111 31 -111 121q1 90 23 174l70 330q10 62 10 84z" />
    <glyph glyph-name="asciitilde" unicode="~" horiz-adv-x="1261" 
d="M422 807q70 0 131 -24.5t117.5 -54.5t108 -54.5t97.5 -24.5t76 17l127 131q6 -4 17.5 -15.5t23.5 -20.5t31 -26q-126 -205 -295 -205q-68 0 -128 25t-116.5 55.5t-109 55t-94.5 24.5t-78 -18l-127 -131l-70 59q123 207 289 207z" />
    <glyph glyph-name="uni00A0" unicode="&#xa0;" horiz-adv-x="483" 
 />
    <glyph glyph-name="exclamdown" unicode="&#xa1;" horiz-adv-x="475" 
d="M295 690l22 -74l-90 -548l-90 -424h-215l92 424l142 548l51 74h88zM328 1098q54 0 80 -30q28 -30 28 -77t-42 -88t-94 -41t-81 30t-29 76t42 88t96 42z" />
    <glyph glyph-name="cent" unicode="&#xa2;" horiz-adv-x="1001" 
d="M291 594q0 -246 172 -299l182 860q-163 -30 -258.5 -188t-95.5 -373zM106 598q0 129 45.5 256t159 260.5t359.5 159.5l39 180h86l-37 -176q163 -7 256 -47l-60 -270h-116l34 159l-20 23q-45 16 -119 20l-188 -880h16q68 0 136.5 24.5t109.5 52.5l35 -73
q-121 -121 -322 -125l-39 -182h-86l39 186q-228 26 -278 164.5t-50 267.5z" />
    <glyph glyph-name="sterling" unicode="&#xa3;" horiz-adv-x="1224" 
d="M852 1454q162 0 259 -24t146 -39l-63 -287h-115l39 172l-22 24q-18 4 -73.5 16.5t-141.5 12.5q-145 0 -231.5 -72.5t-121.5 -238.5l-57 -262h340l-23 -97h-337l-62 -286q-14 -70 -38.5 -139.5t-45.5 -98.5h561l33 29l39 186h115l-74 -350h-1016l23 98h123l36 29l113 532
h-154l21 97h154l55 262q37 190 173.5 313t344.5 123z" />
    <glyph glyph-name="currency" unicode="&#xa4;" horiz-adv-x="1067" 
d="M420.5 547q49.5 -49 118.5 -49t117.5 50t48.5 122q0 71 -49 122.5t-117 51.5t-118 -50t-50 -124t49.5 -123zM264 672q0 76 39 141l-168 172l90 90l168 -172q66 43 143 43t144 -43l170 172l90 -90l-170 -170q43 -71 43 -147t-43 -142l170 -168l-90 -90l-170 168
q-68 -39 -146 -39t-143 41l-168 -170l-90 90l168 170q-37 68 -37 144z" />
    <glyph glyph-name="yen" unicode="&#xa5;" horiz-adv-x="1372" 
d="M244 719h297l-201 584l-25 24h-108l24 107h482l-23 -107h-131l-24 -24l196 -582l430 579l-16 27h-131l24 107h443l-23 -107h-106l-29 -20l-446 -588h274l-18 -98h-330l-8 -11l-29 -133h334l-21 -98h-334l-51 -246l21 -27h135l-23 -106h-520l23 106h133l37 29l49 244h-375
l19 98h376l21 101l-17 43h-348z" />
    <glyph glyph-name="brokenbar" unicode="&#xa6;" horiz-adv-x="561" 
d="M240 846v766h118v-766h-118zM240 -209v768h118v-768h-118z" />
    <glyph glyph-name="section" unicode="&#xa7;" horiz-adv-x="1130" 
d="M242 586q0 -80 60 -123.5t201 -88.5t222 -91q131 87 131 217q0 81 -57.5 122t-201.5 87t-226 94q-129 -85 -129 -217zM225 1061q0 183 154 288t378 105t390 -45l-68 -305h-108l41 188l-23 29q-92 20 -244 20q-151 0 -248.5 -63.5t-97.5 -179.5q0 -75 55.5 -123t171.5 -86
q117 -37 182.5 -62.5t134.5 -77t69 -171.5q0 -236 -238 -332q98 -84 98 -219q0 -187 -154.5 -291.5t-393.5 -104.5q-156 0 -269 23q-57 8 -104 22l67 306h109l-41 -189l20 -29q98 -20 248 -20t247 63.5t97 180.5q0 75 -54 122.5t-173 86.5t-183.5 64.5t-133 76.5t-68.5 176
q0 227 236 326q-97 82 -97 221z" />
    <glyph glyph-name="dieresis" unicode="&#xa8;" horiz-adv-x="669" 
d="M608 1338q0 36 33 70t76 34t64.5 -23.5t21.5 -61.5t-32 -69t-76 -31t-65.5 22.5t-21.5 58.5zM328 1338q0 36 31.5 70t75.5 34t65.5 -23.5t21.5 -61.5t-32.5 -69t-75.5 -31t-64.5 22.5t-21.5 58.5z" />
    <glyph glyph-name="copyright" unicode="&#xa9;" horiz-adv-x="1697" 
d="M213 715q0 -137 51 -258t140.5 -210t209 -141.5t255 -52.5t254 52.5t207.5 141.5t141.5 210t52.5 258t-52.5 258t-141.5 211t-207.5 142t-254 52t-255 -52t-209 -142t-140.5 -211t-51 -258zM889 244q-207 0 -321.5 119t-114.5 351t119.5 352t332.5 120q92 0 157.5 -15.5
t90.5 -31.5v-242h-92v141l-19 19q-68 28 -137 28q-291 -4 -291 -354q0 -383 297 -383q80 0 142 25l20 22v146h92v-236q-111 -61 -276 -61zM133 714q0 153 57.5 287t158 234t234 158.5t285.5 58.5t286 -58.5t234.5 -158.5t159 -234.5t58.5 -286.5t-58.5 -285.5t-159 -234
t-234.5 -157.5t-287 -57t-285.5 57t-233 157.5t-158 233.5t-57.5 286z" />
    <glyph glyph-name="ordfeminine" unicode="&#xaa;" horiz-adv-x="849" 
d="M446 891q72 0 148 100l65 305q-39 50 -96 50q-102 0 -162.5 -89t-60.5 -227q0 -139 106 -139zM575 901q-81 -123 -205 -123q-76 0 -125.5 64t-49.5 164q0 196 92 322t233 126q53 0 95 -23.5t63 -54.5l22 45q10 21 37 21h92l-118 -557l16 -21h74l-8 -37l-9 -36h-125
q-35 0 -63.5 12t-24.5 53l7 45h-3z" />
    <glyph glyph-name="guillemotleft" unicode="&#xab;" horiz-adv-x="1017" 
d="M72 559l409 389h109l-375 -432l186 -422h-94l-250 393zM473 559l410 389h108l-375 -432l187 -422h-94l-250 393z" />
    <glyph glyph-name="logicalnot" unicode="&#xac;" horiz-adv-x="1175" 
d="M164 750h825v-437h-121v316h-704v121z" />
    <glyph glyph-name="uni00AD" unicode="&#xad;" horiz-adv-x="753" 
d="M147 678h484l-29 -131h-483z" />
    <glyph glyph-name="registered" unicode="&#xae;" horiz-adv-x="1402" 
d="M770 889q125 0 125 80t-29.5 105.5t-95.5 25.5h-119v-211h119zM772 1186q244 0 244 -178q0 -76 -45 -115t-99 -49v-2q29 -10 46.5 -29.5t33.5 -58.5l49 -127l17 -13h47v-73h-127q-42 0 -51 39l-53 157q-12 45 -32 55.5t-44 10.5h-107v-176l11 -13h67v-73h-268v73h61
l13 13v475l-13 10h-61v74h311zM392 487.5q152 -153.5 365 -153.5t364 157.5t151 371.5t-150.5 372t-364.5 158t-365.5 -155.5t-151.5 -376t152 -374zM341 1281q173 173 414 173t413.5 -173.5t172.5 -419t-173 -418.5t-413 -173t-413.5 172.5t-173.5 419t173 419.5z" />
    <glyph glyph-name="macron" unicode="&#xaf;" horiz-adv-x="786" 
d="M381 1395h512l-25 -113h-510z" />
    <glyph glyph-name="degree" unicode="&#xb0;" horiz-adv-x="806" 
d="M309 1145q0 -43 16.5 -80t44 -64.5t63.5 -44t77 -16.5t77 16.5t63.5 44t44 64.5t16.5 80t-16.5 80t-44 65.5t-63.5 45t-77 16.5t-77 -16.5t-63.5 -45t-44 -65.5t-16.5 -80zM203 1144.5q0 63.5 24.5 120t66.5 98.5t97 66.5t118.5 24.5t120 -24.5t98.5 -66.5t66.5 -98.5
t24.5 -120t-24.5 -118.5t-66.5 -97t-98.5 -66.5t-120 -24.5t-118.5 24.5t-97 66.5t-66.5 97t-24.5 118.5z" />
    <glyph glyph-name="plusminus" unicode="&#xb1;" horiz-adv-x="1140" 
d="M143 297h826v-119h-826v119zM147 877h353v323h118v-323h353v-119h-353v-326h-118v326h-353v119z" />
    <glyph glyph-name="twosuperior" unicode="&#xb2;" horiz-adv-x="593" 
d="M588 1542q0 132 -205 64l-18 -17l-15 -71h-82l29 145q121 47 226 47t147 -43t43 -92q0 -91 -55 -145t-189 -125l-86 -50q-68 -39 -78 -81l-8 -46h250l12 15l21 78h77l-39 -185h-460l24 127q12 64 61 106q50 42 157 100q108 58 148 94t40 79z" />
    <glyph glyph-name="threesuperior" unicode="&#xb3;" horiz-adv-x="579" 
d="M645 1251q0 -151 -148 -205q-121 -44 -274 -2q-33 8 -61 21l33 145h81l-16 -71l14 -15q45 -18 91 -18q85 0 123 45t38 106q0 84 -98 84h-80l17 76h75q142 0 142 131q0 33 -25 58q-40 40 -133 19q-23 -5 -39 -11l-16 -15l-19 -69h-80l33 143q107 37 209 37t144 -45
t42 -100q0 -151 -149 -187v-6q96 -27 96 -121z" />
    <glyph glyph-name="acute" unicode="&#xb4;" horiz-adv-x="720" 
d="M760 1530l63 -103l-321 -235h-33l-39 55l289 283h41z" />
    <glyph glyph-name="mu" unicode="&#xb5;" horiz-adv-x="1251" 
d="M352 1077q70 0 106 -27.5t17 -109.5l-131 -606q-8 -40 -8 -86t27.5 -84.5t105.5 -38.5t161 52t148 130l164 770h182l-200 -944l22 -33h135l-12 -49q-4 -10 -5 -19t-7 -32h-185q-71 0 -105.5 22t-23.5 91l13 57h-6q-63 -74 -151.5 -132t-184.5 -58t-154 34l-27 -196
l-34 -166h-181l275 1288l-25 31h-133l23 106h194z" />
    <glyph glyph-name="paragraph" unicode="&#xb6;" horiz-adv-x="1257" 
d="M1188 1298l-348 -1646h-103l379 1782h227l-24 -107h-94zM135 907q0 397 251 462t396 65h115l-379 -1782h-100l182 860q-217 2 -341 100.5t-124 294.5z" />
    <glyph glyph-name="periodcentered" unicode="&#xb7;" horiz-adv-x="493" 
d="M260 649q-54 -1 -80 27t-26 73t36 87q36 41 92 41t83 -29t27 -75t-40 -85q-39 -39 -92 -39z" />
    <glyph glyph-name="cedilla" unicode="&#xb8;" 
d="M518 -203q0 -86 -74 -126t-156 -40q-144 0 -210 50l39 65q18 -12 60 -26.5t126 -14.5t84 78q0 70 -172 88l6 27l123 125l100 -5l-98 -102q172 -9 172 -119z" />
    <glyph glyph-name="onesuperior" unicode="&#xb9;" horiz-adv-x="434" 
d="M377 1659q29 0 51 16t29 33h69l-127 -592l9 -12h100l-12 -68h-342l12 68h98l15 12l102 465l-12 14h-97l15 64h90z" />
    <glyph glyph-name="ordmasculine" unicode="&#xba;" horiz-adv-x="778" 
d="M446 874q93 0 149 109t56 243t-110 134q-94 0 -150.5 -111t-56.5 -243t112 -132zM791 1212q0 -211 -102 -322.5t-247 -111.5q-106 0 -176.5 62t-70.5 178q0 211 101.5 323.5t246.5 112.5q104 0 176 -63t72 -179z" />
    <glyph glyph-name="guillemotright" unicode="&#xbb;" horiz-adv-x="1017" 
d="M504 483l-410 -389h-108l374 432l-186 422h94l250 -393zM905 483l-409 -389h-109l375 432l-187 422h95l250 -393z" />
    <glyph glyph-name="onequarter" unicode="&#xbc;" horiz-adv-x="1245" 
d="M901 258l60 279l-273 -279h213zM590 252l403 420h113l-88 -414h88l-16 -70h-91l-24 -106l12 -14h76l-12 -68h-303l14 68h82l16 14l23 106h-310zM350 1393q28 0 50 16t30 33h70l-127 -592l8 -12h100l-12 -68h-342l12 68h99l14 12l102 465l-12 14h-96l14 64h90zM1102 1434
h108l-1050 -1434h-109z" />
    <glyph glyph-name="onehalf" unicode="&#xbd;" horiz-adv-x="1288" 
d="M1053 506q1 86 -85 86q-60 0 -120 -23l-19 -16l-14 -72h-82l29 146q121 47 226 47q106 0 148 -43t42 -93t-12 -82q-23 -61 -118 -121q-46 -30 -102 -61t-99 -56q-68 -39 -77 -81l-8 -45h250l12 14l20 78h78l-39 -184h-460l24 127q11 63 63 106q51 43 157 100
q106 58 146 94t40 79zM350 1393q28 0 50 16t30 33h70l-127 -592l8 -12h100l-12 -68h-342l12 68h99l14 12l102 465l-12 14h-96l14 64h90zM1102 1434h108l-1050 -1434h-109z" />
    <glyph glyph-name="threequarters" unicode="&#xbe;" horiz-adv-x="1310" 
d="M967 258l59 279l-272 -279h213zM655 252l404 420h112l-88 -414h88l-16 -70h-90l-25 -106l13 -14h75l-12 -68h-303l14 68h82l17 14l22 106h-309zM1167 1434h109l-1051 -1434h-108zM462 779q-52 -19 -130 -19q-121 0 -205 39l33 145h82l-17 -72l15 -14q45 -18 90 -18
q86 0 124 45t38 106q0 84 -99 84h-80l17 76h76q141 0 141 131q0 34 -25 58t-77 24t-95 -16l-16 -15l-19 -69h-79l32 143q107 37 209 37q103 0 145 -45t42 -101q0 -151 -150 -186v-6q98 -27 96 -121q0 -152 -148 -206z" />
    <glyph glyph-name="questiondown" unicode="&#xbf;" horiz-adv-x="987" 
d="M648 1106q54 0 83 -30t29 -75q0 -47 -39 -89t-95 -42t-84 29t-28 76t40 89t94 42zM135 -344q-213 72 -213 279t182 326q64 42 160 85t138 79t53 85l8 45l67 143h89l12 -143l-10 -55q-21 -129 -163 -203q-46 -25 -104 -53q-121 -59 -175 -126t-54 -175q0 -183 255 -185
q110 -1 214 45l47 37l37 174h119l-58 -272q-102 -56 -219 -83q-234 -54 -385 -3z" />
    <glyph glyph-name="Agrave" unicode="&#xc0;" horiz-adv-x="1351" 
d="M416 539h448l-80 686zM879 418h-527l-153 -287l20 -25h131l-22 -106h-469l20 106h127l37 29l715 1303h182l170 -1307l25 -25h125l-23 -106h-498l21 106h127l26 25zM829 1548l-221 236l109 104h31l172 -284l-64 -56h-27z" />
    <glyph glyph-name="Aacute" unicode="&#xc1;" horiz-adv-x="1351" 
d="M416 539h448l-80 686zM879 418h-527l-153 -287l20 -25h131l-22 -106h-469l20 106h127l37 29l715 1303h182l170 -1307l25 -25h125l-23 -106h-498l21 106h127l26 25zM854 1548l-39 56l289 284h41l63 -104l-321 -236h-33z" />
    <glyph glyph-name="Acircumflex" unicode="&#xc2;" horiz-adv-x="1351" 
d="M416 539h448l-80 686zM879 418h-527l-153 -287l20 -25h131l-22 -106h-469l20 106h127l37 29l715 1303h182l170 -1307l25 -25h125l-23 -106h-498l21 106h127l26 25zM610 1548l-26 41l303 303h69l177 -303l-48 -41h-22l-166 203l-248 -203h-39z" />
    <glyph glyph-name="Atilde" unicode="&#xc3;" horiz-adv-x="1351" 
d="M416 539h448l-80 686zM879 418h-527l-153 -287l20 -25h131l-22 -106h-469l20 106h127l37 29l715 1303h182l170 -1307l25 -25h125l-23 -106h-498l21 106h127l26 25zM1050 1591q-62 1 -101 17q-38 16 -104 52t-111 37q-46 1 -68 -17t-27 -40l-16 -69h-86l16 74
q20 90 65 134t113 44q68 1 135 -39q66 -40 104 -57t81 -17t63 20t25 42l12 63h84l-18 -78q-17 -80 -61 -123t-106 -43z" />
    <glyph glyph-name="Adieresis" unicode="&#xc4;" horiz-adv-x="1351" 
d="M416 539h448l-80 686zM879 418h-527l-153 -287l20 -25h131l-22 -106h-469l20 106h127l37 29l715 1303h182l170 -1307l25 -25h125l-23 -106h-498l21 106h127l26 25zM928 1697q0 37 32 69t75 32q44 0 66 -24q21 -24 21 -60q0 -38 -32 -68t-75 -30q-44 0 -66 22
q-21 23 -21 59zM647 1697q0 37 32 69t76 32q43 0 65 -24t22 -60q0 -38 -33 -68t-77 -30t-64 22t-21 59z" />
    <glyph glyph-name="Aring" unicode="&#xc5;" horiz-adv-x="1351" 
d="M416 539h448l-80 686zM879 418h-527l-153 -287l20 -25h131l-22 -106h-469l20 106h127l37 29l715 1303h182l170 -1307l25 -25h125l-23 -106h-498l21 106h127l26 25zM764 1679q0 -86 102 -86q66 0 107 34t41 95q0 88 -105 88q-65 0 -105 -35t-40 -96zM1116 1736
q0 -105 -72 -156q-72 -50 -172 -50t-156 36t-56 97q-2 209 278 209q70 0 124 -38t54 -98z" />
    <glyph glyph-name="AE" unicode="&#xc6;" horiz-adv-x="1986" 
d="M1108 1307l-594 -768h453l163 768h-22zM-2 106l33 25l1016 1303h999l-72 -328h-114l34 180l-22 27h-549l-106 -522h368l33 28l29 135h108l-94 -440h-109l27 135l-23 27h-368l-115 -555h567l37 29l39 180h117l-72 -330h-1071l23 106h133l35 29l59 283h-514l-227 -295
l12 -17h135l-22 -106h-471l22 106h123z" />
    <glyph glyph-name="Ccedilla" unicode="&#xc7;" horiz-adv-x="1187" 
d="M584 -217q0 68 -172 88l6 27l88 89q-167 26 -267 131q-133 137 -133 368q0 459 220 714q220 256 598 254q125 0 212 -19t111 -36l-65 -312h-123l39 183l-19 26q-73 29 -188 29t-225 -51q-110 -50 -188 -152q-167 -215 -167 -616q0 -186 85 -290t261 -103q105 0 191 28
l33 27l41 190h122l-63 -309q-162 -69 -369 -69h-8l-61 -64q172 -9 172 -119q0 -86 -72 -125t-156 -40q-143 -2 -213 49l39 65q62 -41 150 -41q121 0 121 78z" />
    <glyph glyph-name="Egrave" unicode="&#xc8;" horiz-adv-x="1257" 
d="M848 1548l-221 236l108 104h31l172 -284l-64 -56h-26zM598 1313l-109 -522h365l33 28l28 135h109l-94 -440h-107l29 135l-23 27h-366l-117 -555h567l35 29l39 180h117l-72 -330h-1071l23 106h135l35 29l245 1163l-24 29h-133l24 107h1051l-72 -328h-117l37 180l-22 27
h-545z" />
    <glyph glyph-name="Eacute" unicode="&#xc9;" horiz-adv-x="1257" 
d="M598 1313l-109 -522h365l33 28l28 135h109l-94 -440h-107l29 135l-23 27h-366l-117 -555h567l35 29l39 180h117l-72 -330h-1071l23 106h135l35 29l245 1163l-24 29h-133l24 107h1051l-72 -328h-117l37 180l-22 27h-545zM874 1548l-38 56l288 284h41l64 -104l-322 -236
h-33z" />
    <glyph glyph-name="Ecircumflex" unicode="&#xca;" horiz-adv-x="1257" 
d="M631 1548l-27 41l303 303h70l176 -303l-47 -41h-23l-165 203l-248 -203h-39zM598 1313l-109 -522h365l33 28l28 135h109l-94 -440h-107l29 135l-23 27h-366l-117 -555h567l35 29l39 180h117l-72 -330h-1071l23 106h135l35 29l245 1163l-24 29h-133l24 107h1051l-72 -328
h-117l37 180l-22 27h-545z" />
    <glyph glyph-name="Edieresis" unicode="&#xcb;" horiz-adv-x="1257" 
d="M598 1313l-109 -522h365l33 28l28 135h109l-94 -440h-107l29 135l-23 27h-366l-117 -555h567l35 29l39 180h117l-72 -330h-1071l23 106h135l35 29l245 1163l-24 29h-133l24 107h1051l-72 -328h-117l37 180l-22 27h-545zM948 1697q0 37 32 69t76 32t66 -24t21 -60
q0 -38 -32 -68t-76 -30q-43 0 -65 22t-22 59zM748 1616q-80 0 -80 81q0 37 32 69t75 32q44 0 66 -24q21 -24 21 -60q0 -38 -33 -68t-81 -30z" />
    <glyph glyph-name="Igrave" unicode="&#xcc;" horiz-adv-x="702" 
d="M399 1298l-24 29h-133l24 107h520l-24 -107h-135l-33 -29l-246 -1163l21 -29h135l-23 -106h-520l23 106h133l35 29zM532 1548l-221 236l109 104h31l172 -284l-64 -56h-27z" />
    <glyph glyph-name="Iacute" unicode="&#xcd;" horiz-adv-x="702" 
d="M399 1298l-24 29h-133l24 107h520l-24 -107h-135l-33 -29l-246 -1163l21 -29h135l-23 -106h-520l23 106h133l35 29zM557 1548l-39 56l289 284h41l63 -104l-321 -236h-33z" />
    <glyph glyph-name="Icircumflex" unicode="&#xce;" horiz-adv-x="702" 
d="M399 1298l-24 29h-133l24 107h520l-24 -107h-135l-33 -29l-246 -1163l21 -29h135l-23 -106h-520l23 106h133l35 29zM313 1548l-26 41l303 303h69l177 -303l-48 -41h-22l-166 203l-248 -203h-39z" />
    <glyph glyph-name="Idieresis" unicode="&#xcf;" horiz-adv-x="702" 
d="M399 1298l-24 29h-133l24 107h520l-24 -107h-135l-33 -29l-246 -1163l21 -29h135l-23 -106h-520l23 106h133l35 29zM631 1697q0 37 32 69t76 32q43 0 65 -24t22 -60q0 -38 -32 -68t-76 -30t-66 22q-21 23 -21 59zM350 1697q0 37 32 69t76 32t66 -24t21 -60q0 -38 -33 -68
t-77 -30q-45 0 -65 22t-20 59z" />
    <glyph glyph-name="Eth" unicode="&#xd0;" horiz-adv-x="1433" 
d="M604 125q251 0 404 211.5t153 591.5t-346 381h-215l-113 -529h342l-24 -96h-340l-117 -559h256zM840 1434q247 0 387.5 -132.5t140.5 -363.5q0 -451 -210.5 -694.5t-582.5 -243.5h-612l23 106h133l35 29l116 549h-176l25 96h172l110 518l-24 29h-133l24 107h572z" />
    <glyph glyph-name="Ntilde" unicode="&#xd1;" horiz-adv-x="1464" 
d="M1102 1591q-62 1 -100 17t-103 52t-111 37q-48 1 -70 -17t-26 -40l-16 -69h-86l16 74q20 90 66 134t125 44q41 1 77 -17t74 -40q37 -22 75 -39t81 -17t63 20t25 42l12 63h84l-18 -78q-16 -80 -60 -123q-46 -43 -108 -43zM983 -4l-475 1139l-213 -1000l22 -29h136
l-23 -106h-471l21 106h133l37 29l247 1163l-24 29h-133l24 107h314l446 -1088l203 952l-21 29h-135l25 107h471l-25 -107h-133l-37 -29l-274 -1302h-115z" />
    <glyph glyph-name="Ograve" unicode="&#xd2;" horiz-adv-x="1370" 
d="M887 1548l-221 236l108 104h31l172 -284l-64 -56h-26zM305 464q0 -175 68 -263t231 -88t278 141q116 141 170 341t54 374t-68 263t-229 89q-162 0 -289 -153q-107 -130 -161 -330q-54 -199 -54 -374zM411 1297q174 157 412 157q237 0 362 -142q126 -142 126 -368
q0 -351 -170 -637q-119 -200 -322 -284q-102 -43 -227 -43q-240 0 -365 141t-125 366q0 364 169 641q58 96 140 169z" />
    <glyph glyph-name="Oacute" unicode="&#xd3;" horiz-adv-x="1370" 
d="M911 1548l-39 56l289 284h41l64 -104l-322 -236h-33zM305 464q0 -175 68 -263t231 -88t278 141q116 141 170 341t54 374t-68 263t-229 89q-162 0 -289 -153q-107 -130 -161 -330q-54 -199 -54 -374zM411 1297q174 157 412 157q237 0 362 -142q126 -142 126 -368
q0 -351 -170 -637q-119 -200 -322 -284q-102 -43 -227 -43q-240 0 -365 141t-125 366q0 364 169 641q58 96 140 169z" />
    <glyph glyph-name="Ocircumflex" unicode="&#xd4;" horiz-adv-x="1370" 
d="M668 1548l-27 41l303 303h70l176 -303l-47 -41h-23l-166 203l-247 -203h-39zM305 464q0 -175 68 -263t231 -88t278 141q116 141 170 341t54 374t-68 263t-229 89q-162 0 -289 -153q-107 -130 -161 -330q-54 -199 -54 -374zM411 1297q174 157 412 157q237 0 362 -142
q126 -142 126 -368q0 -351 -170 -637q-119 -200 -322 -284q-102 -43 -227 -43q-240 0 -365 141t-125 366q0 364 169 641q58 96 140 169z" />
    <glyph glyph-name="Otilde" unicode="&#xd5;" horiz-adv-x="1370" 
d="M305 464q0 -175 68 -263t231 -88t278 141q116 141 170 341t54 374t-68 263t-229 89q-162 0 -289 -153q-107 -130 -161 -330q-54 -199 -54 -374zM411 1297q174 157 412 157q237 0 362 -142q126 -142 126 -368q0 -351 -170 -637q-119 -200 -322 -284q-102 -43 -227 -43
q-240 0 -365 141t-125 366q0 364 169 641q58 96 140 169zM1106 1591q-62 1 -100 17t-103 52q-66 36 -112 37q-47 1 -69 -17t-26 -40l-16 -69h-86l16 74q20 90 66 134t114 44q69 -1 162 -57q94 -56 147 -56q83 0 97 62l12 63h84l-18 -78q-16 -80 -60 -123q-46 -43 -108 -43z
" />
    <glyph glyph-name="Odieresis" unicode="&#xd6;" horiz-adv-x="1370" 
d="M305 464q0 -175 68 -263t231 -88t278 141q116 141 170 341t54 374t-68 263t-229 89q-162 0 -289 -153q-107 -130 -161 -330q-54 -199 -54 -374zM411 1297q174 157 412 157q237 0 362 -142q126 -142 126 -368q0 -351 -170 -637q-119 -200 -322 -284q-102 -43 -227 -43
q-240 0 -365 141t-125 366q0 364 169 641q58 96 140 169zM987 1697q0 37 32 69t76 32q43 0 65 -24t22 -60q0 -38 -32 -68t-76 -30t-66 22t-21 59zM707 1697q-1 37 31 69t76 32t66 -24t22 -60q0 -38 -34 -68q-33 -30 -77 -30t-64 22t-20 59z" />
    <glyph glyph-name="multiply" unicode="&#xd7;" horiz-adv-x="997" 
d="M139 401l273 273l-273 270l92 90l273 -270l270 270l92 -90l-272 -270l274 -273l-92 -92l-272 275l-275 -275z" />
    <glyph glyph-name="Oslash" unicode="&#xd8;" horiz-adv-x="1376" 
d="M1081 675.5q29 221.5 29 289.5t-8 116l-756 -831q62 -137 242 -137t322 170.5t171 392zM338 759.5q-29 -221.5 -29 -293.5t8 -122l758 832q-66 145 -244 145t-321 -170t-172 -391.5zM592 -20q-237 0 -363 143l-131 -143h-114l194 213q-72 125 -72 294q0 362 146 602.5
t298 302.5t281 62q235 0 365 -147l133 147h113l-199 -217q72 -125 72 -293q0 -356 -147 -597.5t-298 -304t-278 -62.5z" />
    <glyph glyph-name="Ugrave" unicode="&#xd9;" horiz-adv-x="1413" 
d="M893 1548l-221 236l108 104h31l172 -284l-63 -56h-27zM188 330q0 88 17 151l172 817l-23 29h-133l25 107h520l-25 -107h-135l-35 -29l-172 -819q-16 -62 -16 -139q0 -117 62 -174q63 -57 203 -57t224 91t125 279l174 819l-24 29h-133l24 107h484l-23 -107h-135l-33 -29
l-174 -817q-55 -264 -193 -382t-343 -117q-433 0 -433 348z" />
    <glyph glyph-name="Uacute" unicode="&#xda;" horiz-adv-x="1413" 
d="M188 330q0 88 17 151l172 817l-23 29h-133l25 107h520l-25 -107h-135l-35 -29l-172 -819q-16 -62 -16 -139q0 -117 62 -174q63 -57 203 -57t224 91t125 279l174 819l-24 29h-133l24 107h484l-23 -107h-135l-33 -29l-174 -817q-55 -264 -193 -382t-343 -117
q-433 0 -433 348zM920 1548l-39 56l288 284h41l64 -104l-322 -236h-32z" />
    <glyph glyph-name="Ucircumflex" unicode="&#xdb;" horiz-adv-x="1413" 
d="M676 1548l-27 41l303 303h70l176 -303l-47 -41h-23l-165 203l-248 -203h-39zM188 330q0 88 17 151l172 817l-23 29h-133l25 107h520l-25 -107h-135l-35 -29l-172 -819q-16 -62 -16 -139q0 -117 62 -174q63 -57 203 -57t224 91t125 279l174 819l-24 29h-133l24 107h484
l-23 -107h-135l-33 -29l-174 -817q-55 -264 -193 -382t-343 -117q-433 0 -433 348z" />
    <glyph glyph-name="Udieresis" unicode="&#xdc;" horiz-adv-x="1413" 
d="M188 330q0 88 17 151l172 817l-23 29h-133l25 107h520l-25 -107h-135l-35 -29l-172 -819q-16 -62 -16 -139q0 -117 62 -174q63 -57 203 -57t224 91t125 279l174 819l-24 29h-133l24 107h484l-23 -107h-135l-33 -29l-174 -817q-55 -264 -193 -382t-343 -117
q-433 0 -433 348zM993 1697q0 37 32 69t76 32q43 0 65 -24t22 -60q0 -38 -32 -68t-76 -30t-66 22t-21 59zM793 1616q-80 0 -80 81q-1 37 31 69t76 32t66 -24t22 -60q0 -38 -34 -68q-33 -30 -81 -30z" />
    <glyph glyph-name="Yacute" unicode="&#xdd;" horiz-adv-x="1259" 
d="M248 0l22 106h133l37 29l90 443l-249 725l-27 24h-107l25 107h481l-22 -107h-131l-25 -24l197 -582l430 579l-19 27h-129l25 107h442l-24 -107h-105l-28 -20l-529 -697l-100 -477l20 -27h136l-23 -106h-520zM852 1548l-39 56l289 284h41l63 -104l-321 -236h-33z" />
    <glyph glyph-name="Thorn" unicode="&#xde;" horiz-adv-x="1304" 
d="M1061 791q0 221 -266 221h-263l-120 -570h272q377 0 377 349zM823 1141q209 0 325 -84t116 -260q0 -239 -161.5 -362.5t-445.5 -123.5h-274l-35 -176l21 -29h133l-21 -106h-520l23 106h133l35 29l247 1163l-24 29h-133l24 107h520l-24 -107h-135l-33 -29l-33 -157h262z
" />
    <glyph glyph-name="germandbls" unicode="&#xdf;" horiz-adv-x="1204" 
d="M707 80q92 0 146 46t54 126t-40 134t-101 124t-96 124t-35 113.5t23.5 100.5t58.5 72.5t133 101t98 233.5q0 82 -47 127t-113 45q-127 0 -198.5 -60t-102.5 -214l-229 -1157q-51 -261 -173 -313t-218 -52t-170 21l41 201h112l-20 -99l23 -26q20 -4 41 -4q130 0 182 262
l192 985h-162l19 102h133l37 29l6 37q35 174 158 275.5t321 101.5q137 0 230.5 -66.5t93.5 -187.5q0 -154 -128 -247.5t-153.5 -127t-25.5 -76.5t31.5 -82t74.5 -92t110.5 -135.5t67.5 -200.5q0 -150 -101 -235.5t-259 -85.5q-104 0 -168 22q-35 8 -57 23l49 229h98
l-29 -135l21 -29q25 -10 72 -10z" />
    <glyph glyph-name="agrave" unicode="&#xe0;" horiz-adv-x="1167" 
d="M838 864q-77 109 -211 109q-80 0 -150 -51q-140 -102 -202 -326q-29 -108 -29 -234q1 -239 184 -239q61 0 143 50t150 134zM950 1077h119l-205 -946l27 -31h133l-23 -100h-184q-71 0 -95 15q-47 28 -36 96l12 59h-4q-63 -78 -148 -134t-177 -56q-141 0 -227 98
q-85 98 -85 274q0 329 165 537q165 207 388 209q161 0 262 -111l25 60q19 30 53 30zM420 1427l108 103h33l170 -283l-63 -55h-25z" />
    <glyph glyph-name="aacute" unicode="&#xe1;" horiz-adv-x="1167" 
d="M838 864q-77 109 -211 109q-80 0 -150 -51q-140 -102 -202 -326q-29 -108 -29 -234q1 -239 184 -239q61 0 143 50t150 134zM950 1077h119l-205 -946l27 -31h133l-23 -100h-184q-71 0 -95 15q-47 28 -36 96l12 59h-4q-63 -78 -148 -134t-177 -56q-141 0 -227 98
q-85 98 -85 274q0 329 165 537q165 207 388 209q161 0 262 -111l25 60q19 30 53 30zM940 1530l64 -103l-322 -235h-33l-39 55l289 283h41z" />
    <glyph glyph-name="acircumflex" unicode="&#xe2;" horiz-adv-x="1167" 
d="M838 864q-77 109 -211 109q-80 0 -150 -51q-140 -102 -202 -326q-29 -108 -29 -234q1 -239 184 -239q61 0 143 50t150 134zM950 1077h119l-205 -946l27 -31h133l-23 -100h-184q-71 0 -95 15q-47 28 -36 96l12 59h-4q-63 -78 -148 -134t-177 -56q-141 0 -227 98
q-85 98 -85 274q0 329 165 537q165 207 388 209q161 0 262 -111l25 60q19 30 53 30zM426 1186l-29 43l303 301h70l176 -301l-45 -43h-24l-164 205l-250 -205h-37z" />
    <glyph glyph-name="atilde" unicode="&#xe3;" horiz-adv-x="1167" 
d="M838 864q-77 109 -211 109q-80 0 -150 -51q-140 -102 -202 -326q-29 -108 -29 -234q1 -239 184 -239q61 0 143 50t150 134zM950 1077h119l-205 -946l27 -31h133l-23 -100h-184q-71 0 -95 15q-47 28 -36 96l12 59h-4q-63 -78 -148 -134t-177 -56q-141 0 -227 98
q-85 98 -85 274q0 329 165 537q165 207 388 209q161 0 262 -111l25 60q19 30 53 30zM546 1458q67 0 166 -55t148 -55q84 0 94 59l15 66h84l-19 -80q-36 -166 -168 -166q-62 0 -100 16q-39 16 -106 53t-111 37q-45 0 -68 -16t-26 -39l-15 -70h-86l15 72q23 96 66 137
q44 41 111 41z" />
    <glyph glyph-name="adieresis" unicode="&#xe4;" horiz-adv-x="1167" 
d="M838 864q-77 109 -211 109q-80 0 -150 -51q-140 -102 -202 -326q-29 -108 -29 -234q1 -239 184 -239q61 0 143 50t150 134zM950 1077h119l-205 -946l27 -31h133l-23 -100h-184q-71 0 -95 15q-47 28 -36 96l12 59h-4q-63 -78 -148 -134t-177 -56q-141 0 -227 98
q-85 98 -85 274q0 329 165 537q165 207 388 209q161 0 262 -111l25 60q19 30 53 30zM838 1257q-44 1 -65 23t-21 58t32 70q33 34 76 34t65 -24q21 -24 21 -62t-32 -68q-32 -31 -76 -31zM557 1257q-43 1 -65 23t-21 58q0 36 32 70t76 34q43 0 65 -24t22 -62t-33 -68
q-33 -31 -76 -31z" />
    <glyph glyph-name="aring" unicode="&#xe5;" horiz-adv-x="1167" 
d="M838 864q-77 109 -211 109q-80 0 -150 -51q-140 -102 -202 -326q-29 -108 -29 -234q1 -239 184 -239q61 0 143 50t150 134zM950 1077h119l-205 -946l27 -31h133l-23 -100h-184q-71 0 -95 15q-47 28 -36 96l12 59h-4q-63 -78 -148 -134t-177 -56q-141 0 -227 98
q-85 98 -85 274q0 329 165 537q165 207 388 209q161 0 262 -111l25 60q19 30 53 30zM582 1321q0 -84 104 -84q66 0 107 35t41 94q0 84 -107 84q-63 0 -104 -35t-41 -94zM754 1516q70 0 126 -38t56 -100q0 -107 -74 -155q-74 -49 -172 -49t-154 36t-56 96t20 98
q58 112 254 112z" />
    <glyph glyph-name="ae" unicode="&#xe6;" horiz-adv-x="1605" 
d="M672 374q0 58 4 105h-238q-103 0 -171 -47.5t-68 -150.5q0 -70 34.5 -114t102.5 -44q176 0 348 137q-12 56 -12 114zM1234 981q-130 0 -228 -102.5t-134 -294.5q337 0 431 79.5t94 158.5t-50.5 119t-112.5 40zM299 -20q-148 0 -217.5 74.5t-69.5 178.5q0 184 109.5 268.5
t292.5 84.5h280l29 135q12 51 12 107t-40 99.5t-131 43.5t-202 -27l-32 -31l-37 -161h-119l59 282q74 32 189 48t180 16q244 0 272 -174q150 174 369 174q140 0 231 -67.5t91 -197.5q0 -129 -135.5 -223.5t-320.5 -112.5t-249 -18q-2 -20 -2 -25v-63q0 -143 68.5 -216
t195.5 -73t264 80l37 -78q-166 -124 -364 -124q-119 0 -212 50t-138 154q-204 -204 -410 -204z" />
    <glyph glyph-name="ccedilla" unicode="&#xe7;" horiz-adv-x="956" 
d="M543 -203q0 -86 -72 -125t-156 -40q-143 -2 -213 49l39 65q62 -41 150 -41q121 0 121 78q0 68 -172 88l6 27l91 92q-180 39 -248 211q-30 76 -30 215t50 273q97 265 327 363q112 46 226 46t188 -18t96 -29l-59 -277h-117l33 160l-19 24q-64 19 -144 19q-79 0 -155 -45
t-128 -123q-111 -166 -109 -399q0 -156 68 -231t182 -75q72 0 142 30t120 69l37 -74q-139 -151 -359 -149h-6l-61 -64q172 -9 172 -119z" />
    <glyph glyph-name="egrave" unicode="&#xe8;" horiz-adv-x="999" 
d="M782 818q0 83 -46 123t-110 40q-130 0 -232 -105q-109 -118 -136 -337q228 26 320 59t148 85t56 135zM61 416q0 139 49 272q95 263 312 363q104 47 194 47q160 0 250 -69t89 -198t-128 -225q-95 -71 -282 -120q-78 -19 -156 -30t-141 -20v-43q0 -145 68 -218t200 -73
q131 0 266 97l41 -76q-160 -143 -370 -143q-271 0 -361 221q-31 76 -31 215zM420 1427l108 103h33l170 -283l-63 -55h-25z" />
    <glyph glyph-name="eacute" unicode="&#xe9;" horiz-adv-x="999" 
d="M940 1530l64 -103l-322 -235h-33l-39 55l289 283h41zM782 818q0 83 -46 123t-110 40q-130 0 -232 -105q-109 -118 -136 -337q228 26 320 59t148 85t56 135zM61 416q0 139 49 272q95 263 312 363q104 47 194 47q160 0 250 -69t89 -198t-128 -225q-95 -71 -282 -120
q-78 -19 -156 -30t-141 -20v-43q0 -145 68 -218t200 -73q131 0 266 97l41 -76q-160 -143 -370 -143q-271 0 -361 221q-31 76 -31 215z" />
    <glyph glyph-name="ecircumflex" unicode="&#xea;" horiz-adv-x="999" 
d="M426 1186l-29 43l303 301h70l176 -301l-45 -43h-24l-164 205l-250 -205h-37zM782 818q0 83 -46 123t-110 40q-130 0 -232 -105q-109 -118 -136 -337q228 26 320 59t148 85t56 135zM61 416q0 139 49 272q95 263 312 363q104 47 194 47q160 0 250 -69t89 -198t-128 -225
q-95 -71 -282 -120q-78 -19 -156 -30t-141 -20v-43q0 -145 68 -218t200 -73q131 0 266 97l41 -76q-160 -143 -370 -143q-271 0 -361 221q-31 76 -31 215z" />
    <glyph glyph-name="edieresis" unicode="&#xeb;" horiz-adv-x="999" 
d="M838 1257q-44 1 -65 23t-21 58t32 70q33 34 76 34t65 -24q21 -24 21 -62t-32 -68q-32 -31 -76 -31zM557 1257q-43 1 -65 23t-21 58q0 36 32 70t76 34q43 0 65 -24t22 -62t-33 -68q-33 -31 -76 -31zM782 818q0 83 -46 123t-110 40q-130 0 -232 -105q-109 -118 -136 -337
q228 26 320 59t148 85t56 135zM61 416q0 139 49 272q95 263 312 363q104 47 194 47q160 0 250 -69t89 -198t-128 -225q-95 -71 -282 -120q-78 -19 -156 -30t-141 -20v-43q0 -145 68 -218t200 -73q131 0 266 97l41 -76q-160 -143 -370 -143q-271 0 -361 221q-31 76 -31 215z
" />
    <glyph glyph-name="igrave" unicode="&#xec;" horiz-adv-x="585" 
d="M395 1077q55 0 67 -22q11 -23 3 -64l-184 -860l24 -31h133l-20 -100h-195q-73 0 -107 26t-16 111l168 803l-20 31h-137l24 106h260zM162 1427l108 103h33l170 -283l-63 -55h-25z" />
    <glyph glyph-name="iacute" unicode="&#xed;" horiz-adv-x="585" 
d="M662 1530l63 -103l-322 -235h-32l-39 55l289 283h41zM395 1077q55 0 67 -22q11 -23 3 -64l-184 -860l24 -31h133l-20 -100h-195q-73 0 -107 26t-16 111l168 803l-20 31h-137l24 106h260z" />
    <glyph glyph-name="icircumflex" unicode="&#xee;" horiz-adv-x="585" 
d="M129 1186l-29 43l303 301h70l176 -301l-45 -43h-24l-164 205l-250 -205h-37zM395 1077q55 0 67 -22q11 -23 3 -64l-184 -860l24 -31h133l-20 -100h-195q-73 0 -107 26t-16 111l168 803l-20 31h-137l24 106h260z" />
    <glyph glyph-name="idieresis" unicode="&#xef;" horiz-adv-x="585" 
d="M523 1257q-43 1 -65 23t-22 58t33 70t76 34t65 -24t21 -62q0 -38 -32 -68q-32 -31 -76 -31zM242 1257q-42 1 -64 23t-22 58t31 70q32 34 76 34t66 -24q21 -24 21 -62t-33 -68q-33 -31 -75 -31zM395 1077q55 0 67 -22q11 -23 3 -64l-184 -860l24 -31h133l-20 -100h-195
q-73 0 -107 26t-16 111l168 803l-20 31h-137l24 106h260z" />
    <glyph glyph-name="eth" unicode="&#xf0;" horiz-adv-x="1120" 
d="M836 698q0 279 -199 279q-175 0 -280 -174.5t-105 -428.5q0 -132 50 -204t167 -72q80 0 147.5 50.5t143.5 179t76 370.5zM1024 686q0 -331 -128 -473.5t-229.5 -187.5t-196.5 -45q-187 0 -297 108t-110 295q0 188 48.5 319.5t126 219.5t179 132t182.5 44q141 0 218 -60
q-37 133 -102 232l-183 -78l-16 72l154 65q-55 66 -129 119l73 70q104 -57 177 -136l176 78l20 -74l-145 -63q182 -237 182 -637z" />
    <glyph glyph-name="ntilde" unicode="&#xf1;" horiz-adv-x="1189" 
d="M391 1077q53 0 64 -22q10 -23 2 -60l-19 -88h4q62 74 154 132q92 59 212 59t183 -69t64 -179q0 -47 -13 -102l-133 -617l23 -31h135l-20 -100h-195q-72 0 -107 26t-16 111l129 604q10 47 10 93t-27 82t-87 36t-120 -18t-123 -71q-63 -52 -95 -91l-164 -772h-184l200 940
l-22 31h-137l24 106h258zM922 1227q-62 0 -101 16q-39 17 -76 37t-73 36t-74 17q-40 0 -62 -16t-26 -39l-14 -70h-86l14 72q44 178 170 178q60 0 97 -17q38 -17 107 -55t118 -38q81 0 94 59l14 66h84l-18 -80q-34 -166 -168 -166z" />
    <glyph glyph-name="ograve" unicode="&#xf2;" horiz-adv-x="1118" 
d="M63 433q0 138 49 269q96 261 305 352q101 44 199 44q188 0 298 -106t110 -293q0 -344 -168 -532q-168 -187 -395 -187q-178 0 -285 105q-53 52 -83 131t-30 217zM836 698q0 279 -199 279q-175 0 -283 -179q-102 -170 -102 -424q0 -132 50 -204t167 -72q157 0 262 179
t105 421zM436 1427l109 103h33l170 -283l-64 -55h-25z" />
    <glyph glyph-name="oacute" unicode="&#xf3;" horiz-adv-x="1118" 
d="M956 1530l64 -103l-322 -235h-32l-39 55l288 283h41zM63 433q0 138 49 269q96 261 305 352q101 44 199 44q188 0 298 -106t110 -293q0 -344 -168 -532q-168 -187 -395 -187q-178 0 -285 105q-53 52 -83 131t-30 217zM836 698q0 279 -199 279q-175 0 -283 -179
q-102 -170 -102 -424q0 -132 50 -204t167 -72q157 0 262 179t105 421z" />
    <glyph glyph-name="ocircumflex" unicode="&#xf4;" horiz-adv-x="1118" 
d="M444 1186l-28 43l303 301h69l177 -301l-45 -43h-25l-164 205l-250 -205h-37zM63 433q0 138 49 269q96 261 305 352q101 44 199 44q188 0 298 -106t110 -293q0 -344 -168 -532q-168 -187 -395 -187q-178 0 -285 105q-53 52 -83 131t-30 217zM836 698q0 279 -199 279
q-175 0 -283 -179q-102 -170 -102 -424q0 -132 50 -204t167 -72q157 0 262 179t105 421z" />
    <glyph glyph-name="otilde" unicode="&#xf5;" horiz-adv-x="1118" 
d="M63 433q0 138 49 269q96 261 305 352q101 44 199 44q188 0 298 -106t110 -293q0 -344 -168 -532q-168 -187 -395 -187q-178 0 -285 105q-53 52 -83 131t-30 217zM836 698q0 279 -199 279q-175 0 -283 -179q-102 -170 -102 -424q0 -132 50 -204t167 -72q157 0 262 179
t105 421zM877 1348q81 0 94 59l14 66h84l-18 -80q-35 -166 -169 -166q-62 0 -100 16q-40 17 -76 37t-72 36t-75 17q-39 0 -61 -16t-27 -39l-14 -70h-86l14 72q43 178 170 178q59 0 97 -17t107 -55t118 -38z" />
    <glyph glyph-name="odieresis" unicode="&#xf6;" horiz-adv-x="1118" 
d="M857 1257q-43 1 -65 23t-22 58t33 70t76 34t65 -24t21 -62q0 -38 -32 -68q-32 -31 -76 -31zM575 1257q-43 1 -65 23t-21 58q0 36 32 70t76 34t66 -24q21 -24 21 -62t-33 -68q-33 -31 -76 -31zM63 433q0 138 49 269q96 261 305 352q101 44 199 44q188 0 298 -106t110 -293
q0 -344 -168 -532q-168 -187 -395 -187q-178 0 -285 105q-53 52 -83 131t-30 217zM836 698q0 279 -199 279q-175 0 -283 -179q-102 -170 -102 -424q0 -132 50 -204t167 -72q157 0 262 179t105 421z" />
    <glyph glyph-name="divide" unicode="&#xf7;" horiz-adv-x="1083" 
d="M143 741h826v-120h-826v120zM459 349q0 40 28.5 67.5t67.5 27.5t67.5 -27.5t28.5 -67.5t-28.5 -68.5t-67.5 -28.5t-67.5 28.5t-28.5 68.5zM459 1013q0 40 28.5 67.5t67.5 27.5t67.5 -27.5t28.5 -67.5t-28.5 -69t-67.5 -29t-67.5 29t-28.5 69z" />
    <glyph glyph-name="oslash" unicode="&#xf8;" horiz-adv-x="1124" 
d="M811 472.5q27 107.5 27 187.5t-4 112l-541 -582q49 -92 178 -92q80 0 147.5 50.5t116.5 133.5t76 190.5zM280.5 611.5q-26.5 -105.5 -26.5 -186.5t10 -149l547 588q-49 113 -197 113t-227.5 -130t-106 -235.5zM66 406q0 165 48 296.5t164.5 263.5t350.5 132
q186 0 293 -113l106 113h109l-166 -178q55 -96 55 -252t-48 -288t-128 -221t-181.5 -134t-205.5 -45q-170 0 -277 96l-90 -96h-110l147 157q-67 104 -67 269z" />
    <glyph glyph-name="ugrave" unicode="&#xf9;" horiz-adv-x="1181" 
d="M709 170q-162 -190 -357 -190q-117 0 -180 68t-63 177q0 49 12 105l131 610l-25 31h-133l23 106h194q70 1 106 -27t17 -110l-131 -606q-8 -40 -8 -86t28 -85q27 -38 105 -38t161 51t148 131l164 770h182l-200 -944l22 -33h135l-12 -49q-4 -10 -5 -19t-7 -32h-185
q-71 0 -95 15q-45 27 -34 98l13 57h-6zM424 1427l108 103h33l170 -283l-63 -55h-25z" />
    <glyph glyph-name="uacute" unicode="&#xfa;" horiz-adv-x="1181" 
d="M944 1530l64 -103l-322 -235h-33l-39 55l289 283h41zM709 170q-162 -190 -357 -190q-117 0 -180 68t-63 177q0 49 12 105l131 610l-25 31h-133l23 106h194q70 1 106 -27t17 -110l-131 -606q-8 -40 -8 -86t28 -85q27 -38 105 -38t161 51t148 131l164 770h182l-200 -944
l22 -33h135l-12 -49q-4 -10 -5 -19t-7 -32h-185q-71 0 -95 15q-45 27 -34 98l13 57h-6z" />
    <glyph glyph-name="ucircumflex" unicode="&#xfb;" horiz-adv-x="1181" 
d="M430 1186l-29 43l304 301h69l176 -301l-45 -43h-24l-164 205l-250 -205h-37zM709 170q-162 -190 -357 -190q-117 0 -180 68t-63 177q0 49 12 105l131 610l-25 31h-133l23 106h194q70 1 106 -27t17 -110l-131 -606q-8 -40 -8 -86t28 -85q27 -38 105 -38t161 51t148 131
l164 770h182l-200 -944l22 -33h135l-12 -49q-4 -10 -5 -19t-7 -32h-185q-71 0 -95 15q-45 27 -34 98l13 57h-6z" />
    <glyph glyph-name="udieresis" unicode="&#xfc;" horiz-adv-x="1181" 
d="M843 1257q-43 1 -65 23t-22 58t32 70q33 34 76 34t65 -24q21 -24 21 -62t-32 -68q-32 -31 -75 -31zM561 1257q-43 1 -65 23t-21 58q0 36 32 70t76 34q43 0 65 -24t22 -62t-33 -68q-33 -31 -76 -31zM709 170q-162 -190 -357 -190q-117 0 -180 68t-63 177q0 49 12 105
l131 610l-25 31h-133l23 106h194q70 1 106 -27t17 -110l-131 -606q-8 -40 -8 -86t28 -85q27 -38 105 -38t161 51t148 131l164 770h182l-200 -944l22 -33h135l-12 -49q-4 -10 -5 -19t-7 -32h-185q-71 0 -95 15q-45 27 -34 98l13 57h-6z" />
    <glyph glyph-name="yacute" unicode="&#xfd;" horiz-adv-x="1110" 
d="M274 1077q64 0 90 -16q47 -30 60 -107l104 -735l412 721l-18 31h-117l22 106h177q72 0 90 -40t-11 -91l-665 -1163l20 -31h133l-20 -100h-469l18 100h144l39 31l110 194l-153 965l-23 29h-135l24 106h168zM952 1530l64 -103l-322 -235h-32l-39 55l288 283h41z" />
    <glyph glyph-name="thorn" unicode="&#xfe;" horiz-adv-x="1134" 
d="M856 692q0 143 -47 202.5t-139 59.5t-172 -69.5t-113 -108.5l-121 -567q79 -105 211 -105q80 0 149.5 50.5t150.5 179.5t81 358zM723 1098q151 0 236 -103t85 -279t-46 -308t-121.5 -227t-176 -148t-206.5 -53q-161 0 -256 102l-64 -299l21 -31h141l-23 -100h-514l23 100
h133l37 31l332 1577l-21 29h-135l22 106h261q55 0 66 -23.5t3 -58.5l-106 -500q158 185 309 185z" />
    <glyph glyph-name="ydieresis" unicode="&#xff;" horiz-adv-x="1110" 
d="M274 1077q64 0 90 -16q47 -30 60 -107l104 -735l412 721l-18 31h-117l22 106h177q72 0 90 -40t-11 -91l-665 -1163l20 -31h133l-20 -100h-469l18 100h144l39 31l110 194l-153 965l-23 29h-135l24 106h168zM869 1442q43 0 65 -24t20 -62q0 -38 -32 -68q-32 -31 -75 -31
q-43 1 -65 23t-22 58t33 70t76 34zM565 1257q-43 1 -65 23t-21 58q0 36 32 70t76 34q43 0 65 -24t22 -62t-33 -68q-33 -31 -76 -31z" />
    <glyph glyph-name="Amacron" unicode="&#x100;" horiz-adv-x="1351" 
d="M416 539h448l-80 686zM879 418h-527l-153 -287l20 -25h131l-22 -106h-469l20 106h127l37 29l715 1303h182l170 -1307l25 -25h125l-23 -106h-498l21 106h127l26 25zM643 1753h510l-23 -113h-509z" />
    <glyph glyph-name="amacron" unicode="&#x101;" horiz-adv-x="1167" 
d="M838 864q-77 109 -211 109q-80 0 -150 -51q-140 -102 -202 -326q-29 -108 -29 -234q1 -239 184 -239q61 0 143 50t150 134zM950 1077h119l-205 -946l27 -31h133l-23 -100h-184q-71 0 -95 15q-47 28 -36 96l12 59h-4q-63 -78 -148 -134t-177 -56q-141 0 -227 98
q-85 98 -85 274q0 329 165 537q165 207 388 209q161 0 262 -111l25 60q19 30 53 30zM457 1395h512l-25 -113h-510z" />
    <glyph glyph-name="Abreve" unicode="&#x102;" horiz-adv-x="1351" 
d="M416 539h448l-80 686zM879 418h-527l-153 -287l20 -25h131l-22 -106h-469l20 106h127l37 29l715 1303h182l170 -1307l25 -25h125l-23 -106h-498l21 106h127l26 25zM882 1681q70 0 118 43t73 99l82 -19q-34 -96 -111 -163q-77 -66 -181 -66t-154 69q-47 60 -47 160l92 23
q0 -57 28 -102q29 -44 100 -44z" />
    <glyph glyph-name="abreve" unicode="&#x103;" horiz-adv-x="1167" 
d="M838 864q-77 109 -211 109q-80 0 -150 -51q-140 -102 -202 -326q-29 -108 -29 -234q1 -239 184 -239q61 0 143 50t150 134zM950 1077h119l-205 -946l27 -31h133l-23 -100h-184q-71 0 -95 15q-47 28 -36 96l12 59h-4q-63 -78 -148 -134t-177 -56q-141 0 -227 98
q-85 98 -85 274q0 329 165 537q165 207 388 209q161 0 262 -111l25 60q19 30 53 30zM696 1321q70 0 117 43t74 98l82 -20q-35 -97 -110 -165q-75 -67 -179 -68q-103 -1 -154 65t-51 168l92 24q0 -57 29 -101q30 -44 100 -44z" />
    <glyph glyph-name="Aogonek" unicode="&#x104;" horiz-adv-x="1349" 
d="M416 539h448l-82 686zM737 -229q0 147 201 229h-201l21 106h127l26 25l-34 287h-527l-153 -287l20 -25h131l-22 -106h-469l20 106h127l37 29l717 1303h180l170 -1307l25 -25h124l-22 -106h-98q-111 -21 -167.5 -58.5t-78 -70.5t-21.5 -74q0 -92 115 -92q41 0 88 14.5
t70 28.5l18 -57q-94 -60 -227 -60q-197 0 -197 140z" />
    <glyph glyph-name="aogonek" unicode="&#x105;" horiz-adv-x="1167" 
d="M246 375q0 -139 48 -195.5t122 -56.5t156.5 50t150.5 134l115 557q-77 109 -184 109t-176.5 -51.5t-150.5 -181.5t-81 -365zM539 -229q0 152 211 233q-35 8 -54.5 30.5t-9.5 76.5l12 59h-4q-63 -78 -148 -134t-177 -56q-141 0 -226.5 98t-85.5 274t46.5 310.5t123 231.5
t176 150.5t207.5 53.5q164 0 262 -111l25 60q19 30 53 30h119l-205 -946l27 -31h133l-23 -100h-57q-187 -34 -229.5 -98t-42.5 -105q0 -92 114 -92q43 0 89.5 14.5t70.5 28.5l19 -57q-94 -60 -228 -60q-198 0 -198 140z" />
    <glyph glyph-name="Cacute" unicode="&#x106;" horiz-adv-x="1187" 
d="M106 486q0 459 220 714q220 256 598 254q125 0 212 -19t111 -36l-65 -312h-123l39 183l-19 26q-73 29 -188 29t-225 -51q-110 -50 -188 -152q-167 -215 -167 -616q0 -186 85 -290t261 -103q105 0 191 28l33 27l41 190h122l-63 -309q-162 -69 -386 -69t-357 138
q-132 138 -132 368zM956 1548l-38 56l288 284h41l64 -104l-322 -236h-33z" />
    <glyph glyph-name="cacute" unicode="&#x107;" horiz-adv-x="956" 
d="M983 1530l64 -103l-322 -235h-33l-39 55l289 283h41zM59 416q0 139 50 273q97 265 327 363q112 46 226 46t188 -18t96 -29l-59 -277h-117l33 160l-19 24q-64 19 -144 19q-79 0 -155 -45t-128 -123q-111 -166 -109 -399q0 -156 68 -231t182 -75q72 0 142 30t120 69l37 -74
q-139 -151 -359 -149q-262 0 -349 221q-30 76 -30 215z" />
    <glyph glyph-name="Ccircumflex" unicode="&#x108;" horiz-adv-x="1187" 
d="M106 486q0 459 220 714q220 256 598 254q125 0 212 -19t111 -36l-65 -312h-123l39 183l-19 26q-73 29 -188 29t-225 -51q-110 -50 -188 -152q-167 -215 -167 -616q0 -186 85 -290t261 -103q105 0 191 28l33 27l41 190h122l-63 -309q-162 -69 -386 -69t-357 138
q-132 138 -132 368zM713 1548l-27 41l303 303h70l176 -303l-47 -41h-23l-166 203l-247 -203h-39z" />
    <glyph glyph-name="ccircumflex" unicode="&#x109;" horiz-adv-x="956" 
d="M471 1186l-29 43l303 301h70l176 -301l-45 -43h-24l-164 205l-250 -205h-37zM59 416q0 139 50 273q97 265 327 363q112 46 226 46t188 -18t96 -29l-59 -277h-117l33 160l-19 24q-64 19 -144 19q-79 0 -155 -45t-128 -123q-111 -166 -109 -399q0 -156 68 -231t182 -75
q72 0 142 30t120 69l37 -74q-139 -151 -359 -149q-262 0 -349 221q-30 76 -30 215z" />
    <glyph glyph-name="Cdotaccent" unicode="&#x10a;" horiz-adv-x="1187" 
d="M874 1701q0 46 38 85t92 39t82 -28q26 -27 26 -73t-39 -86t-93 -39q-54 0 -80 28t-26 74zM106 486q0 459 220 714q220 256 598 254q125 0 212 -19t111 -36l-65 -312h-123l39 183l-19 26q-73 29 -188 29t-225 -51q-110 -50 -188 -152q-167 -215 -167 -616q0 -186 85 -290
t261 -103q105 0 191 28l33 27l41 190h122l-63 -309q-162 -69 -386 -69t-357 138q-132 138 -132 368z" />
    <glyph glyph-name="cdotaccent" unicode="&#x10b;" horiz-adv-x="956" 
d="M59 416q0 139 50 273q97 265 327 363q112 46 226 46t188 -18t96 -29l-59 -277h-117l33 160l-19 24q-64 19 -144 19q-79 0 -155 -45t-128 -123q-111 -166 -109 -399q0 -156 68 -231t182 -75q72 0 142 30t120 69l37 -74q-139 -151 -359 -149q-262 0 -349 221
q-30 76 -30 215zM739 1243q-53 -1 -79 27t-27 73q0 45 38 87t92 40q54 0 81 -28q26 -28 26 -75q0 -46 -39 -85t-92 -39z" />
    <glyph glyph-name="Ccaron" unicode="&#x10c;" horiz-adv-x="1187" 
d="M106 486q0 459 220 714q220 256 598 254q125 0 212 -19t111 -36l-65 -312h-123l39 183l-19 26q-73 29 -188 29t-225 -51q-110 -50 -188 -152q-167 -215 -167 -616q0 -186 85 -290t261 -103q105 0 191 28l33 27l41 190h122l-63 -309q-162 -69 -386 -69t-357 138
q-132 138 -132 368zM997 1548h-67l-176 301l43 43h26l162 -204l252 204h37l29 -43z" />
    <glyph glyph-name="ccaron" unicode="&#x10d;" horiz-adv-x="956" 
d="M754 1192h-68l-176 301l43 41h27l163 -203l250 203h37l29 -41zM59 416q0 139 50 273q97 265 327 363q112 46 226 46t188 -18t96 -29l-59 -277h-117l33 160l-19 24q-64 19 -144 19q-79 0 -155 -45t-128 -123q-111 -166 -109 -399q0 -156 68 -231t182 -75q72 0 142 30
t120 69l37 -74q-139 -151 -359 -149q-262 0 -349 221q-30 76 -30 215z" />
    <glyph glyph-name="Dcaron" unicode="&#x10e;" horiz-adv-x="1431" 
d="M602 125q250 0 403 211q154 211 154 592t-346 381h-215l-252 -1184h256zM838 1434q246 0 387 -132t141 -363q0 -451 -210 -695t-583 -244h-612l23 106h133l35 29l247 1163l-24 29h-133l24 107h572zM936 1548h-68l-176 301l43 43h27l162 -204l252 204h36l29 -43z" />
    <glyph glyph-name="dcaron" unicode="&#x10f;" horiz-adv-x="1224" 
d="M1249 1192l80 405h125l-33 -165l-69 -240h-103zM246 362q0 -239 184 -239q61 0 143 49t150 133l117 557q-75 111 -213 111q-80 0 -150 -51q-140 -102 -202 -326q-29 -108 -29 -234zM1073 1495q53 0 65 -24t3 -58l-275 -1282l25 -31h133l-12 -49q-4 -10 -5 -18
q-1 -9 -3 -17t-3 -16h-184q-71 0 -95 15q-47 28 -36 96l12 59h-4q-63 -78 -148 -134t-177 -56q-141 0 -227 98q-85 98 -85 274q0 329 165 537q165 207 388 209q156 0 258 -107l80 367l-24 31h-133l24 106h258z" />
    <glyph glyph-name="Dcroat" unicode="&#x110;" horiz-adv-x="1433" 
d="M604 125q251 0 404 211.5t153 591.5t-346 381h-215l-113 -529h342l-24 -96h-340l-117 -559h256zM840 1434q247 0 387.5 -132.5t140.5 -363.5q0 -451 -210.5 -694.5t-582.5 -243.5h-612l23 106h133l35 29l116 549h-176l25 96h172l110 518l-24 29h-133l24 107h572z" />
    <glyph glyph-name="dcroat" unicode="&#x111;" horiz-adv-x="1165" 
d="M246 375q0 -139 48 -195.5t122 -56.5t156.5 49t150.5 133l117 557q-75 111 -213 111q-80 0 -149.5 -51.5t-150.5 -181.5t-81 -365zM610 1098q156 0 258 -107l43 203h-219l19 94h221l16 70l-24 31h-133l24 106h258q53 0 64.5 -23.5t3.5 -58.5l-27 -125h189l-19 -94h-190
l-228 -1063l25 -31h133l-12 -49q-4 -10 -5 -18t-3.5 -16.5t-2.5 -16.5h-184q-71 0 -106.5 22t-24.5 89l12 59h-4q-63 -78 -148 -134t-177 -56q-141 0 -226.5 98t-85.5 274t46.5 310.5t123 231.5t176 150.5t207.5 53.5z" />
    <glyph glyph-name="Emacron" unicode="&#x112;" horiz-adv-x="1257" 
d="M598 1313l-109 -522h365l33 28l28 135h109l-94 -440h-107l29 135l-23 27h-366l-117 -555h567l35 29l39 180h117l-72 -330h-1071l23 106h135l35 29l245 1163l-24 29h-133l24 107h1051l-72 -328h-117l37 180l-22 27h-545zM662 1753h509l-22 -113h-510z" />
    <glyph glyph-name="emacron" unicode="&#x113;" horiz-adv-x="999" 
d="M782 818q0 83 -46 123t-110 40q-130 0 -232 -105q-109 -118 -136 -337q228 26 320 59t148 85t56 135zM61 416q0 139 49 272q95 263 312 363q104 47 194 47q160 0 250 -69t89 -198t-128 -225q-95 -71 -282 -120q-78 -19 -156 -30t-141 -20v-43q0 -145 68 -218t200 -73
q131 0 266 97l41 -76q-160 -143 -370 -143q-271 0 -361 221q-31 76 -31 215zM457 1395h512l-25 -113h-510z" />
    <glyph glyph-name="Ebreve" unicode="&#x114;" horiz-adv-x="1257" 
d="M598 1313l-109 -522h365l33 28l28 135h109l-94 -440h-107l29 135l-23 27h-366l-117 -555h567l35 29l39 180h117l-72 -330h-1071l23 106h135l35 29l245 1163l-24 29h-133l24 107h1051l-72 -328h-117l37 180l-22 27h-545zM884 1575q-103 0 -152 65q-50 65 -50 164l92 23
q0 -57 29 -101t99 -45q70 0 119 43q48 43 73 99l82 -19q-35 -97 -112 -163t-180 -66z" />
    <glyph glyph-name="ebreve" unicode="&#x115;" horiz-adv-x="999" 
d="M782 818q0 83 -46 123t-110 40q-130 0 -232 -105q-109 -118 -136 -337q228 26 320 59t148 85t56 135zM61 416q0 139 49 272q95 263 312 363q104 47 194 47q160 0 250 -69t89 -198t-128 -225q-95 -71 -282 -120q-78 -19 -156 -30t-141 -20v-43q0 -145 68 -218t200 -73
q131 0 266 97l41 -76q-160 -143 -370 -143q-271 0 -361 221q-31 76 -31 215zM696 1321q70 0 117 43t74 98l82 -20q-35 -97 -110 -165q-75 -67 -179 -68q-103 -1 -154 65t-51 168l92 24q0 -57 29 -101q30 -44 100 -44z" />
    <glyph glyph-name="Edotaccent" unicode="&#x116;" horiz-adv-x="1257" 
d="M791 1701q0 46 37 85q38 39 92 39t82 -28q26 -27 26 -73t-39 -86t-93 -39q-54 0 -80 28q-25 28 -25 74zM598 1313l-109 -522h365l33 28l28 135h109l-94 -440h-107l29 135l-23 27h-366l-117 -555h567l35 29l39 180h117l-72 -330h-1071l23 106h135l35 29l245 1163l-24 29
h-133l24 107h1051l-72 -328h-117l37 180l-22 27h-545z" />
    <glyph glyph-name="edotaccent" unicode="&#x117;" horiz-adv-x="999" 
d="M782 818q0 83 -46 123t-110 40q-130 0 -232 -105q-109 -118 -136 -337q228 26 320 59t148 85t56 135zM61 416q0 139 49 272q95 263 312 363q104 47 194 47q160 0 250 -69t89 -198t-128 -225q-95 -71 -282 -120q-78 -19 -156 -30t-141 -20v-43q0 -145 68 -218t200 -73
q131 0 266 97l41 -76q-160 -143 -370 -143q-271 0 -361 221q-31 76 -31 215zM694 1243q-54 -1 -80 27t-26 73t38 87t92 40q54 0 81 -28t27 -75q0 -46 -40 -85q-39 -39 -92 -39z" />
    <glyph glyph-name="Eogonek" unicode="&#x118;" horiz-adv-x="1253" 
d="M526 -229q0 146 203 229h-770l23 106h135l35 29l245 1163l-24 29h-133l24 107h1051l-72 -328h-117l37 180l-22 27h-545l-109 -522h365l33 28l28 135h109l-94 -440h-107l29 135l-23 27h-366l-117 -555h567l35 29l39 180h117l-72 -330h-100q-184 -34 -226 -98t-42 -110
q0 -87 112 -87q43 0 90 14.5t70 28.5l18 -57q-94 -60 -227 -60q-199 0 -199 140z" />
    <glyph glyph-name="eogonek" unicode="&#x119;" horiz-adv-x="999" 
d="M624 981q-137 0 -239.5 -114.5t-128.5 -327.5q227 26 320.5 59t149.5 85t56 135t-48 123t-110 40zM248 393q0 -291 266 -291q131 0 266 97l41 -76q-105 -90 -199 -118t-150 -78.5t-56 -114.5t29.5 -85.5t77.5 -21.5t95.5 14.5t69.5 28.5l19 -57q-94 -60 -228 -60
q-198 0 -198 146q0 123 129 205q-245 19 -297 160t-52 277t47.5 269t168 271.5t360.5 138.5q137 0 226 -68.5t89 -189.5q0 -292 -320.5 -344t-383.5 -58v-45z" />
    <glyph glyph-name="Ecaron" unicode="&#x11a;" horiz-adv-x="1257" 
d="M598 1313l-109 -522h365l33 28l28 135h109l-94 -440h-107l29 135l-23 27h-366l-117 -555h567l35 29l39 180h117l-72 -330h-1071l23 106h135l35 29l245 1163l-24 29h-133l24 107h1051l-72 -328h-117l37 180l-22 27h-545zM915 1548h-67l-176 301l43 43h26l162 -204l252 204
h37l29 -43z" />
    <glyph glyph-name="ecaron" unicode="&#x11b;" horiz-adv-x="999" 
d="M709 1192h-68l-176 301l43 41h27l163 -203l250 203h37l29 -41zM782 818q0 83 -46 123t-110 40q-130 0 -232 -105q-109 -118 -136 -337q228 26 320 59t148 85t56 135zM61 416q0 139 49 272q95 263 312 363q104 47 194 47q160 0 250 -69t89 -198t-128 -225
q-95 -71 -282 -120q-78 -19 -156 -30t-141 -20v-43q0 -145 68 -218t200 -73q131 0 266 97l41 -76q-160 -143 -370 -143q-271 0 -361 221q-31 76 -31 215z" />
    <glyph glyph-name="Gcircumflex" unicode="&#x11c;" horiz-adv-x="1304" 
d="M702 1548l-26 41l303 303h70l176 -303l-47 -41h-23l-166 203l-248 -203h-39zM913 1454q141 0 237 -19t126 -36l-66 -312h-123l39 183l-18 22q-90 35 -213 35t-233 -51q-110 -52 -189 -154q-162 -213 -162 -616q0 -188 88 -294t263 -108q112 0 180 29l92 434l-25 29h-118
l24 106h449l-25 -106h-100l-33 -29l-109 -518q-162 -69 -370 -69q-252 0 -386 138t-135 371q0 456 218 711q218 254 589 254z" />
    <glyph glyph-name="gcircumflex" unicode="&#x11d;" horiz-adv-x="1095" 
d="M387 1186l-29 43l304 301h69l176 -301l-45 -43h-24l-164 205l-250 -205h-37zM115 -111q0 -81 59 -117q60 -36 212 -36t263 55t111 156q0 69 -43 99t-146 30h-313q-90 -39 -129 -120q-14 -30 -14 -67zM301 713q0 -103 54 -155t129 -52q202 0 271 166q22 53 21 119
q0 109 -54 157t-131 47q-206 0 -269 -167q-21 -52 -21 -115zM260 992q131 106 320 106q84 0 155 -21h379l-22 -106h-181l-10 -8q45 -68 45 -162q0 -181 -132 -290q-132 -108 -320 -108q-94 0 -164 25q-99 -51 -99 -111q0 -70 119 -69h279q137 0 221 -58t84 -192
q0 -176 -168 -272q-168 -95 -428 -95q-401 0 -397 228q0 129 143 202q39 20 74 35q-100 37 -101 146q0 146 185 225q-113 82 -113 251q0 168 131 274z" />
    <glyph glyph-name="Gbreve" unicode="&#x11e;" horiz-adv-x="1304" 
d="M913 1454q141 0 237 -19t126 -36l-66 -312h-123l39 183l-18 22q-90 35 -213 35t-233 -51q-110 -52 -189 -154q-162 -213 -162 -616q0 -188 88 -294t263 -108q112 0 180 29l92 434l-25 29h-118l24 106h449l-25 -106h-100l-33 -29l-109 -518q-162 -69 -370 -69
q-252 0 -386 138t-135 371q0 456 218 711q218 254 589 254zM974 1681q71 0 119 43t72 99l82 -19q-34 -96 -111 -163q-77 -66 -181 -66t-154 69q-47 60 -47 160l92 23q0 -57 28 -102q29 -44 100 -44z" />
    <glyph glyph-name="gbreve" unicode="&#x11f;" horiz-adv-x="1095" 
d="M115 -111q0 -81 59 -117q60 -36 212 -36t263 55t111 156q0 69 -43 99t-146 30h-313q-90 -39 -129 -120q-14 -30 -14 -67zM301 713q0 -103 54 -155t129 -52q202 0 271 166q22 53 21 119q0 109 -54 157t-131 47q-206 0 -269 -167q-21 -52 -21 -115zM260 992
q131 106 320 106q84 0 155 -21h379l-22 -106h-181l-10 -8q45 -68 45 -162q0 -181 -132 -290q-132 -108 -320 -108q-94 0 -164 25q-99 -51 -99 -111q0 -70 119 -69h279q137 0 221 -58t84 -192q0 -176 -168 -272q-168 -95 -428 -95q-401 0 -397 228q0 129 143 202q39 20 74 35
q-100 37 -101 146q0 146 185 225q-113 82 -113 251q0 168 131 274zM656 1321q70 0 118 43q47 43 74 98l82 -20q-35 -97 -110 -165q-75 -67 -179 -68q-103 -1 -154 65t-51 168l92 24q0 -57 29 -101t99 -44z" />
    <glyph glyph-name="Gdotaccent" unicode="&#x120;" horiz-adv-x="1304" 
d="M864 1701q0 46 38 85t92 39t82 -28q26 -27 26 -73t-39 -86t-93 -39q-54 0 -80 28t-26 74zM913 1454q141 0 237 -19t126 -36l-66 -312h-123l39 183l-18 22q-90 35 -213 35t-233 -51q-110 -52 -189 -154q-162 -213 -162 -616q0 -188 88 -294t263 -108q112 0 180 29l92 434
l-25 29h-118l24 106h449l-25 -106h-100l-33 -29l-109 -518q-162 -69 -370 -69q-252 0 -386 138t-135 371q0 456 218 711q218 254 589 254z" />
    <glyph glyph-name="gdotaccent" unicode="&#x121;" horiz-adv-x="1095" 
d="M115 -111q0 -81 59 -117q60 -36 212 -36t263 55t111 156q0 69 -43 99t-146 30h-313q-90 -39 -129 -120q-14 -30 -14 -67zM301 713q0 -103 54 -155t129 -52q202 0 271 166q22 53 21 119q0 109 -54 157t-131 47q-206 0 -269 -167q-21 -52 -21 -115zM260 992
q131 106 320 106q84 0 155 -21h379l-22 -106h-181l-10 -8q45 -68 45 -162q0 -181 -132 -290q-132 -108 -320 -108q-94 0 -164 25q-99 -51 -99 -111q0 -70 119 -69h279q137 0 221 -58t84 -192q0 -176 -168 -272q-168 -95 -428 -95q-401 0 -397 228q0 129 143 202q39 20 74 35
q-100 37 -101 146q0 146 185 225q-113 82 -113 251q0 168 131 274zM549 1343q0 45 38 87t92 40q54 0 81 -28q26 -28 26 -75q0 -46 -38 -85t-92 -39q-54 -1 -80 27t-27 73z" />
    <glyph glyph-name="uni0122" unicode="&#x122;" horiz-adv-x="1304" 
d="M467 -296q0 46 32 82t80 36q49 0 75 -24t26 -63t-41 -93l-156 -207q-4 0 -32 18l-33 21l90 125l-4 39q-37 20 -37 66zM913 1454q141 0 237 -19t126 -36l-66 -312h-123l39 183l-18 22q-90 35 -213 35t-233 -51q-110 -52 -189 -154q-162 -213 -162 -616q0 -188 88 -294
t263 -108q112 0 180 29l92 434l-25 29h-118l24 106h449l-25 -106h-100l-33 -29l-109 -518q-162 -69 -370 -69q-252 0 -386 138t-135 371q0 456 218 711q218 254 589 254z" />
    <glyph glyph-name="uni0123" unicode="&#x123;" horiz-adv-x="1095" 
d="M807 1360q0 -45 -31 -81t-80 -36q-48 0 -74 24t-26 63t41 93l151 201l64 -39l-86 -119l6 -39q35 -22 35 -67zM115 -111q0 -81 59 -117q60 -36 212 -36t263 55t111 156q0 69 -43 99t-146 30h-313q-90 -39 -129 -120q-14 -30 -14 -67zM301 713q0 -103 54 -155t129 -52
q202 0 271 166q22 53 21 119q0 109 -54 157t-131 47q-206 0 -269 -167q-21 -52 -21 -115zM260 992q131 106 320 106q84 0 155 -21h379l-22 -106h-181l-10 -8q45 -68 45 -162q0 -181 -132 -290q-132 -108 -320 -108q-94 0 -164 25q-99 -51 -99 -111q0 -70 119 -69h279
q137 0 221 -58t84 -192q0 -176 -168 -272q-168 -95 -428 -95q-401 0 -397 228q0 129 143 202q39 20 74 35q-100 37 -101 146q0 146 185 225q-113 82 -113 251q0 168 131 274z" />
    <glyph glyph-name="Hcircumflex" unicode="&#x124;" horiz-adv-x="1492" 
d="M1057 670h-598l-113 -535l23 -29h133l-23 -106h-520l25 106h133l35 29l247 1163l-24 29h-133l24 107h518l-22 -107h-135l-33 -29l-107 -501h598l103 501l-21 29h-133l23 107h520l-23 -107h-135l-35 -29l-245 -1163l22 -29h133l-22 -106h-520l24 106h135l33 29zM690 1548
l-26 41l303 303h69l176 -303l-47 -41h-22l-166 203l-248 -203h-39z" />
    <glyph glyph-name="hcircumflex" unicode="&#x125;" horiz-adv-x="1159" 
d="M197 1583l-29 43l303 301h70l176 -301l-45 -43h-25l-164 205l-250 -205h-36zM819 0q-73 0 -107 27t-16 110l129 604q25 120 -16 175q-27 36 -107 36t-168 -50t-151 -132l-164 -770h-184l291 1360l-21 29h-137l25 106h260q53 -1 64 -23t3 -57l-108 -506q159 187 360 189
q123 0 186 -69t64 -179q0 -47 -12 -102l-131 -617l22 -31h135l-22 -100h-195z" />
    <glyph glyph-name="Hbar" unicode="&#x126;" horiz-adv-x="1495" 
d="M1087 797l46 223h-596l-48 -223h598zM190 1116h172l39 182l-24 29h-133l24 107h518l-22 -107h-135l-33 -29l-39 -182h596l37 182l-21 29h-133l23 107h520l-23 -107h-135l-35 -29l-38 -182h159l-26 -96h-154l-186 -885l22 -29h133l-22 -106h-520l24 106h135l33 29l113 535
h-598l-113 -535l23 -29h133l-23 -106h-520l25 106h133l35 29l188 885h-176z" />
    <glyph glyph-name="hbar" unicode="&#x127;" horiz-adv-x="1159" 
d="M772 1098q123 0 186.5 -68.5t63.5 -179.5q0 -47 -12 -102l-131 -617l22 -31h135l-22 -100h-195q-72 0 -106.5 26.5t-16.5 110.5l129 604q25 120 -9 165.5t-114 45.5t-168 -50t-151 -132l-164 -770h-184l256 1194h-166l18 94h168l15 72l-21 29h-137l25 106h260
q53 0 64 -22.5t3 -57.5l-26 -127h241l-18 -94h-246l-59 -285q161 189 360 189z" />
    <glyph glyph-name="Itilde" unicode="&#x128;" horiz-adv-x="702" 
d="M399 1298l-24 29h-133l24 107h520l-24 -107h-135l-33 -29l-246 -1163l21 -29h135l-23 -106h-520l23 106h133l35 29zM752 1591q-62 1 -100 17t-103 52t-111 37q-48 1 -70 -17t-26 -40l-16 -69h-86l16 74q20 90 66 134t105 44q60 1 97 -17t74 -40t75 -39t81 -17t63 20
t25 42l12 63h84l-18 -78q-16 -80 -60 -123q-46 -43 -108 -43z" />
    <glyph glyph-name="itilde" unicode="&#x129;" horiz-adv-x="585" 
d="M395 1077q55 0 67 -22q11 -23 3 -64l-184 -860l24 -31h133l-20 -100h-195q-73 0 -107 26t-16 111l168 803l-20 31h-137l24 106h260zM241 1458q67 0 166 -55t148 -55q84 0 94 59l15 66h84l-19 -80q-35 -166 -167 -166q-62 0 -101 16t-106 53t-111 37q-45 0 -68 -16
t-26 -39l-15 -70h-86l14 72q23 96 67 137t111 41z" />
    <glyph glyph-name="Imacron" unicode="&#x12a;" horiz-adv-x="702" 
d="M399 1298l-24 29h-133l24 107h520l-24 -107h-135l-33 -29l-246 -1163l21 -29h135l-23 -106h-520l23 106h133l35 29zM346 1753h510l-22 -113h-510z" />
    <glyph glyph-name="imacron" unicode="&#x12b;" horiz-adv-x="585" 
d="M395 1077q55 0 67 -22q11 -23 3 -64l-184 -860l24 -31h133l-20 -100h-195q-73 0 -107 26t-16 111l168 803l-20 31h-137l24 106h260zM147 1395h512l-24 -113h-510z" />
    <glyph glyph-name="Iogonek" unicode="&#x12e;" horiz-adv-x="698" 
d="M-55 -229q0 148 200 229h-186l23 106h133l35 29l247 1163l-24 29h-133l24 107h520l-24 -107h-135l-33 -29l-246 -1163l21 -29h135l-23 -106h-135q-112 -20 -167.5 -58t-77 -71t-21.5 -79q0 -87 115 -87q43 0 89 14.5t68 28.5l21 -57q-94 -60 -230 -60q-196 0 -196 140z
" />
    <glyph glyph-name="iogonek" unicode="&#x12f;" horiz-adv-x="585" 
d="M428 1276q-109 0 -109 98q0 47 33.5 84t91.5 37q108 0 109 -98q0 -49 -34 -85t-91 -36zM395 1077q55 0 66.5 -22.5t3.5 -63.5l-184 -860l24 -31h133l-20 -100h-58q-186 -35 -226 -98.5t-40 -104.5q0 -92 115 -92q81 0 149 43l19 -57q-89 -60 -217 -60q-199 0 -199 140
q0 148 205 231q-95 17 -66 135l168 803l-20 31h-137l24 106h260z" />
    <glyph glyph-name="Idotaccent" unicode="&#x130;" horiz-adv-x="702" 
d="M399 1298l-24 29h-133l24 107h520l-24 -107h-135l-33 -29l-246 -1163l21 -29h135l-23 -106h-520l23 106h133l35 29zM713 1724q0 -46 -39 -86q-40 -40 -94 -39q-54 0 -80 28t-25 74q0 46 38 85t92 39t81 -28q27 -27 27 -73z" />
    <glyph glyph-name="dotlessi" unicode="&#x131;" horiz-adv-x="585" 
d="M395 1077q55 0 66.5 -22.5t3.5 -63.5l-184 -860l24 -31h133l-20 -100h-195q-72 0 -106.5 25.5t-16.5 111.5l168 803l-20 31h-137l24 106h260z" />
    <glyph glyph-name="IJ" unicode="&#x132;" horiz-adv-x="1337" 
d="M535 -20q-219 0 -286 48t-79 56l57 262h131l-39 -178l17 -27q62 -41 196 -41q270 0 328 273l199 925l-25 29h-131l23 107h518l-23 -107h-135l-33 -29l-192 -909q-41 -199 -174 -304t-352 -105zM385 1298l-23 29h-133l23 107h520l-24 -107h-134l-34 -29l-150 -716l21 -29
h137l-25 -107h-520l25 107h131l37 29z" />
    <glyph glyph-name="ij" unicode="&#x133;" horiz-adv-x="1144" 
d="M444 1495q108 -1 109 -99q0 -48 -34 -84t-91 -36q-109 0 -109 98q0 47 34 84q33 37 91 37zM395 1077q55 0 67 -22q11 -23 3 -64l-184 -860l24 -31h133l-20 -100h-195q-73 0 -107 26t-16 111l168 803l-20 31h-137l24 106h260zM1040 1495q108 -1 107 -99q0 -48 -34 -84
t-91 -36q-109 0 -109 98q0 47 34 84q35 37 93 37zM991 1077q53 0 66 -22q12 -23 2 -64l-211 -991q-38 -189 -129 -279t-270 -90q-83 0 -158 15l43 209h110l-22 -103l20 -26h21q82 0 128 70t73 196l202 948l-22 31h-137l24 106h260z" />
    <glyph glyph-name="Jcircumflex" unicode="&#x134;" horiz-adv-x="1056" 
d="M264 102q135 0 211 68t105 203l196 925l-22 29h-133l24 107h518l-24 -107h-133l-35 -29l-193 -909q-41 -199 -165 -304t-324 -105t-311 78q-24 17 -33 26l59 274h129l-39 -188l17 -27q63 -41 153 -41zM686 1548l-27 41l304 303h69l176 -303l-47 -41h-22l-166 203
l-248 -203h-39z" />
    <glyph glyph-name="jcircumflex" unicode="&#x135;" horiz-adv-x="552" 
d="M121 1186l-29 43l303 301h70l176 -301l-45 -43h-25l-163 205l-250 -205h-37zM-130 -369q-95 0 -171 15l43 209h111l-23 -103l20 -26h21q82 0 128 70t73 196l200 948l-20 31h-137l24 106h260q53 0 66 -22q12 -23 2 -64l-211 -991q-18 -90 -48 -159q-91 -210 -338 -210z
" />
    <glyph glyph-name="uni0136" unicode="&#x136;" horiz-adv-x="1411" 
d="M471 -296q0 46 32 82t80 36q49 0 75 -24t26 -63t-41 -93l-156 -207q-4 0 -32 18l-33 21l90 125l-4 39q-37 20 -37 66zM481 0h-520l23 106h133l35 29l247 1163l-24 29h-133l24 107h520l-24 -107h-135l-33 -29l-109 -507h195l510 518l-10 18h-119l24 107h453l-25 -107h-116
l-33 -18l-535 -535l301 -647l21 -21h125l-23 -106h-503l20 106h135l15 15l-248 555h-211l-113 -543l21 -27h133z" />
    <glyph glyph-name="uni0137" unicode="&#x137;" horiz-adv-x="1157" 
d="M322 -296q0 46 31 82q32 36 80 36t75 -24t27 -62t-41 -94l-156 -207q-4 0 -33 18l-33 21l90 125l-4 39q-36 20 -36 66zM838 0q-68 0 -100 30t-58 93l-186 422h-160l-115 -545h-184l291 1360l-21 29h-137l25 106h260q53 -1 64 -23t3 -57l-166 -774h148l372 317l-6 13h-110
l22 106h432l-24 -106h-121l-39 -25l-377 -313l236 -508l26 -25h115l-18 -100h-172z" />
    <glyph glyph-name="kgreenlandic" unicode="&#x138;" horiz-adv-x="1187" 
d="M866 0q-68 0 -99.5 29.5t-57.5 93.5l-185 422h-157l-115 -545h-184l200 940l-20 31h-137l24 106h258q55 0 67.5 -22.5t2.5 -63.5l-76 -350h150l372 317l-6 13h-106l24 106h424l-24 -106h-113l-37 -19l-385 -317l238 -510l26 -25h111l-19 -100h-176z" />
    <glyph glyph-name="Lacute" unicode="&#x139;" horiz-adv-x="1157" 
d="M555 1548l-39 56l289 284h41l63 -104l-321 -236h-33zM346 127h512l37 29l41 190h115l-74 -346h-1016l23 106h133l35 29l247 1163l-24 29h-133l24 107h520l-24 -107h-135l-33 -29z" />
    <glyph glyph-name="lacute" unicode="&#x13a;" horiz-adv-x="552" 
d="M735 1925l64 -102l-322 -236h-33l-38 55l288 283h41zM457 1495q53 -1 63 -23t2 -57l-274 -1284l24 -31h134l-21 -100h-195q-68 0 -104 26t-18 109l262 1225l-21 29h-137l25 106h260z" />
    <glyph glyph-name="uni013B" unicode="&#x13b;" horiz-adv-x="1157" 
d="M511 -178q48 0 75 -24q63 -56 -15 -156l-155 -207q-4 0 -33 18l-33 21l90 125l-4 39q-35 19 -36 66q-1 46 31 82t80 36zM346 127h512l37 29l41 190h115l-74 -346h-1016l23 106h133l35 29l247 1163l-24 29h-133l24 107h520l-24 -107h-135l-33 -29z" />
    <glyph glyph-name="uni013C" unicode="&#x13c;" horiz-adv-x="555" 
d="M128 -178q48 0 75 -24q63 -56 -15 -156l-155 -207q-4 0 -33 18l-33 21l90 125l-4 39q-35 19 -36 66q-1 46 31 82t80 36zM457 1495q53 -1 63 -23t2 -57l-274 -1284l24 -31h134l-21 -100h-195q-68 0 -104 26t-18 109l262 1225l-21 29h-137l25 106h260z" />
    <glyph glyph-name="Lcaron" unicode="&#x13d;" horiz-adv-x="1161" 
d="M995 1192l80 405h125l-33 -165l-69 -240h-103zM344 127h512l37 29l41 190h115l-74 -346h-1016l23 106h133l35 29l247 1163l-24 29h-133l24 107h520l-24 -107h-135l-33 -29z" />
    <glyph glyph-name="lcaron" unicode="&#x13e;" horiz-adv-x="608" 
d="M608 1192l80 405h125l-33 -165l-69 -240h-103zM457 1495q53 -1 63 -23t2 -57l-274 -1284l24 -31h134l-21 -100h-195q-68 0 -104 26t-18 109l262 1225l-21 29h-137l25 106h260z" />
    <glyph glyph-name="Ldot" unicode="&#x13f;" horiz-adv-x="1200" 
d="M987 649q-53 -1 -79 27t-27 73q0 45 37 87t92 41q55 0 82 -29q26 -29 26 -75t-39 -85t-92 -39zM346 127h512l37 29l41 190h115l-74 -346h-1016l23 106h133l35 29l247 1163l-24 29h-133l24 107h520l-24 -107h-135l-33 -29z" />
    <glyph glyph-name="ldot" unicode="&#x140;" horiz-adv-x="724" 
d="M643 637q-53 -1 -79 27t-27 73q0 45 36 86q37 41 93 41t82 -28t26 -75q0 -46 -39 -85t-92 -39zM457 1495q53 -1 63 -23t2 -57l-274 -1284l24 -31h134l-21 -100h-195q-68 0 -104 26t-18 109l262 1225l-21 29h-137l25 106h260z" />
    <glyph glyph-name="Lslash" unicode="&#x141;" horiz-adv-x="1157" 
d="M494 823l301 158l-27 -123l-301 -158l-121 -573h514l35 29l41 190h117l-74 -346h-1018l25 106h131l37 29l94 453l-199 -103l25 123l200 105l125 585l-22 29h-135l24 107h520l-24 -107h-135l-33 -29z" />
    <glyph glyph-name="lslash" unicode="&#x142;" horiz-adv-x="620" 
d="M492 1495q53 0 63 -22.5t2 -57.5l-125 -584l244 140l-29 -125l-241 -137l-123 -578l24 -31h133l-20 -100h-195q-70 0 -104.5 25.5t-18.5 109.5l99 457l-181 -100l27 122l180 103l138 643l-23 29h-135l24 106h261z" />
    <glyph glyph-name="Nacute" unicode="&#x143;" horiz-adv-x="1464" 
d="M907 1548l-39 56l289 284h41l64 -104l-322 -236h-33zM983 -4l-475 1139l-213 -1000l22 -29h136l-23 -106h-471l21 106h133l37 29l247 1163l-24 29h-133l24 107h314l446 -1088l203 952l-21 29h-135l25 107h471l-25 -107h-133l-37 -29l-274 -1302h-115z" />
    <glyph glyph-name="nacute" unicode="&#x144;" horiz-adv-x="1189" 
d="M1022 1530l63 -103l-321 -235h-33l-39 55l289 283h41zM391 1077q53 0 64 -22q10 -23 2 -60l-19 -88h4q62 74 154 132q92 59 212 59t183 -69t64 -179q0 -47 -13 -102l-133 -617l23 -31h135l-20 -100h-195q-72 0 -107 26t-16 111l129 604q10 47 10 93t-27 82t-87 36
t-120 -18t-123 -71q-63 -52 -95 -91l-164 -772h-184l200 940l-22 31h-137l24 106h258z" />
    <glyph glyph-name="uni0145" unicode="&#x145;" horiz-adv-x="1464" 
d="M455 -296q0 46 31 82q32 36 80 36t75 -24t27 -62t-41 -94l-156 -207q-4 0 -33 18l-32 21l90 125l-4 39q-37 20 -37 66zM983 -4l-475 1139l-213 -1000l22 -29h136l-23 -106h-471l21 106h133l37 29l247 1163l-24 29h-133l24 107h314l446 -1088l203 952l-21 29h-135l25 107
h471l-25 -107h-133l-37 -29l-274 -1302h-115z" />
    <glyph glyph-name="uni0146" unicode="&#x146;" horiz-adv-x="1189" 
d="M348 -296q0 46 32 82t80 36t75 -24q63 -56 -15 -156l-155 -207q-4 0 -33 18l-33 21l90 125l-4 39q-37 20 -37 66zM391 1077q53 0 64 -22q10 -23 2 -60l-19 -88h4q62 74 154 132q92 59 212 59t183 -69t64 -179q0 -47 -13 -102l-133 -617l23 -31h135l-20 -100h-195
q-72 0 -107 26t-16 111l129 604q10 47 10 93t-27 82t-87 36t-120 -18t-123 -71q-63 -52 -95 -91l-164 -772h-184l200 940l-22 31h-137l24 106h258z" />
    <glyph glyph-name="Ncaron" unicode="&#x147;" horiz-adv-x="1464" 
d="M983 -4l-475 1139l-213 -1000l22 -29h136l-23 -106h-471l21 106h133l37 29l247 1163l-24 29h-133l24 107h314l446 -1088l203 952l-21 29h-135l25 107h471l-25 -107h-133l-37 -29l-274 -1302h-115zM948 1548h-67l-176 301l43 43h26l162 -204l252 204h37l28 -43z" />
    <glyph glyph-name="ncaron" unicode="&#x148;" horiz-adv-x="1189" 
d="M791 1192h-68l-176 301l43 41h26l164 -203l250 203h37l29 -41zM391 1077q53 0 64 -22q10 -23 2 -60l-19 -88h4q62 74 154 132q92 59 212 59t183 -69t64 -179q0 -47 -13 -102l-133 -617l23 -31h135l-20 -100h-195q-72 0 -107 26t-16 111l129 604q10 47 10 93t-27 82
t-87 36t-120 -18t-123 -71q-63 -52 -95 -91l-164 -772h-184l200 940l-22 31h-137l24 106h258z" />
    <glyph glyph-name="napostrophe" unicode="&#x149;" horiz-adv-x="1189" 
d="M244 1459q0 46 31 82q32 36 80 36t75 -24t27 -62t-41 -94l-156 -207q-4 0 -33 18l-32 21l90 125l-4 39q-37 20 -37 66zM391 1077q53 0 64 -22q10 -23 2 -60l-19 -88h4q62 74 154 132q92 59 212 59t183 -69t64 -179q0 -47 -13 -102l-133 -617l23 -31h135l-20 -100h-195
q-72 0 -107 26t-16 111l129 604q10 47 10 93t-27 82t-87 36t-120 -18t-123 -71q-63 -52 -95 -91l-164 -772h-184l200 940l-22 31h-137l24 106h258z" />
    <glyph glyph-name="Omacron" unicode="&#x14c;" horiz-adv-x="1370" 
d="M305 464q0 -175 68 -263t231 -88t278 141q116 141 170 341t54 374t-68 263t-229 89q-162 0 -289 -153q-107 -130 -161 -330q-54 -199 -54 -374zM411 1297q174 157 412 157q237 0 362 -142q126 -142 126 -368q0 -351 -170 -637q-119 -200 -322 -284q-102 -43 -227 -43
q-240 0 -365 141t-125 366q0 364 169 641q58 96 140 169zM700 1753h510l-22 -113h-510z" />
    <glyph glyph-name="omacron" unicode="&#x14d;" horiz-adv-x="1118" 
d="M473 1395h512l-24 -113h-510zM63 433q0 138 49 269q96 261 305 352q101 44 199 44q188 0 298 -106t110 -293q0 -344 -168 -532q-168 -187 -395 -187q-178 0 -285 105q-53 52 -83 131t-30 217zM836 698q0 279 -199 279q-175 0 -283 -179q-102 -170 -102 -424
q0 -132 50 -204t167 -72q157 0 262 179t105 421z" />
    <glyph glyph-name="Obreve" unicode="&#x14e;" horiz-adv-x="1370" 
d="M305 464q0 -175 68 -263t231 -88t278 141q116 141 170 341t54 374t-68 263t-229 89q-162 0 -289 -153q-107 -130 -161 -330q-54 -199 -54 -374zM411 1297q174 157 412 157q237 0 362 -142q126 -142 126 -368q0 -351 -170 -637q-119 -200 -322 -284q-102 -43 -227 -43
q-240 0 -365 141t-125 366q0 364 169 641q58 96 140 169zM940 1681q70 0 118 43t72 99l82 -19q-34 -96 -111 -163q-77 -66 -181 -66t-154 69q-47 60 -47 160l92 23q0 -57 29 -101q30 -44 100 -45z" />
    <glyph glyph-name="obreve" unicode="&#x14f;" horiz-adv-x="1118" 
d="M63 433q0 138 49 269q96 261 305 352q101 44 199 44q188 0 298 -106t110 -293q0 -344 -168 -532q-168 -187 -395 -187q-178 0 -285 105q-53 52 -83 131t-30 217zM836 698q0 279 -199 279q-175 0 -283 -179q-102 -170 -102 -424q0 -132 50 -204t167 -72q157 0 262 179
t105 421zM712 1321q72 0 118 43t73 98l82 -20q-57 -160 -190 -214q-47 -20 -101 -20q-101 -1 -152 65q-50 66 -50 169l92 24q0 -57 28 -101t100 -44z" />
    <glyph glyph-name="Ohungarumlaut" unicode="&#x150;" horiz-adv-x="1370" 
d="M1008 1548l-25 47l299 265h39l55 -82l-340 -230h-28zM772 1548l-29 47l258 293h39l68 -71l-307 -269h-29zM305 464q0 -175 68 -263t231 -88t278 141q116 141 170 341t54 374t-68 263t-229 89q-162 0 -289 -153q-107 -130 -161 -330q-54 -199 -54 -374zM411 1297
q174 157 412 157q237 0 362 -142q126 -142 126 -368q0 -351 -170 -637q-119 -200 -322 -284q-102 -43 -227 -43q-240 0 -365 141t-125 366q0 364 169 641q58 96 140 169z" />
    <glyph glyph-name="ohungarumlaut" unicode="&#x151;" horiz-adv-x="1118" 
d="M784 1192l-24 45l299 266h39l55 -82l-340 -229h-29zM551 1192l-31 45l258 293h39l68 -72l-307 -266h-27zM63 433q0 138 49 269q96 261 305 352q101 44 199 44q188 0 298 -106t110 -293q0 -344 -168 -532q-168 -187 -395 -187q-178 0 -285 105q-53 52 -83 131t-30 217z
M836 698q0 279 -199 279q-175 0 -283 -179q-102 -170 -102 -424q0 -132 50 -204t167 -72q157 0 262 179t105 421z" />
    <glyph glyph-name="OE" unicode="&#x152;" horiz-adv-x="1947" 
d="M309 467q1 -361 295 -361q146 0 240 33l246 1149q-98 39 -233 39q-258 0 -403 -239t-145 -621zM844 1454q180 0 301 -20h864l-72 -328h-114l37 180l-23 27h-549l-108 -522h368l33 28l29 135h106l-94 -440h-106l26 135l-22 27h-367l-117 -555h568l36 29l37 174h117
l-70 -324h-878q-109 -20 -250 -20q-238 0 -365 130t-127 388q0 396 141.5 597t280 280t318.5 79z" />
    <glyph glyph-name="oe" unicode="&#x153;" horiz-adv-x="1751" 
d="M1378 981q-134 0 -236.5 -112.5t-129.5 -329.5q229 26 320 60t147.5 86t56.5 135t-47 122t-111 39zM250 372q0 -130 50 -202t167 -72q157 0 263 179t106 425q0 135 -50.5 205t-167.5 70q-158 0 -263 -175.5t-105 -429.5zM471 -20q-188 0 -298 108t-110 295
q0 188 48.5 319.5t126 218.5t179 131t213.5 44t198.5 -57.5t127.5 -174.5q82 115 196 174.5t245 59.5t220 -68.5t89 -198.5t-135 -231t-320.5 -128.5t-249.5 -35.5v-45q0 -143 69 -216t201 -73t263 95l39 -80q-159 -137 -367 -137q-123 0 -218 52t-138 165
q-76 -109 -178.5 -163t-200.5 -54z" />
    <glyph glyph-name="Racute" unicode="&#x154;" horiz-adv-x="1380" 
d="M879 1434q207 0 321 -80t113 -258q0 -178 -120 -291q-120 -112 -298 -129v-2q67 -12 107 -58t55 -149l41 -334l28 -27h105l-25 -106h-221q-47 0 -65 25t-23 59l-45 381q-15 137 -108 148q-26 3 -54 3h-241l-101 -483l21 -27h143l-23 -106h-528l23 106h133l35 29l247 1163
l-24 29h-133l24 107h613zM725 739q184 0 284 91q99 91 99 268q0 106 -62 159t-200 54h-250l-121 -572h250zM885 1548l-39 56l289 284h41l63 -104l-321 -236h-33z" />
    <glyph glyph-name="racute" unicode="&#x155;" horiz-adv-x="817" 
d="M838 1530l63 -103l-321 -235h-33l-39 55l289 283h41zM799 1098q29 0 47 -3t24 -3l-71 -338h-113l35 157l-25 29q-88 -10 -162 -63t-122 -121l-160 -756h-184l200 940l-22 31h-137l24 106h258q53 0 64 -23q10 -24 0 -61l-21 -96h8q171 201 357 201z" />
    <glyph glyph-name="uni0156" unicode="&#x156;" horiz-adv-x="1380" 
d="M558 -178q48 0 75 -24q63 -56 -15 -156l-155 -207q-4 0 -33 18l-33 21l90 125l-4 39q-35 19 -36 66q-1 46 31 82t80 36zM879 1434q207 0 321 -80t113 -258q0 -178 -120 -291q-120 -112 -298 -129v-2q67 -12 107 -58t55 -149l41 -334l28 -27h105l-25 -106h-221
q-47 0 -65 25t-23 59l-45 381q-15 137 -108 148q-26 3 -54 3h-241l-101 -483l21 -27h143l-23 -106h-528l23 106h133l35 29l247 1163l-24 29h-133l24 107h613zM725 739q184 0 284 91q99 91 99 268q0 106 -62 159t-200 54h-250l-121 -572h250z" />
    <glyph glyph-name="uni0157" unicode="&#x157;" horiz-adv-x="817" 
d="M8 -296q0 46 32 82t80 36t75 -24q63 -56 -15 -156l-155 -207q-4 0 -33 18l-33 21l90 125l-4 39q-37 20 -37 66zM799 1098q29 0 47 -3t24 -3l-71 -338h-113l35 157l-25 29q-88 -10 -162 -63t-122 -121l-160 -756h-184l200 940l-22 31h-137l24 106h258q53 0 64 -23
q10 -24 0 -61l-21 -96h8q171 201 357 201z" />
    <glyph glyph-name="Rcaron" unicode="&#x158;" horiz-adv-x="1380" 
d="M879 1434q207 0 321 -80t113 -258q0 -178 -120 -291q-120 -112 -298 -129v-2q67 -12 107 -58t55 -149l41 -334l28 -27h105l-25 -106h-221q-47 0 -65 25t-23 59l-45 381q-15 137 -108 148q-26 3 -54 3h-241l-101 -483l21 -27h143l-23 -106h-528l23 106h133l35 29l247 1163
l-24 29h-133l24 107h613zM725 739q184 0 284 91q99 91 99 268q0 106 -62 159t-200 54h-250l-121 -572h250zM928 1548h-68l-176 301l43 43h27l161 -204l252 204h37l29 -43z" />
    <glyph glyph-name="rcaron" unicode="&#x159;" horiz-adv-x="817" 
d="M606 1192h-67l-177 301l44 41h26l164 -203l250 203h37l28 -41zM799 1098q29 0 47 -3t24 -3l-71 -338h-113l35 157l-25 29q-88 -10 -162 -63t-122 -121l-160 -756h-184l200 940l-22 31h-137l24 106h258q53 0 64 -23q10 -24 0 -61l-21 -96h8q171 201 357 201z" />
    <glyph glyph-name="Sacute" unicode="&#x15a;" horiz-adv-x="1138" 
d="M1008 450q0 -228 -165 -350t-437 -120q-149 0 -256 20t-154 39l70 330h129l-45 -205l26 -35q86 -23 261 -24q176 -1 277 81t101 211q0 91 -62 149t-218 114q-326 117 -326 344t153 339q153 111 414 111q150 0 268 -27q57 -10 105 -24l-70 -316h-125l39 193l-26 31
q-93 20 -203 20q-172 1 -270 -65t-99 -189q0 -89 58 -146t220 -125q161 -67 248 -151t87 -205zM799 1548l-39 56l289 284h41l63 -104l-322 -236h-32z" />
    <glyph glyph-name="sacute" unicode="&#x15b;" horiz-adv-x="925" 
d="M864 1530l64 -103l-322 -235h-33l-38 55l288 283h41zM305 823q0 -75 42 -115t169 -86q268 -97 268 -278q0 -180 -136 -273t-343 -91q-209 0 -323 49l53 256h119l-31 -152l20 -24q76 -21 194 -21q117 0 194 56t77 136t-49 122t-145 75q-161 55 -220 128q-59 72 -59 163
q0 150 118 240t337 90q149 0 293 -37l-54 -254h-116l28 145l-18 23q-72 16 -168 16t-173 -46t-77 -122z" />
    <glyph glyph-name="Scircumflex" unicode="&#x15c;" horiz-adv-x="1138" 
d="M1008 450q0 -228 -165 -350t-437 -120q-149 0 -256 20t-154 39l70 330h129l-45 -205l26 -35q86 -23 261 -24q176 -1 277 81t101 211q0 91 -62 149t-218 114q-326 117 -326 344t153 339q153 111 414 111q150 0 268 -27q57 -10 105 -24l-70 -316h-125l39 193l-26 31
q-93 20 -203 20q-172 1 -270 -65t-99 -189q0 -89 58 -146t220 -125q161 -67 248 -151t87 -205zM555 1548l-27 41l303 303h70l176 -303l-47 -41h-22l-166 203l-248 -203h-39z" />
    <glyph glyph-name="scircumflex" unicode="&#x15d;" horiz-adv-x="925" 
d="M350 1186l-28 43l303 301h69l176 -301l-45 -43h-24l-164 205l-250 -205h-37zM305 823q0 -75 42 -115t169 -86q268 -97 268 -278q0 -180 -136 -273t-343 -91q-209 0 -323 49l53 256h119l-31 -152l20 -24q76 -21 194 -21q117 0 194 56t77 136t-49 122t-145 75
q-161 55 -220 128q-59 72 -59 163q0 150 118 240t337 90q149 0 293 -37l-54 -254h-116l28 145l-18 23q-72 16 -168 16t-173 -46t-77 -122z" />
    <glyph glyph-name="Scedilla" unicode="&#x15e;" horiz-adv-x="1138" 
d="M395 -217q0 68 -172 88l6 27l83 84q-199 10 -316 57l70 330h129l-45 -205l26 -35q86 -23 261 -24q176 -1 277 81t101 211q0 91 -62 149t-218 114q-326 117 -326 344t153 339q153 111 414 111q150 0 268 -27q57 -10 105 -24l-70 -316h-125l39 193l-26 31q-93 20 -203 20
q-172 1 -270 -65t-99 -189q0 -89 58 -146t220 -125q161 -67 248 -151t87 -205q0 -228 -164 -349t-429 -121l-61 -64q172 -9 172 -119q0 -87 -72 -125t-156 -40q-142 -2 -212 49l39 65q61 -41 149 -41q121 0 121 78z" />
    <glyph glyph-name="scedilla" unicode="&#x15f;" horiz-adv-x="927" 
d="M322 -217q0 68 -172 88l6 27l82 83q-164 9 -256 48l53 256h119l-31 -152l20 -24q76 -21 194 -21q117 0 194 56t77 136t-49 122t-145 75q-161 55 -220 128q-59 72 -59 163q0 150 118 240t337 90q149 0 293 -37l-54 -254h-116l28 145l-18 23q-72 16 -168 16t-173 -46
t-77 -122q0 -75 42 -115t169 -86q268 -97 268 -278q0 -180 -136 -272q-120 -83 -306 -92l-61 -64q172 -9 172 -119q0 -86 -72 -125t-156 -40q-143 -2 -213 49l39 65q62 -41 150 -41q121 0 121 78z" />
    <glyph glyph-name="Scaron" unicode="&#x160;" horiz-adv-x="1138" 
d="M1008 450q0 -228 -165 -350t-437 -120q-149 0 -256 20t-154 39l70 330h129l-45 -205l26 -35q86 -23 261 -24q176 -1 277 81t101 211q0 91 -62 149t-218 114q-326 117 -326 344t153 339q153 111 414 111q150 0 268 -27q57 -10 105 -24l-70 -316h-125l39 193l-26 31
q-93 20 -203 20q-172 1 -270 -65t-99 -189q0 -89 58 -146t220 -125q161 -67 248 -151t87 -205zM840 1548h-68l-176 301l43 43h27l161 -204l252 204h37l29 -43z" />
    <glyph glyph-name="scaron" unicode="&#x161;" horiz-adv-x="925" 
d="M635 1192h-68l-176 301l43 41h27l164 -203l249 203h37l29 -41zM305 823q0 -75 42 -115t169 -86q268 -97 268 -278q0 -180 -136 -273t-343 -91q-209 0 -323 49l53 256h119l-31 -152l20 -24q76 -21 194 -21q117 0 194 56t77 136t-49 122t-145 75q-161 55 -220 128
q-59 72 -59 163q0 150 118 240t337 90q149 0 293 -37l-54 -254h-116l28 145l-18 23q-72 16 -168 16t-173 -46t-77 -122z" />
    <glyph glyph-name="uni0162" unicode="&#x162;" horiz-adv-x="1159" 
d="M596 -203q0 -86 -72 -125t-156 -40q-144 -2 -212 49l39 65q62 -41 149 -41q121 0 121 78q0 68 -172 88l6 27l101 102h-224l23 106h145l35 29l246 1174h-275l-37 -29l-34 -178h-119l71 332h1041l-72 -332h-119l37 178l-22 29h-277l-246 -1174l21 -29h151l-24 -106h-216
l-81 -84q172 -9 172 -119z" />
    <glyph glyph-name="uni0163" unicode="&#x163;" horiz-adv-x="636" 
d="M416 -203q0 -86 -72 -125t-156 -40q-143 -2 -213 49l39 65q62 -41 150 -41q121 0 121 78q0 68 -172 88l6 27l89 90q-73 4 -107 43t-13 135l172 805h-129l21 102h100l35 29l119 270h120l-63 -299h217l-21 -102h-217l-180 -840l25 -31h227l-22 -100q-129 -10 -178 -11
l-70 -73q172 -9 172 -119z" />
    <glyph glyph-name="Tcaron" unicode="&#x164;" horiz-adv-x="1159" 
d="M231 1434h1041l-72 -332h-119l37 178l-22 29h-277l-246 -1174l21 -29h151l-24 -106h-545l23 106h145l35 29l246 1174h-275l-37 -29l-34 -178h-119zM819 1548h-67l-177 301l43 43h27l162 -204l252 204h37l28 -43z" />
    <glyph glyph-name="tcaron" unicode="&#x165;" horiz-adv-x="636" 
d="M641 1192l80 405h125l-33 -165l-70 -240h-102zM103 29q-36 41 -15 137l172 805h-129l21 102h100l35 29l119 270h120l-63 -299h217l-21 -102h-217l-180 -840l25 -31h227l-22 -100q-159 -12 -256 -12t-133 41z" />
    <glyph glyph-name="Tbar" unicode="&#x166;" horiz-adv-x="1167" 
d="M236 1434h1040l-74 -332h-117l35 178l-20 29h-277l-110 -523h229l-24 -96h-226l-114 -555l20 -29h150l-23 -106h-547l25 106h143l37 29l115 555h-250l24 96h246l111 523h-275l-37 -29l-36 -178h-119z" />
    <glyph glyph-name="tbar" unicode="&#x167;" horiz-adv-x="641" 
d="M103.5 29q-35.5 41 -15.5 137l86 397h-113l21 96h111l67 312h-129l21 102h100l35 29l119 270h120l-63 -299h217l-21 -102h-217l-67 -312h217l-17 -96h-221l-92 -432l25 -31h227l-22 -100q-159 -12 -256 -12t-132.5 41z" />
    <glyph glyph-name="Utilde" unicode="&#x168;" horiz-adv-x="1413" 
d="M188 330q0 88 17 151l172 817l-23 29h-133l25 107h520l-25 -107h-135l-35 -29l-172 -819q-16 -62 -16 -139q0 -117 62 -174q63 -57 203 -57t224 91t125 279l174 819l-24 29h-133l24 107h484l-23 -107h-135l-33 -29l-174 -817q-55 -264 -193 -382t-343 -117
q-433 0 -433 348zM1116 1591q-62 1 -101 17q-38 16 -104 52t-111 37q-46 1 -69 -17t-26 -40l-17 -69h-86l16 74q20 90 66 134t113 44q68 1 135 -39q66 -40 104 -57t80 -17q44 0 64 20t24 42l13 63h83l-18 -78q-16 -80 -60 -123t-106 -43z" />
    <glyph glyph-name="utilde" unicode="&#x169;" horiz-adv-x="1181" 
d="M709 170q-162 -190 -357 -190q-117 0 -180 68t-63 177q0 49 12 105l131 610l-25 31h-133l23 106h194q70 1 106 -27t17 -110l-131 -606q-8 -40 -8 -86t28 -85q27 -38 105 -38t161 51t148 131l164 770h182l-200 -944l22 -33h135l-12 -49q-4 -10 -5 -19t-7 -32h-185
q-71 0 -95 15q-45 27 -34 98l13 57h-6zM550 1458q67 0 166 -55t148 -55q84 0 94 59l15 66h84l-19 -80q-36 -166 -168 -166q-62 0 -100 16q-39 17 -76 37q-36 20 -72 36t-75 17q-39 0 -62 -16t-26 -39l-15 -70h-86l15 72q23 96 66 137q44 41 111 41z" />
    <glyph glyph-name="Umacron" unicode="&#x16a;" horiz-adv-x="1413" 
d="M188 330q0 88 17 151l172 817l-23 29h-133l25 107h520l-25 -107h-135l-35 -29l-172 -819q-16 -62 -16 -139q0 -117 62 -174q63 -57 203 -57t224 91t125 279l174 819l-24 29h-133l24 107h484l-23 -107h-135l-33 -29l-174 -817q-55 -264 -193 -382t-343 -117
q-433 0 -433 348zM707 1753h510l-23 -113h-510z" />
    <glyph glyph-name="umacron" unicode="&#x16b;" horiz-adv-x="1181" 
d="M709 170q-162 -190 -357 -190q-117 0 -180 68t-63 177q0 49 12 105l131 610l-25 31h-133l23 106h194q70 1 106 -27t17 -110l-131 -606q-8 -40 -8 -86t28 -85q27 -38 105 -38t161 51t148 131l164 770h182l-200 -944l22 -33h135l-12 -49q-4 -10 -5 -19t-7 -32h-185
q-71 0 -95 15q-45 27 -34 98l13 57h-6zM461 1395h512l-25 -113h-510z" />
    <glyph glyph-name="Ubreve" unicode="&#x16c;" horiz-adv-x="1413" 
d="M188 330q0 88 17 151l172 817l-23 29h-133l25 107h520l-25 -107h-135l-35 -29l-172 -819q-16 -62 -16 -139q0 -117 62 -174q63 -57 203 -57t224 91t125 279l174 819l-24 29h-133l24 107h484l-23 -107h-135l-33 -29l-174 -817q-55 -264 -193 -382t-343 -117
q-433 0 -433 348zM929 1575q-103 0 -152 65q-50 65 -50 164l92 23q0 -57 29 -101q30 -44 100 -45q70 0 118 43t73 99l82 -19q-35 -97 -112 -163t-180 -66z" />
    <glyph glyph-name="ubreve" unicode="&#x16d;" horiz-adv-x="1181" 
d="M709 170q-162 -190 -357 -190q-117 0 -180 68t-63 177q0 49 12 105l131 610l-25 31h-133l23 106h194q70 1 106 -27t17 -110l-131 -606q-8 -40 -8 -86t28 -85q27 -38 105 -38t161 51t148 131l164 770h182l-200 -944l22 -33h135l-12 -49q-4 -10 -5 -19t-7 -32h-185
q-71 0 -95 15q-45 27 -34 98l13 57h-6zM700 1321q70 0 117 43t74 98l82 -20q-35 -97 -110 -165q-75 -67 -179 -68q-103 -1 -154 65t-51 168l92 24q0 -57 29 -101q30 -44 100 -44z" />
    <glyph glyph-name="Uring" unicode="&#x16e;" horiz-adv-x="1413" 
d="M829 1679q0 -86 103 -86q66 0 106 34t41 95q0 88 -104 88q-66 0 -106 -35t-40 -96zM1002 1872q70 0 125 -38t55 -98q1 -103 -72 -155q-72 -51 -172 -51t-157 36q-56 36 -56 97t20 99q57 110 257 110zM188 330q0 88 17 151l172 817l-23 29h-133l25 107h520l-25 -107h-135
l-35 -29l-172 -819q-16 -62 -16 -139q0 -117 62 -174q63 -57 203 -57t224 91t125 279l174 819l-24 29h-133l24 107h484l-23 -107h-135l-33 -29l-174 -817q-55 -264 -193 -382t-343 -117q-433 0 -433 348z" />
    <glyph glyph-name="uring" unicode="&#x16f;" horiz-adv-x="1181" 
d="M586 1321q0 -84 104 -84q66 0 107 35t41 94q0 84 -107 84q-63 0 -104 -35t-41 -94zM758 1516q70 0 126 -38t56 -100q0 -108 -74 -156t-172 -48t-154 36t-56 96t20 98q58 112 254 112zM709 170q-162 -190 -357 -190q-117 0 -180 68t-63 177q0 49 12 105l131 610l-25 31
h-133l23 106h194q70 1 106 -27t17 -110l-131 -606q-8 -40 -8 -86t28 -85q27 -38 105 -38t161 51t148 131l164 770h182l-200 -944l22 -33h135l-12 -49q-4 -10 -5 -19t-7 -32h-185q-71 0 -95 15q-45 27 -34 98l13 57h-6z" />
    <glyph glyph-name="Uhungarumlaut" unicode="&#x170;" horiz-adv-x="1413" 
d="M1014 1548l-25 47l299 265h39l55 -82l-340 -230h-28zM778 1548l-28 47l258 293h39l67 -71l-307 -269h-29zM188 330q0 88 17 151l172 817l-23 29h-133l25 107h520l-25 -107h-135l-35 -29l-172 -819q-16 -62 -16 -139q0 -117 62 -174q63 -57 203 -57t224 91t125 279
l174 819l-24 29h-133l24 107h484l-23 -107h-135l-33 -29l-174 -817q-55 -264 -193 -382t-343 -117q-433 0 -433 348z" />
    <glyph glyph-name="uhungarumlaut" unicode="&#x171;" horiz-adv-x="1181" 
d="M709 170q-162 -190 -357 -190q-117 0 -180 68t-63 177q0 49 12 105l131 610l-25 31h-133l23 106h194q70 1 106 -27t17 -110l-131 -606q-8 -40 -8 -86t28 -85q27 -38 105 -38t161 51t148 131l164 770h182l-200 -944l22 -33h135l-12 -49q-4 -10 -5 -19t-7 -32h-185
q-71 0 -95 15q-45 27 -34 98l13 57h-6zM772 1192l-24 45l299 266h38l56 -82l-340 -229h-29zM539 1192l-31 45l258 293h39l67 -72l-307 -266h-26z" />
    <glyph glyph-name="Uogonek" unicode="&#x172;" horiz-adv-x="1415" 
d="M592 -203q0 -86 108 -86q48 0 95 14.5t69 28.5l19 -63q-94 -60 -228 -60q-196 0 -196 140q0 76 51 124t125 87h-25q-422 4 -422 348q0 81 17 151l172 817l-23 29h-133l25 107h520l-25 -107h-135l-35 -29l-172 -819q-16 -62 -16 -139q0 -117 62.5 -174t202.5 -57t224 91
t125 279l174 819l-24 29h-133l24 107h484l-23 -107h-135l-33 -29l-174 -817q-69 -332 -283 -442q-53 -29 -103 -55.5t-114.5 -71t-64.5 -115.5z" />
    <glyph glyph-name="uogonek" unicode="&#x173;" horiz-adv-x="1179" 
d="M707 170q-162 -190 -357 -190q-117 0 -180.5 67.5t-63.5 177.5q0 49 13 105l131 610l-25 31h-133l23 106h194q70 0 106 -27.5t17 -109.5l-131 -606q-8 -40 -8 -86t27.5 -84.5t105.5 -38.5t161 51t148 131l164 770h182l-200 -944l22 -33h135l-12 -49q-4 -10 -5 -19t-7 -32
h-74q-182 -33 -224 -97.5t-42 -109.5q0 -82 112 -82q43 0 90.5 14.5t69.5 28.5l19 -63q-94 -60 -228 -60q-198 0 -198 140q0 88 63.5 145t153.5 90q-31 10 -48.5 32.5t-7.5 74.5l13 57h-6z" />
    <glyph glyph-name="Wcircumflex" unicode="&#x174;" horiz-adv-x="1931" 
d="M932 1548l-27 41l303 303h70l176 -303l-47 -41h-23l-165 203l-248 -203h-39zM293 1300l-23 27h-120l24 107h496l-25 -107h-129l-27 -24l50 -1041l551 1172h139l51 -1178l496 1044l-19 27h-133l23 107h454l-24 -107h-119l-33 -27l-633 -1304h-166l-67 1057l-508 -1057
h-166z" />
    <glyph glyph-name="wcircumflex" unicode="&#x175;" horiz-adv-x="1601" 
d="M719 1186l-29 43l303 301h70l176 -301l-45 -43h-25l-163 205l-250 -205h-37zM260 1077q65 0 91 -16q51 -31 61 -107l63 -700l412 823h129l65 -825l355 688l-19 31h-123l23 106h182q78 0 91 -40t-15 -91l-500 -948h-133l-68 780l-397 -780h-137l-111 946l-20 27h-127
l24 106h154z" />
    <glyph glyph-name="Ycircumflex" unicode="&#x176;" horiz-adv-x="1259" 
d="M248 0l22 106h133l37 29l90 443l-249 725l-27 24h-107l25 107h481l-22 -107h-131l-25 -24l197 -582l430 579l-19 27h-129l25 107h442l-24 -107h-105l-28 -20l-529 -697l-100 -477l20 -27h136l-23 -106h-520zM608 1548l-26 41l303 303h69l176 -303l-47 -41h-22l-166 203
l-248 -203h-39z" />
    <glyph glyph-name="ycircumflex" unicode="&#x177;" horiz-adv-x="1110" 
d="M274 1077q64 0 90 -16q47 -30 60 -107l104 -735l412 721l-18 31h-117l22 106h177q72 0 90 -40t-11 -91l-665 -1163l20 -31h133l-20 -100h-469l18 100h144l39 31l110 194l-153 965l-23 29h-135l24 106h168zM438 1186l-28 43l303 301h69l176 -301l-45 -43h-24l-164 205
l-250 -205h-37z" />
    <glyph glyph-name="Ydieresis" unicode="&#x178;" horiz-adv-x="1259" 
d="M248 0l22 106h133l37 29l90 443l-249 725l-27 24h-107l25 107h481l-22 -107h-131l-25 -24l197 -582l430 579l-19 27h-129l25 107h442l-24 -107h-105l-28 -20l-529 -697l-100 -477l20 -27h136l-23 -106h-520zM924 1697q0 37 32 69t75 32q44 0 66 -24q21 -24 21 -60
q0 -38 -32 -68t-76 -30t-65 22q-21 23 -21 59zM643 1697q0 37 32 69t76 32q43 0 65 -24t22 -60q0 -38 -33 -68t-77 -30t-64 22t-21 59z" />
    <glyph glyph-name="Zacute" unicode="&#x179;" horiz-adv-x="1193" 
d="M-47 0l22 109l1010 1202h-571l-37 -31l-37 -174h-125l70 328h964l-22 -111l-1004 -1198h625l35 31l39 174h122l-69 -330h-1022zM795 1548l-39 56l288 284h41l64 -104l-322 -236h-32z" />
    <glyph glyph-name="zacute" unicode="&#x17a;" horiz-adv-x="1036" 
d="M922 1530l63 -103l-321 -235h-33l-39 55l289 283h41zM-51 0l20 86l801 885h-451l-32 -29l-35 -162h-123l64 297h837l-16 -88l-795 -880h477l33 26l35 164h123l-64 -299h-874z" />
    <glyph glyph-name="Zdotaccent" unicode="&#x17b;" horiz-adv-x="1193" 
d="M713 1701q0 46 38 85t92 39t81 -28q26 -27 26 -73t-39 -86t-93 -39q-54 0 -80 28q-25 28 -25 74zM-47 0l22 109l1010 1202h-571l-37 -31l-37 -174h-125l70 328h964l-22 -111l-1004 -1198h625l35 31l39 174h122l-69 -330h-1022z" />
    <glyph glyph-name="zdotaccent" unicode="&#x17c;" horiz-adv-x="1036" 
d="M-51 0l20 86l801 885h-451l-32 -29l-35 -162h-123l64 297h837l-16 -88l-795 -880h477l33 26l35 164h123l-64 -299h-874zM676 1243q-53 -1 -80 27t-27 73t38 87q39 42 93 40q54 0 80 -28t27 -75q0 -46 -39 -85t-92 -39z" />
    <glyph glyph-name="Zcaron" unicode="&#x17d;" horiz-adv-x="1193" 
d="M-47 0l22 109l1010 1202h-571l-37 -31l-37 -174h-125l70 328h964l-22 -111l-1004 -1198h625l35 31l39 174h122l-69 -330h-1022zM836 1548h-68l-176 301l43 43h27l161 -204l252 204h37l29 -43z" />
    <glyph glyph-name="zcaron" unicode="&#x17e;" horiz-adv-x="1036" 
d="M690 1192h-67l-177 301l43 41h27l164 -203l250 203h37l28 -41zM-51 0l20 86l801 885h-451l-32 -29l-35 -162h-123l64 297h837l-16 -88l-795 -880h477l33 26l35 164h123l-64 -299h-874z" />
    <glyph glyph-name="longs" unicode="&#x17f;" horiz-adv-x="610" 
d="M260 -4q-71 -365 -391 -365q-96 0 -170 21l41 201h113l-21 -99l23 -26q20 -4 41 -4q74 0 115.5 73.5t64.5 188.5l190 985h-164l21 102h133l37 29l8 49q37 172 132 268.5t278 96.5q104 0 188 -21l-41 -207h-110l20 107l-20 24q-28 4 -54 4q-86 0 -132 -64.5t-75 -197.5z
" />
    <glyph glyph-name="florin" unicode="&#x192;" horiz-adv-x="983" 
d="M948 1516q119 0 203 -21l-64 -201h-110l31 101l-21 26q-20 4 -45 4q-80 0 -137 -57t-105 -205l-86 -274h248l-22 -98h-258l-254 -797q-62 -196 -158.5 -279.5t-278.5 -83.5q-112 0 -196 21l63 201h111l-33 -101l21 -26q25 -5 45 -5q78 0 136 57.5t105 205.5l256 807h-223
l21 98h235l84 264q60 190 159 276.5t273 86.5z" />
    <glyph glyph-name="uni0218" unicode="&#x218;" horiz-adv-x="1138" 
d="M256 -296q0 46 32 82t80 36t74 -24t27 -63q0 -39 -41 -93l-156 -207q-4 0 -32 18l-33 21l90 125l-4 39q-37 20 -37 66zM1008 450q0 -228 -165 -350t-437 -120q-149 0 -256 20t-154 39l70 330h129l-45 -205l26 -35q86 -23 261 -24q176 -1 277 81t101 211q0 91 -62 149
t-218 114q-326 117 -326 344t153 339q153 111 414 111q150 0 268 -27q57 -10 105 -24l-70 -316h-125l39 193l-26 31q-93 20 -203 20q-172 1 -270 -65t-99 -189q0 -89 58 -146t220 -125q161 -67 248 -151t87 -205z" />
    <glyph glyph-name="uni0219" unicode="&#x219;" horiz-adv-x="925" 
d="M182 -296q0 46 32 82t80 36t75 -24q63 -56 -15 -156l-155 -207q-4 0 -33 18l-33 21l90 125l-4 39q-37 20 -37 66zM305 823q0 -75 42 -115t169 -86q268 -97 268 -278q0 -180 -136 -273t-343 -91q-209 0 -323 49l53 256h119l-31 -152l20 -24q76 -21 194 -21q117 0 194 56
t77 136t-49 122t-145 75q-161 55 -220 128q-59 72 -59 163q0 150 118 240t337 90q149 0 293 -37l-54 -254h-116l28 145l-18 23q-72 16 -168 16t-173 -46t-77 -122z" />
    <glyph glyph-name="uni021A" unicode="&#x21a;" horiz-adv-x="1159" 
d="M388 -178q48 0 75 -24q60 -54 -14 -156l-156 -207q-4 0 -33 18l-33 21l90 125l-4 39q-35 19 -36 66q-1 46 31 82t80 36zM231 1434h1041l-72 -332h-119l37 178l-22 29h-277l-246 -1174l21 -29h151l-24 -106h-545l23 106h145l35 29l246 1174h-275l-37 -29l-34 -178h-119z
" />
    <glyph glyph-name="uni021B" unicode="&#x21b;" horiz-adv-x="636" 
d="M218 -178q48 0 75 -24q60 -54 -14 -156l-156 -207q-4 0 -33 18l-33 21l90 125l-4 39q-35 19 -36 66q-1 46 31 82t80 36zM103 29q-36 41 -15 137l172 805h-129l21 102h100l35 29l119 270h120l-63 -299h217l-21 -102h-217l-180 -840l25 -31h227l-22 -100q-159 -12 -256 -12
t-133 41z" />
    <glyph glyph-name="uni0237" unicode="&#x237;" horiz-adv-x="552" 
d="M75.5 -325q-124.5 -44 -212.5 -44t-164 15l43 209h111l-23 -103l20 -26h21q82 0 128 70.5t73 195.5l200 948l-20 31h-137l24 106h260q53 0 65.5 -22.5t2.5 -63.5l-211 -991q-56 -281 -180.5 -325z" />
    <glyph glyph-name="circumflex" unicode="&#x2c6;" 
d="M354 1186l-28 43l303 301h69l176 -301l-45 -43h-24l-164 205l-250 -205h-37z" />
    <glyph glyph-name="caron" unicode="&#x2c7;" 
d="M623 1192h-68l-176 301l43 41h27l163 -203l250 203h37l29 -41z" />
    <glyph glyph-name="uni02C9" unicode="&#x2c9;" horiz-adv-x="786" 
d="M379 1413h512l-23 -113h-512z" />
    <glyph glyph-name="breve" unicode="&#x2d8;" 
d="M621 1321q123 0 192 141l82 -20q-34 -97 -110 -165.5t-179 -68.5t-154 66.5t-51 167.5l93 24q0 -57 28.5 -101t98.5 -44z" />
    <glyph glyph-name="dotaccent" unicode="&#x2d9;" horiz-adv-x="411" 
d="M332 1343q0 45 38 86t92 41t80.5 -28.5t26.5 -74.5t-38.5 -85t-92.5 -39t-80 27.5t-26 72.5z" />
    <glyph glyph-name="ring" unicode="&#x2da;" 
d="M500 1321q0 -84 104 -84q66 0 107 35t41 94q0 84 -107 84q-63 0 -104 -35t-41 -94zM672 1516q70 0 126 -38t56 -100q0 -107 -74.5 -155.5t-171.5 -48.5q-98 0 -154.5 36t-56.5 96t20.5 98t55.5 62.5t82 37t117 12.5z" />
    <glyph glyph-name="ogonek" unicode="&#x2db;" 
d="M180 -205q0 -84 108 -84q48 0 95 14.5t70 28.5l18 -63q-94 -60 -227 -60q-199 0 -199 140q0 126 133.5 196.5t313.5 89.5l-7 -51q-138 -23 -196 -58.5t-83.5 -70.5t-25.5 -82z" />
    <glyph glyph-name="tilde" unicode="&#x2dc;" 
d="M790 1227q-62 0 -100.5 16.5t-75 36.5t-72.5 36.5t-75 16.5t-61.5 -16.5t-26.5 -38.5l-14 -70h-86l14 72q43 178 169 178q60 0 98 -17.5t105.5 -55t134.5 -37.5q66 0 79 59l14 66h84l-19 -80q-35 -166 -168 -166z" />
    <glyph glyph-name="hungarumlaut" unicode="&#x2dd;" 
d="M580 1192l-25 45l299 266h39l55 -82l-340 -229h-28zM346 1192l-31 45l258 293h39l68 -72l-307 -266h-27z" />
    <glyph glyph-name="uni0394" unicode="&#x394;" horiz-adv-x="1357" 
d="M84 104h893l-211 1168zM-53 88l813 1350h176l252 -1352l-21 -86h-1239z" />
    <glyph glyph-name="uni03A9" unicode="&#x3a9;" horiz-adv-x="1601" 
d="M950 1323q-131 0 -227 -66q-187 -129 -252 -398q-31 -128 -31 -253q0 -236 170 -293l-67 -313h-512l-41 293l121 37l30 -166l23 -29h313l25 115q-260 87 -260 408q0 166 50 314q104 306 371 423q134 59 302 59q243 0 363 -116t120 -316q0 -276 -140 -499t-364 -273
l-26 -115h315l37 29l100 166l103 -37l-164 -293h-514l67 315q88 27 160 102t121 175q104 213 102 434q0 297 -295 297z" />
    <glyph glyph-name="uni03BC" unicode="&#x3bc;" horiz-adv-x="1337" 
 />
    <glyph glyph-name="pi" unicode="&#x3c0;" horiz-adv-x="1202" 
d="M887 940l-23 31h-379l-32 -31l-199 -940h-182l196 940l-22 31h-135l22 106h1133l-25 -106h-137l-35 -31l-197 -940h-184z" />
    <glyph glyph-name="Wgrave" unicode="&#x1e80;" horiz-adv-x="1931" 
d="M1149 1548l-221 236l108 104h31l172 -284l-63 -56h-27zM293 1300l-23 27h-120l24 107h496l-25 -107h-129l-27 -24l50 -1041l551 1172h139l51 -1178l496 1044l-19 27h-133l23 107h454l-24 -107h-119l-33 -27l-633 -1304h-166l-67 1057l-508 -1057h-166z" />
    <glyph glyph-name="wgrave" unicode="&#x1e81;" horiz-adv-x="1601" 
d="M260 1077q65 0 91 -16q51 -31 61 -107l63 -700l412 823h129l65 -825l355 688l-19 31h-123l23 106h182q78 0 91 -40t-15 -91l-500 -948h-133l-68 780l-397 -780h-137l-111 946l-20 27h-127l24 106h154zM725 1427l109 103h32l170 -283l-63 -55h-25z" />
    <glyph glyph-name="Wacute" unicode="&#x1e82;" horiz-adv-x="1931" 
d="M1176 1548l-39 56l288 284h41l64 -104l-322 -236h-32zM293 1300l-23 27h-120l24 107h496l-25 -107h-129l-27 -24l50 -1041l551 1172h139l51 -1178l496 1044l-19 27h-133l23 107h454l-24 -107h-119l-33 -27l-633 -1304h-166l-67 1057l-508 -1057h-166z" />
    <glyph glyph-name="wacute" unicode="&#x1e83;" horiz-adv-x="1601" 
d="M1233 1530l63 -103l-321 -235h-33l-39 55l289 283h41zM260 1077q65 0 91 -16q51 -31 61 -107l63 -700l412 823h129l65 -825l355 688l-19 31h-123l23 106h182q78 0 91 -40t-15 -91l-500 -948h-133l-68 780l-397 -780h-137l-111 946l-20 27h-127l24 106h154z" />
    <glyph glyph-name="Wdieresis" unicode="&#x1e84;" horiz-adv-x="1931" 
d="M293 1300l-23 27h-120l24 107h496l-25 -107h-129l-27 -24l50 -1041l551 1172h139l51 -1178l496 1044l-19 27h-133l23 107h454l-24 -107h-119l-33 -27l-633 -1304h-166l-67 1057l-508 -1057h-166zM1249 1697q0 37 32 69t76 32q43 0 65 -24t22 -60q0 -38 -32 -68t-76 -30
t-66 22t-21 59zM1049 1616q-80 0 -80 81q-1 37 31 69t76 32t66 -24t22 -60q0 -38 -34 -68q-33 -30 -81 -30z" />
    <glyph glyph-name="wdieresis" unicode="&#x1e85;" horiz-adv-x="1601" 
d="M1125 1257q-43 1 -65 23t-22 58t33 70t76 34t65 -24t21 -62q0 -38 -32 -68q-32 -31 -76 -31zM844 1257q-42 1 -64 23t-22 58t32 70t76 34t65 -24t21 -62t-32 -68q-32 -31 -76 -31zM260 1077q65 0 91 -16q51 -31 61 -107l63 -700l412 823h129l65 -825l355 688l-19 31h-123
l23 106h182q78 0 91 -40t-15 -91l-500 -948h-133l-68 780l-397 -780h-137l-111 946l-20 27h-127l24 106h154z" />
    <glyph glyph-name="Ygrave" unicode="&#x1ef2;" horiz-adv-x="1259" 
d="M248 0l22 106h133l37 29l90 443l-249 725l-27 24h-107l25 107h481l-22 -107h-131l-25 -24l197 -582l430 579l-19 27h-129l25 107h442l-24 -107h-105l-28 -20l-529 -697l-100 -477l20 -27h136l-23 -106h-520zM809 1548l-221 236l108 104h31l172 -284l-63 -56h-27z" />
    <glyph glyph-name="ygrave" unicode="&#x1ef3;" horiz-adv-x="1110" 
d="M274 1077q64 0 90 -16q47 -30 60 -107l104 -735l412 721l-18 31h-117l22 106h177q72 0 90 -40t-11 -91l-665 -1163l20 -31h133l-20 -100h-469l18 100h144l39 31l110 194l-153 965l-23 29h-135l24 106h168zM397 1427l109 103h33l170 -283l-64 -55h-24z" />
    <glyph glyph-name="endash" unicode="&#x2013;" horiz-adv-x="1107" 
d="M143 727h865l-29 -131h-864z" />
    <glyph glyph-name="emdash" unicode="&#x2014;" horiz-adv-x="1687" 
d="M143 727h1444l-28 -131h-1444z" />
    <glyph glyph-name="quoteleft" unicode="&#x2018;" horiz-adv-x="452" 
d="M440 1158q0 -48 -34 -90t-88 -42q-56 0 -86 28t-30 64t16 62q15 25 32 47l186 248l74 -43l-113 -154l6 -41q37 -31 37 -79z" />
    <glyph glyph-name="quoteright" unicode="&#x2019;" horiz-adv-x="448" 
d="M274 1322q0 48 34 90t89 42t85 -28t30 -64t-15 -62q-15 -25 -32 -47l-186 -247l-74 43l112 153l-6 41q-37 31 -37 79z" />
    <glyph glyph-name="quotesinglbase" unicode="&#x201a;" horiz-adv-x="466" 
d="M10 75q0 48 34 90t89 42t85 -28q30 -29 30 -65t-16 -61t-31 -47l-187 -248l-73 43l112 154l-6 41q-37 31 -37 79z" />
    <glyph glyph-name="quotedblleft" unicode="&#x201c;" horiz-adv-x="772" 
d="M440 1158q0 -48 -34 -90t-88 -42q-56 0 -86 28t-30 64t16 62q15 25 32 47l186 248l74 -43l-113 -154l6 -41q37 -31 37 -79zM760 1158q0 -48 -34 -90t-89 -42t-85 28t-30 64t16 62q15 25 31 47l187 248l73 -43l-112 -154l6 -41q37 -31 37 -79z" />
    <glyph glyph-name="quotedblright" unicode="&#x201d;" horiz-adv-x="768" 
d="M274 1322q0 48 34 90t89 42t85 -28t30 -64t-15 -62q-15 -25 -32 -47l-186 -247l-74 43l112 153l-6 41q-37 31 -37 79zM592 1322q0 48 34 90t89 42t85 -28t30 -64t-16 -62q-15 -25 -32 -47l-186 -247l-74 43l113 153l-6 41q-37 31 -37 79z" />
    <glyph glyph-name="quotedblbase" unicode="&#x201e;" horiz-adv-x="786" 
d="M10 75q0 48 34 90t89 42t85 -28q30 -29 30 -65t-16 -61t-31 -47l-187 -248l-73 43l112 154l-6 41q-37 31 -37 79zM330 75q0 48 34 90t89 42t85 -28q30 -29 30 -65t-16 -61q-15 -25 -32 -47l-186 -248l-74 43l113 154l-6 41q-37 31 -37 79z" />
    <glyph glyph-name="dagger" unicode="&#x2020;" horiz-adv-x="964" 
d="M154 1055l235 -29h133l47 408h179l-130 -408h127l248 29l-32 -154l-242 31h-115l-14 -236l-195 -696h-82l99 696l86 236h-115l-262 -31z" />
    <glyph glyph-name="daggerdbl" unicode="&#x2021;" horiz-adv-x="1056" 
d="M92 535l246 -31h115l8 213l82 215h-113l-260 -31l33 154l235 -29h131l45 408h181l-129 -408h129l247 29l-32 -154l-246 31h-111l-12 -215l-80 -213h113l258 31l-33 -154l-235 29h-127l-48 -410h-180l131 410h-133l-248 -29z" />
    <glyph glyph-name="bullet" unicode="&#x2022;" horiz-adv-x="684" 
d="M279 1054q0 68 55 128q55 62 138 62t123 -43t40 -112t-58 -127q-59 -58 -139 -58t-120 40q-40 42 -39 110z" />
    <glyph glyph-name="ellipsis" unicode="&#x2026;" horiz-adv-x="1347" 
d="M891 80q0 45 37 86t92 41t82 -29q26 -28 26 -74t-38 -86q-38 -38 -92 -38t-80 28t-27 72zM246 104q0 -46 -39 -86t-93 -38q-54 0 -80 28t-26 72q0 45 37 86t92 41t82 -29q27 -28 27 -74zM451 80q0 45 36 86q37 41 93 41t82 -29q26 -28 26 -74t-39 -86t-92 -38
q-53 0 -80 27q-26 28 -26 73z" />
    <glyph glyph-name="perthousand" unicode="&#x2030;" horiz-adv-x="2043" 
d="M504 1444q88 0 146 -57t59 -161q0 -204 -92 -335t-248 -131q-96 0 -154 57q-57 57 -57 159q0 205 90 337q91 131 256 131zM383 848q94 0 156 128q51 106 51 253q0 125 -105 125q-97 0 -154 -125q-52 -109 -52 -245t104 -136zM1303 456q0 -204 -92 -335t-248 -131
q-96 0 -154 57q-57 57 -57 159q0 205 90 337q90 131 256 131q88 0 146 -57t59 -161zM977 78q94 0 156 128q49 101 51 253q0 125 -105 125q-97 0 -154 -125q-53 -112 -53 -247q0 -134 105 -134zM1931 456q0 -206 -92 -336t-248 -130q-96 0 -153 57q-58 57 -58 159
q-1 201 90 335q91 133 256 133q88 0 146 -57t59 -161zM1606 78q96 0 155 128q51 106 51 253q0 125 -104 125q-96 0 -151 -118q-56 -118 -56 -252q0 -136 105 -136zM1202 1434h109l-1051 -1434h-108z" />
    <glyph glyph-name="guilsinglleft" unicode="&#x2039;" horiz-adv-x="616" 
d="M72 559l409 389h109l-375 -432l186 -422h-94l-250 393z" />
    <glyph glyph-name="guilsinglright" unicode="&#x203a;" horiz-adv-x="616" 
d="M504 483l-410 -389h-108l374 432l-186 422h94l250 -393z" />
    <glyph glyph-name="fraction" unicode="&#x2044;" horiz-adv-x="184" 
d="M586 1434h108l-1050 -1434h-109z" />
    <glyph glyph-name="zero.superior" unicode="&#x2070;" horiz-adv-x="657" 
d="M559 1710q89 0 147 -57t58 -161q0 -201 -92 -333q-92 -133 -248 -133q-96 0 -154 57q-57 57 -57 159q0 204 90 336q91 132 256 132zM438 1114q94 0 156 128q51 106 51 253q0 125 -104 125q-96 0 -151 -118q-56 -118 -56 -252q0 -136 104 -136z" />
    <glyph glyph-name="four.superior" unicode="&#x2074;" horiz-adv-x="612" 
d="M496 1294l59 279l-272 -279h213zM184 1288l404 420h112l-88 -414h88l-16 -69h-90l-25 -107l13 -14h75l-12 -68h-303l14 68h82l17 14l22 107h-309z" />
    <glyph glyph-name="five.superior" unicode="&#x2075;" horiz-adv-x="587" 
d="M438 1434q102 0 164 -38t62 -128t-78 -166t-226 -76q-120 0 -194 43l31 145h82l-17 -69l19 -17q42 -14 110 -14t106 39t39 95t-38 76t-99 22h-159l77 354h414l-41 -178h-78l17 71l-17 13h-221l-37 -172h84z" />
    <glyph glyph-name="six.superior" unicode="&#x2076;" horiz-adv-x="610" 
d="M479 1362q-82 0 -147 -62q-4 -18 -4 -33v-32q0 -127 100 -127q66 0 107 44t40 108q0 102 -96 102zM694 1270q0 -105 -79 -174q-79 -70 -186 -70q-222 0 -222 215q0 177 90 309q107 160 301 160q74 0 141 -24l-32 -148h-72l12 68l-10 12q-30 12 -67 12q-79 0 -136 -66
t-88 -173q82 47 164 48q184 2 184 -169z" />
    <glyph glyph-name="seven.superior" unicode="&#x2077;" horiz-adv-x="538" 
d="M729 1700l-10 -68l-359 -596h-131l379 568h-258l-18 -13l-15 -69h-81l36 178h457z" />
    <glyph glyph-name="eight.superior" unicode="&#x2078;" horiz-adv-x="608" 
d="M385 1538q0 -38 30 -60t83 -44l28 -11q35 16 64 47t28 78q0 82 -106 82q-59 0 -93 -26t-34 -66zM287 1208q0 -102 121 -102q68 0 108 31t41 77q0 46 -27 70t-84 43l-32 12l-34 -17q-22 -11 -42 -28q-51 -41 -51 -86zM276 1506q0 84 69 144t179 60t154 -44t43 -104
q0 -60 -41 -103q-41 -42 -94 -64q92 -52 92 -151q0 -98 -75 -158t-199 -60t-173 44t-49 98t18 88q44 84 152 112q-76 53 -76 138z" />
    <glyph glyph-name="nine.superior" unicode="&#x2079;" horiz-adv-x="610" 
d="M453 1376q82 0 147 62q4 32 4 63q0 127 -102 127q-62 0 -104 -44t-42 -104t25 -82t72 -22zM352 1108q89 0 146 66t86 174q-73 -50 -168 -52q-178 0 -178 170q0 104 79 174t186 70q220 0 220 -215q0 -183 -88 -310q-108 -159 -303 -159q-85 0 -139 29l32 145h70l-12 -70
q22 -22 69 -22z" />
    <glyph glyph-name="parenleft.superior" unicode="&#x207d;" horiz-adv-x="372" 
d="M197 1212q0 31 6 68l35 158q46 213 321 352l19 -35q-193 -127 -232 -317l-31 -158q-8 -40 -8 -82q0 -132 103 -235l-33 -35q-180 127 -180 284z" />
    <glyph glyph-name="parenright.superior" unicode="&#x207e;" horiz-adv-x="370" 
d="M383 1522q0 124 -104 235l32 35q179 -126 181 -287q0 -27 -7 -63l-34 -158q-27 -121 -113 -206t-209 -150l-18 37q188 131 231 319l33 158q8 40 8 80z" />
    <glyph glyph-name="zero.inferior" unicode="&#x2080;" horiz-adv-x="655" 
d="M280 408q88 0 146 -58t59 -160q1 -104 -23 -188q-47 -170 -173 -243q-63 -35 -151 -35t-146 57t-58 159t23 187q23 84 66 146q43 63 106 99t151 36zM160 -188q97 0 155 128q50 103 52 253q0 125 -105 124q-98 0 -154 -124q-53 -112 -53 -247q0 -134 105 -134z" />
    <glyph glyph-name="one.inferior" unicode="&#x2081;" horiz-adv-x="432" 
d="M98 356q28 0 50 16t30 34h70l-127 -592l8 -13h100l-12 -67h-342l12 67h99l14 13l102 465l-12 14h-96l14 63h90z" />
    <glyph glyph-name="two.inferior" unicode="&#x2082;" horiz-adv-x="593" 
d="M311 240q-1 86 -85 86q-48 0 -120 -23l-18 -16l-14 -72h-82l28 145q118 46 225 47t149 -42t42 -93q0 -92 -51 -142t-172 -118t-149 -89t-35 -52l-9 -45h250l13 14l20 78h78l-39 -184h-461l25 127q12 64 57 102t157 100q111 62 151 98t40 79z" />
    <glyph glyph-name="three.inferior" unicode="&#x2083;" horiz-adv-x="579" 
d="M272 70q97 -27 97 -121q0 -93 -68 -159t-207 -66q-117 0 -209 38l33 146h82l-16 -72l14 -14q44 -18 110 -18q66 -1 104 44t38 107q0 82 -98 84h-80l16 76h76q141 0 141 131q-1 34 -25 58t-79 24t-92 -17l-17 -14l-18 -70h-80l33 144q100 34 205 36q106 1 148 -45t42 -100
q0 -153 -150 -186v-6z" />
    <glyph glyph-name="four.inferior" unicode="&#x2084;" horiz-adv-x="612" 
d="M219 -8l60 278l-273 -278h213zM-92 -14l403 420h113l-88 -414h88l-16 -70h-91l-24 -106l12 -15h76l-12 -67h-303l14 67h82l16 15l23 106h-310z" />
    <glyph glyph-name="five.inferior" unicode="&#x2085;" horiz-adv-x="587" 
d="M162 131q102 0 164 -38t61 -129q0 -91 -70 -158q-86 -84 -233 -82q-123 0 -195 43l31 145h82l-16 -70l18 -16q42 -14 91 -14q125 0 157 87q8 24 8 44q0 59 -39 79t-98 21h-160l78 354h414l-41 -178h-78l16 72l-16 12h-221l-37 -172h84z" />
    <glyph glyph-name="six.inferior" unicode="&#x2086;" horiz-adv-x="608" 
d="M297 -43q0 102 -96 102q-81 0 -148 -61q-4 -18 -4 -34v-32q0 -127 101 -127q66 0 106 44t41 108zM233 137q183 0 183 -170q0 -101 -79 -172t-186 -71q-221 0 -223 215q0 172 98 320t293 149q69 0 142 -25l-33 -147h-72l13 67l-11 12q-32 13 -68 13q-76 0 -135 -67
t-87 -173q84 49 165 49z" />
    <glyph glyph-name="seven.inferior" unicode="&#x2087;" horiz-adv-x="538" 
d="M453 397l-11 -67l-358 -596h-131l379 567h-258l-19 -12l-14 -70h-82l37 178h457z" />
    <glyph glyph-name="eight.inferior" unicode="&#x2088;" horiz-adv-x="608" 
d="M342 240q0 88 -102 88q-64 0 -98 -27t-34 -66t30 -61t83 -43l29 -10q36 16 64 47t28 72zM132 -197q66 0 108 31q41 31 41 77t-27 71t-84 43l-33 12q-53 -26 -74 -44q-51 -41 -52 -86q-1 -46 27 -75t94 -29zM0 204q0 85 69 144q69 60 179 60t153 -44t43 -106
q0 -60 -41 -102t-94 -64q94 -53 93 -151t-75 -158q-75 -59 -199 -59t-173 44t-49 103q0 145 170 195q-76 53 -76 138z" />
    <glyph glyph-name="nine.inferior" unicode="&#x2089;" horiz-adv-x="610" 
d="M176 74q81 0 148 61q4 32 4 64q0 127 -103 127q-63 0 -104 -44t-41 -104t24 -83q25 -21 72 -21zM-39 164q0 101 78 171q78 71 187 72q220 2 220 -214q0 -184 -88 -311q-108 -158 -303 -158q-83 0 -139 28l33 146h69l-12 -70q22 -22 69 -22q88 -1 152 73q50 57 80 166
q-74 -51 -168 -51q-178 0 -178 170z" />
    <glyph glyph-name="parenleft.inferior" unicode="&#x208d;" horiz-adv-x="372" 
d="M-80 -90q0 31 6 67l35 158q46 215 322 352l18 -34q-193 -127 -231 -318l-31 -158q-8 -40 -8 -81q0 -132 102 -236l-33 -35q-180 127 -180 285z" />
    <glyph glyph-name="parenright.inferior" unicode="&#x208e;" horiz-adv-x="370" 
d="M215 203q0 -27 -6 -64l-35 -157q-27 -121 -113 -206t-208 -151l-19 37q188 131 232 320l32 157q8 40 8 80q0 126 -104 236l33 34q180 -127 180 -286z" />
    <glyph glyph-name="franc" unicode="&#x20a3;" horiz-adv-x="1269" 
d="M518 766l-26 -133h374l-18 -96h-377l-86 -402l23 -29h165l-22 -106h-553l25 106h133l34 29l86 402h-167l20 96h166l29 133h-170l22 96h170l90 436l-22 29h-133l22 107h1075l-71 -328h-113l35 176l-23 27h-571l-94 -447h374l-22 -96h-375z" />
    <glyph glyph-name="lira" unicode="&#x20a4;" horiz-adv-x="1236" 
d="M866 1454q167 0 262 -24q94 -24 142 -39l-62 -287h-116l38 172l-22 24q-87 29 -224 29q-136 0 -222.5 -72.5t-120.5 -238.5l-35 -156h340l-23 -96h-336l-28 -133h340l-21 -96h-340l-35 -164q-14 -70 -38.5 -139.5t-45.5 -98.5h560l32 29l41 186h115l-76 -350h-1014l21 98
h125l37 29l84 410h-152l23 96h151l29 133h-156l21 96h153l33 156q38 190 174.5 313t345.5 123z" />
    <glyph glyph-name="peseta" unicode="&#x20a7;" horiz-adv-x="2942" 
d="M731 668q186 0 292 97q105 97 105 296q0 127 -67 188q-68 61 -215 62h-250l-137 -643h272zM874 1434q215 0 334 -89t119 -278q0 -256 -164 -391t-454 -133h-277l-84 -408l21 -29h159l-22 -106h-545l23 106h133l35 29l247 1163l-24 29h-133l24 107h608zM2310 823
q0 -75 42 -115t169 -86q268 -97 268 -278q0 -180 -136 -273t-343 -91q-209 0 -323 49l53 256h119l-31 -152l20 -24q76 -21 194 -21q117 0 194 56t77 136t-49 122q-48 42 -144 75q-161 55 -221 128q-59 72 -59 163q0 150 118 240t337 90q149 0 293 -37l-54 -254h-116l28 145
l-18 23q-72 16 -168 16t-173 -46t-77 -122zM1437 29q-36 41 -16 137l172 805h-129l21 102h100l35 29l119 270h121l-64 -299h217l-20 -102h-217l-181 -840l25 -31h227l-22 -100q-159 -12 -255 -12t-133 41z" />
    <glyph glyph-name="Euro" unicode="&#x20ac;" horiz-adv-x="1333" 
d="M238 481v60h-181l21 96h166q6 70 18 133h-158l21 96h162q78 285 275.5 436.5t492.5 151.5q121 0 204.5 -19.5t106.5 -35.5l-59 -289h-117l35 164l-21 29q-68 29 -166 28q-207 0 -352 -113.5t-209 -351.5h438l-22 -96h-436q-6 -33 -9.5 -65.5t-7.5 -67.5h428l-20 -96h-414
v-52q0 -182 87 -281t267 -99q116 0 183 26l35 29l36 172h117l-59 -287q-157 -69 -376 -69t-352.5 130t-133.5 371z" />
    <glyph glyph-name="uni2113" unicode="&#x2113;" horiz-adv-x="841" 
d="M745 1266q0 102 -77 102q-123 0 -185 -289l-94 -432q356 377 356 619zM670 1481q233 0 233 -203q0 -236 -202.5 -463t-354.5 -369l-39 -182q-6 -42 -6 -82q0 -78 123 -78q47 0 112.5 15.5t112.5 38.5l17 -103q-155 -75 -271 -75t-184 36.5t-72 133.5q0 41 13 96l6 30
q-81 -71 -148 -124l-59 90q99 84 244 215l139 657q38 186 132 276.5t204 90.5z" />
    <glyph glyph-name="trademark" unicode="&#x2122;" horiz-adv-x="1710" 
d="M1139 866v-73h-273v73h72l12 13v471l-12 10h-72v74h217l174 -328l170 328h215v-74h-75l-13 -10v-471l15 -13h73v-73h-288v73h73l11 13v393l-142 -277h-98l-145 269v-385l12 -13h74zM274 1434h512v-181h-69v78l-10 12h-117v-464l10 -13h80v-73h-299v73h80l10 13v464h-115
l-12 -12v-78h-70v181z" />
    <glyph glyph-name="Omega" unicode="&#x2126;" horiz-adv-x="1601" 
d="M502 250q-260 86 -260 408q0 166 50 314t194.5 315t478.5 167q242 0 362.5 -115.5t120.5 -316.5q0 -277 -139.5 -499.5t-364.5 -272.5l-26 -115h315l37 29l100 166l103 -37l-164 -293h-514l67 315q88 27 160 102t147.5 229t75.5 380q0 297 -295 297q-131 0 -227 -65.5
t-189.5 -219t-93.5 -432.5q0 -236 170 -293l-67 -313h-512l-41 293l121 37l30 -166l23 -29h313z" />
    <glyph glyph-name="estimated" unicode="&#x212e;" horiz-adv-x="1648" 
d="M133 714.5q0 153.5 58.5 288t159 233.5t233.5 155.5t281 56.5t277.5 -55.5t227.5 -150.5t159.5 -223t72.5 -271v-5l-66 -73h-1069l-18 -27v-375q148 -215 436 -215q154 0 277.5 57.5t207.5 157.5h111q-217 -288 -596 -288q-314 0 -474.5 157.5t-219 290.5t-58.5 286.5z
M866 1374q-265 0 -417 -184v-422l18 -27h799l20 27v422q-70 86 -180.5 135t-239.5 49z" />
    <glyph glyph-name="uni2153" unicode="&#x2153;" horiz-adv-x="1284" 
d="M350 1393q28 0 50 16t30 33h70l-127 -592l8 -12h100l-12 -68h-342l12 68h99l14 12l102 465l-12 14h-96l14 64h90zM1102 1434h108l-1050 -1434h-109zM974 9q-52 -19 -130 -19q-121 0 -205 39l33 145h82l-17 -72l15 -14q45 -18 90 -18q86 0 124 45t38 106q0 84 -99 84h-80
l17 76h76q141 0 141 131q0 34 -25 58t-77 24t-95 -16l-16 -15l-19 -69h-79l32 143q107 37 209 37q103 0 145 -45t42 -101q0 -153 -150 -186v-6q98 -27 96 -121q0 -152 -148 -206z" />
    <glyph glyph-name="uni2154" unicode="&#x2154;" horiz-adv-x="1361" 
d="M551 1276q0 86 -85 86q-61 0 -120 -23l-18 -16l-15 -72h-82l29 146q121 47 226 47q106 0 148 -43t42 -92t-12 -82q-22 -62 -118 -122q-46 -30 -102 -61t-100 -56q-45 -25 -58 -44q-13 -18 -18 -37l-8 -45h250l12 15l21 77h78l-39 -184h-461l24 127q16 87 134 156
q41 25 117 67t115 77q40 36 40 79zM1180 1434h108l-1050 -1434h-109zM1052 9q-52 -19 -130 -19q-121 0 -205 39l33 145h81l-16 -72l14 -14q45 -18 91 -18q86 0 124 45t37 106q0 84 -98 84h-80l17 76h75q142 0 142 131q0 34 -25 58t-77 24t-95 -16l-16 -15l-19 -69h-80
l33 143q107 37 209 37t144 -45t42 -101q0 -152 -149 -186v-6q98 -27 96 -121q0 -152 -148 -206z" />
    <glyph glyph-name="uni2155" unicode="&#x2155;" horiz-adv-x="1282" 
d="M1100 1434h108l-1050 -1434h-109zM348 1393q28 0 50 16t30 33h70l-127 -592l8 -12h100l-12 -68h-342l12 68h99l14 12l102 465l-12 14h-96l14 64h90zM895 397q101 0 163 -38t62 -128t-78 -167q-78 -76 -225 -74q-125 0 -194 43l30 145h82l-16 -69l18 -17q43 -14 91 -14
q125 0 157 87q8 24 8 44q0 59 -39 79t-98 21h-160l78 355h414l-41 -179h-78l16 72l-16 12h-221l-37 -172h84z" />
    <glyph glyph-name="uni2156" unicode="&#x2156;" horiz-adv-x="1359" 
d="M551 1276q0 86 -85 86q-61 0 -120 -23l-18 -16l-15 -72h-82l29 146q121 47 226 47q106 0 148 -43t42 -92t-12 -82q-22 -62 -118 -122q-46 -30 -102 -61t-100 -56q-45 -25 -58 -44q-13 -18 -18 -37l-8 -45h250l12 15l21 77h78l-39 -184h-461l24 127q16 87 134 156
q41 25 117 67t115 77q40 36 40 79zM1180 1434h108l-1050 -1434h-109zM973 397q101 0 163 -38t62 -129t-70 -157q-87 -85 -233 -83q-123 0 -195 43l31 145h82l-16 -69l18 -17q43 -14 91 -14q125 0 157 87q8 24 8 44q0 59 -39 79t-98 21h-160l78 355h414l-41 -179h-78l16 72
l-16 12h-221l-37 -172h84z" />
    <glyph glyph-name="uni2157" unicode="&#x2157;" horiz-adv-x="1345" 
d="M1165 1434h109l-1051 -1434h-108zM958 397q102 0 164 -38t62 -128t-79 -166t-224 -75q-126 0 -195 43l31 145h82l-17 -69l19 -17q43 -14 91 -14q125 0 157 87q8 24 8 44q0 59 -39 79t-98 21h-160l78 355h413l-41 -179h-77l16 72l-16 12h-222l-37 -172h84zM460 779
q-52 -19 -130 -19q-121 0 -205 39l33 145h82l-17 -72l15 -14q45 -18 90 -18q86 0 124 45t37 106q0 84 -98 84h-80l17 76h75q142 0 142 131q0 34 -25 58t-77 24t-95 -16l-16 -15l-19 -69h-80l33 143q107 37 209 37q103 0 145 -45t42 -101q0 -151 -150 -186v-6q98 -27 96 -121
q0 -152 -148 -206z" />
    <glyph glyph-name="uni2158" unicode="&#x2158;" horiz-adv-x="1382" 
d="M459 1028l59 279l-272 -279h213zM147 1022l404 420h113l-89 -414h89l-17 -70h-90l-25 -106l13 -14h76l-13 -68h-303l14 68h82l17 14l22 106h-309zM1206 1434h109l-1051 -1434h-108zM987 397q101 0 163 -38t62 -128t-78 -167q-78 -76 -225 -74q-125 0 -194 43l30 145h82
l-16 -69l18 -17q41 -14 109 -14t108 40t39 94q0 56 -38 77q-39 20 -99 20h-160l78 355h414l-41 -179h-78l17 72l-17 12h-221l-37 -172h84z" />
    <glyph glyph-name="uni2159" unicode="&#x2159;" horiz-adv-x="1280" 
d="M1008 223q0 103 -97 103q-82 0 -147 -62q-4 -18 -4 -34v-31q0 -127 100 -127q66 0 107 44t41 107zM1126 233q0 -102 -78 -172q-78 -71 -186 -71q-223 0 -223 215q0 175 90 309q107 160 301 160q77 0 141 -25l-32 -147h-72l12 67l-10 13q-30 12 -67 12q-77 0 -135 -66
t-89 -174q84 49 168 49q180 0 180 -170zM350 1393q28 0 50 16t30 33h70l-127 -592l8 -12h100l-12 -68h-342l12 68h99l14 12l102 465l-12 14h-96l14 64h90zM1102 1434h108l-1050 -1434h-109z" />
    <glyph glyph-name="uni215A" unicode="&#x215a;" horiz-adv-x="1351" 
d="M1079 223q0 103 -96 103q-82 0 -147 -62q-5 -22 -5 -65q0 -127 101 -127q66 0 106 44t41 107zM1198 233q0 -103 -79 -173t-186 -70q-222 0 -222 215q0 175 90 309q107 160 301 160q77 0 141 -25l-33 -147h-71l12 67l-10 13q-29 12 -67 12q-79 0 -136 -66t-88 -174
q84 49 168 49q180 0 180 -170zM399 1167q101 0 163 -38t62 -128t-78 -166q-79 -76 -224 -75q-126 0 -195 43l31 145h82l-17 -69l19 -17q42 -14 110 -14t106 39t39 95t-38 76t-99 21h-159l78 355h413l-41 -179h-78l17 72l-17 12h-221l-37 -172h84zM1174 1434h108l-1051 -1434
h-108z" />
    <glyph glyph-name="uni215B" unicode="&#x215b;" horiz-adv-x="1290" 
d="M1102 1434h108l-1050 -1434h-109zM350 1393q28 0 50 16t30 33h70l-127 -592l8 -12h100l-12 -68h-342l12 68h99l14 12l102 465l-12 14h-96l14 64h90zM1073 506q0 88 -102 88q-63 0 -97 -27t-34 -65t30 -61q30 -22 82 -44l29 -10q35 16 63 47t29 72zM1012 177q0 46 -27 71
t-84 43l-33 12q-54 -27 -74 -44q-51 -42 -52 -87t27 -74q29 -28 95 -28t107 30t41 77zM731 470q0 85 69 144q69 60 179 60t154 -44q43 -45 43 -98q0 -116 -136 -174q93 -52 93 -151q0 -97 -75 -157t-199 -60t-173 44t-49 103q0 145 170 195q-76 53 -76 138z" />
    <glyph glyph-name="uni215C" unicode="&#x215c;" horiz-adv-x="1353" 
d="M1165 1434h109l-1051 -1434h-108zM1137 506q0 88 -103 88q-63 0 -97 -27t-34 -65t30 -61q30 -22 83 -44l28 -10q35 16 64 47t29 72zM805 172q0 -45 28 -74q29 -28 95 -28t106 30t41 77q0 46 -26 71q-27 25 -84 43l-33 12l-34 -17q-22 -11 -42 -28q-51 -41 -51 -86z
M1239 524q0 -60 -41 -102t-94 -64q92 -52 92 -150t-75 -158t-199 -60t-172 44t-50 103q0 145 170 195q-77 53 -76 138t69 144q69 60 179 60t154 -44q43 -46 43 -106zM460 779q-52 -19 -130 -19q-121 0 -205 39l33 145h82l-17 -72l15 -14q45 -18 90 -18q86 0 124 45t37 106
q0 84 -98 84h-80l17 76h75q142 0 142 131q0 34 -25 58t-77 24t-95 -16l-16 -15l-19 -69h-80l33 143q107 37 209 37q103 0 145 -45t42 -101q0 -151 -150 -186v-6q98 -27 96 -121q0 -152 -148 -206z" />
    <glyph glyph-name="uni215D" unicode="&#x215d;" horiz-adv-x="1363" 
d="M399 1167q101 0 163 -38t62 -128t-78 -166q-79 -76 -224 -75q-126 0 -195 43l31 145h82l-17 -69l19 -17q42 -14 110 -14t106 39t39 95t-38 76t-99 21h-159l78 355h413l-41 -179h-78l17 72l-17 12h-221l-37 -172h84zM1174 1434h108l-1051 -1434h-108zM1145 506
q0 88 -103 88q-63 0 -97 -27t-34 -65t30 -61q30 -22 83 -44l29 -10q35 16 63 47t29 72zM813 172q0 -45 28 -74q29 -28 95 -28t106 30t41 77q0 46 -26 71q-27 25 -84 43l-33 12l-34 -17q-22 -11 -42 -28q-51 -41 -51 -86zM1247 524q0 -60 -41 -102t-94 -64q94 -53 93 -151
q-1 -97 -76 -157t-199 -60t-172 44q-49 44 -49 98q0 152 170 200q-78 54 -77 139q2 84 70 143q68 60 178 60t154 -44q43 -46 43 -106z" />
    <glyph glyph-name="uni215E" unicode="&#x215e;" horiz-adv-x="1325" 
d="M692 1434l-10 -68l-358 -596h-131l378 567h-258l-18 -12l-14 -70h-82l37 179h456zM1133 1434h108l-1051 -1434h-108zM1104 506q0 88 -103 88q-63 0 -97 -27t-34 -65t30 -61q30 -22 83 -44l29 -10q36 16 64 47t28 72zM772 172q0 -45 28 -74q28 -28 94 -28t108 30
q40 30 40 77q0 46 -26 71q-27 25 -84 43l-33 12l-34 -17q-22 -11 -42 -28q-51 -41 -51 -86zM1206 524q0 -60 -41 -102t-94 -64q94 -53 93 -151t-75 -158q-75 -59 -199 -59t-173 44t-49 98q0 152 170 200q-78 54 -77 139q1 84 69 143q70 60 180 60t153 -44q43 -46 43 -106z
" />
    <glyph glyph-name="uni215F" unicode="&#x215f;" horiz-adv-x="681" 
d="M432 1393q28 0 50 16t30 33h70l-127 -592l8 -12h100l-12 -68h-342l12 68h98l15 12l102 465l-12 14h-96l14 64h90zM1184 1434h108l-1050 -1434h-109z" />
    <glyph glyph-name="partialdiff" unicode="&#x2202;" horiz-adv-x="1122" 
d="M1026 686q0 -331 -128 -473.5t-229.5 -187.5t-196.5 -45q-187 0 -296.5 107.5t-109.5 295.5t48 319.5t125.5 219.5t179 132t182.5 44q141 0 218 -60q-67 258 -276 410l73 70q218 -114 314 -337.5t96 -494.5zM838 698q0 279 -199 279q-173 0 -279 -173.5t-106 -429.5
q0 -132 50 -204t167 -72q80 0 147.5 50.5t143.5 179t76 370.5z" />
    <glyph glyph-name="Delta" unicode="&#x2206;" horiz-adv-x="1345" 
d="M111 104h893l-211 1168zM-27 88l813 1350h177l251 -1352l-20 -86h-1239z" />
    <glyph glyph-name="product" unicode="&#x220f;" horiz-adv-x="1486" 
d="M1569 1434l-23 -107h-137l-35 -29l-248 -1163l25 -29h137l-24 -112h-525l23 112h137l33 29l248 1163l-25 29h-526l-35 -29l-246 -1163l23 -29h137l-25 -112h-526l25 112h137l35 29l245 1163l-22 29h-135l22 107h1305z" />
    <glyph glyph-name="summation" unicode="&#x2211;" horiz-adv-x="1239" 
d="M252 1434h956l37 -297l-98 -19l-29 180l-24 29h-631l291 -561l-594 -639h708l33 27l86 174l96 -21l-141 -313h-989l20 96l592 639l-334 612z" />
    <glyph glyph-name="minus" unicode="&#x2212;" horiz-adv-x="1136" 
d="M166 750h825v-121h-825v121z" />
    <glyph glyph-name="uni2215" unicode="&#x2215;" horiz-adv-x="882" 
d="M934 1434h108l-1050 -1434h-109z" />
    <glyph glyph-name="uni2219" unicode="&#x2219;" horiz-adv-x="493" 
d="M260 649q-54 -1 -80 27t-26 73t36 87q36 41 92 41t83 -29t27 -75t-40 -85q-39 -39 -92 -39z" />
    <glyph glyph-name="radical" unicode="&#x221a;" horiz-adv-x="1140" 
d="M266 920l-182 -78l-16 78l342 153l217 -809l678 1663l79 -12l-819 -2011z" />
    <glyph glyph-name="infinity" unicode="&#x221e;" horiz-adv-x="1742" 
d="M252 684q0 -96 58.5 -157.5t181.5 -61.5t204.5 87t116.5 128q-95 111 -167 166t-173 55t-161 -60.5t-60 -156.5zM215.5 923q98.5 97 265.5 97q168 0 266.5 -98.5t137.5 -143.5q99 115 191 178.5t194 63.5q183 0 280 -98.5t97 -240.5t-93.5 -239.5t-265.5 -97.5
q-196 0 -401 238q-103 -114 -192.5 -176t-198.5 -62t-176.5 26.5t-135 95.5t-67.5 214.5t98.5 242.5zM1509 684q0 96 -59.5 156.5t-175.5 60.5t-199.5 -90t-116.5 -131q173 -215 328 -215q111 0 167 61.5t56 157.5z" />
    <glyph glyph-name="integral" unicode="&#x222b;" horiz-adv-x="1161" 
d="M10 -184q114 0 182 57.5t113 204.5l404 1239q65 197 179 279.5t304 82.5q99 0 188 -24l-37 -88q-93 20 -148 20q-111 0 -181 -58.5t-117 -203.5l-405 -1237q-62 -199 -174 -281.5t-308 -82.5q-92 0 -190 24l37 88q98 -20 153 -20z" />
    <glyph glyph-name="approxequal" unicode="&#x2248;" horiz-adv-x="1212" 
d="M424 653q90 0 188.5 -55t146.5 -79.5t86 -24.5t58 18l121 119l68 -64q-125 -190 -281 -190q-92 0 -188.5 55t-145.5 80t-86 25t-55 -17l-125 -129l-68 62q117 200 281 200zM843 831q36 0 60 19l121 123l68 -64q-126 -192 -281 -192q-61 0 -119.5 25.5t-112 55
t-102.5 55.5t-86 26t-55 -17l-125 -129l-68 62q118 198 281 198q61 0 119.5 -25.5t113 -55t102.5 -55.5t84 -26z" />
    <glyph glyph-name="notequal" unicode="&#x2260;" horiz-adv-x="1095" 
d="M147 903h482l84 166h80l-82 -166h262v-121h-322l-100 -202h414v-121h-476l-96 -195h-80l97 195h-271v121h332l100 202h-424v121z" />
    <glyph glyph-name="lessequal" unicode="&#x2264;" horiz-adv-x="1150" 
d="M133 725v111l850 315v-141l-645 -228l645 -233v-139zM127 293h848v-121h-848v121z" />
    <glyph glyph-name="greaterequal" unicode="&#x2265;" horiz-adv-x="1183" 
d="M172 551l645 225l-645 234v141l848 -315v-111l-848 -315v141zM158 172v121h848v-121h-848z" />
    <glyph glyph-name="lozenge" unicode="&#x25ca;" horiz-adv-x="1105" 
d="M418 -18l497 735l-184 729l-493 -733zM299 -164l-219 871l592 895h178l219 -869l-594 -897h-176z" />
    <glyph glyph-name="sidebaring" unicode="&#xe000;" horiz-adv-x="6" 
d="M-51 1497h102v-4h-45v-57h45v-4h-45v-353h45v-4h-45v-1073h45v-4h-45v-344h45v-4h-102v4h51v344h-51v4h51v1073h-51v4h51v353h-51v4h51v57h-51v4z" />
    <glyph glyph-name="cent.denominator" unicode="&#xf629;" horiz-adv-x="512" 
d="M98 272q0 -94 70 -118l74 358q-102 -27 -123 -114t-21 -126zM221 147q68 0 113 21l16 -41q-53 -53 -151 -57l-19 -88h-49l19 90q-70 10 -116 53t-46 129q0 147 76.5 234t193.5 102l18 82h52l-19 -80q77 -3 127 -23l-33 -141h-63l14 70l-14 12q-10 4 -21.5 5t-23.5 3
l-80 -371h6z" />
    <glyph glyph-name="dollar.denominator" unicode="&#xf62a;" horiz-adv-x="587" 
d="M150 499q0 -36 15 -54.5t60 -36.5l41 188q-57 -8 -86.5 -34.5t-29.5 -62.5zM326 177q0 38 -19.5 56.5t-60.5 34.5l-41 -200q59 10 90 40.5t31 68.5zM150 63h4l45 220q-82 27 -122 65.5t-40 120.5t67.5 137.5t176.5 65.5l16 73h51l-16 -71q114 -6 180 -25l-33 -153h-76
l19 79l-12 15q-35 10 -93 10l-45 -209q84 -27 128 -62.5t44 -120.5t-68.5 -145.5t-187.5 -70.5l-18 -90h-51l18 86h-2q-117 0 -194 28l32 162h76l-20 -88l12 -14q59 -13 109 -13z" />
    <glyph glyph-name="hyphen.denominator" unicode="&#xf62b;" horiz-adv-x="407" 
d="M33 362h235l-20 -86h-236z" />
    <glyph glyph-name="parenleft.denominator" unicode="&#xf62c;" horiz-adv-x="368" 
d="M-25 176q0 31 7 68l34 157q46 214 322 353l18 -35q-193 -127 -231 -318l-31 -157q-8 -40 -8 -82q0 -134 102 -236l-32 -35q-181 128 -181 285z" />
    <glyph glyph-name="parenright.denominator" unicode="&#xf62d;" horiz-adv-x="370" 
d="M270 469q0 -27 -6 -63l-35 -158q-27 -121 -112.5 -206t-208.5 -151l-19 37q188 131 232 320l33 158q8 40 8 79q0 127 -105 236l33 35q180 -127 180 -287z" />
    <glyph glyph-name="cent.numerator" unicode="&#xf62e;" horiz-adv-x="512" 
d="M262 1042q0 -94 70 -118l74 358q-100 -27 -135 -162q-9 -39 -9 -78zM385 918q73 0 113 20l16 -41q-53 -53 -152 -57l-18 -88h-49l18 90q-69 10 -115 53t-46 129q0 147 76 234q77 87 194 102l18 82h52l-19 -80q88 -4 127 -23l-33 -141h-63l14 70l-14 12q-10 4 -22 5t-23 3
l-80 -370h6z" />
    <glyph glyph-name="dollar.numerator" unicode="&#xf62f;" horiz-adv-x="587" 
d="M313 1269q-1 -37 15 -55t61 -36l41 188q-57 -8 -87 -34t-30 -63zM489 947q0 39 -19 57t-60 34l-41 -200q59 10 89 40t31 69zM313 834h4l45 219q-82 27 -122 65t-39 121q0 82 67 137q68 55 176 66l17 74h51l-16 -72q114 -6 180 -25l-33 -153h-76l19 80l-13 14
q-35 10 -92 10l-45 -209q84 -27 128 -63t44 -120q0 -85 -68 -145t-188 -71l-18 -90h-51l18 86h-2q-115 0 -195 28l33 162h76l-20 -88l12 -14q54 -12 108 -12z" />
    <glyph glyph-name="hyphen.numerator" unicode="&#xf630;" horiz-adv-x="407" 
d="M197 1133h235l-20 -86h-236z" />
    <glyph glyph-name="parenleft.numerator" unicode="&#xf631;" horiz-adv-x="368" 
d="M250 932q0 -132 102 -236l-33 -34q-78 56 -129 124t-51 160q0 31 6 68l35 157q46 214 322 353l18 -35q-193 -127 -231 -318l-31 -157q-8 -40 -8 -82z" />
    <glyph glyph-name="parenright.numerator" unicode="&#xf632;" horiz-adv-x="368" 
d="M432 1239q0 -27 -6 -63l-35 -158q-27 -121 -113 -206t-208 -150l-19 36q188 131 232 320l32 158q9 45 9 79q0 125 -105 236l33 35q180 -127 180 -287z" />
    <glyph glyph-name="zero.denominator" unicode="&#xf655;" horiz-adv-x="657" 
d="M543 456q0 -205 -91.5 -335.5t-248.5 -130.5q-96 0 -153.5 57t-57.5 159q0 205 90.5 336.5t249.5 131.5q94 0 152.5 -57t58.5 -161zM217 78q95 0 151 118.5t56 252.5q0 135 -105 135q-97 0 -151.5 -119t-54.5 -253t104 -134z" />
    <glyph glyph-name="one.denominator" unicode="&#xf656;" horiz-adv-x="432" 
d="M156 623q29 0 50 16t30 33h69l-127 -592l8 -12h101l-13 -68h-342l13 68h98l14 12l103 465l-13 14h-96l15 64h90z" />
    <glyph glyph-name="two.denominator" unicode="&#xf657;" horiz-adv-x="593" 
d="M369 506q1 86 -85 86q-51 0 -120 -23l-19 -16l-14 -72h-82l29 146q121 47 226 47t147.5 -43t42.5 -93q0 -90 -51.5 -141t-143.5 -103q-149 -84 -177.5 -105t-35.5 -52l-8 -45h250l12 14l20 78h78l-39 -184h-460l24 127q11 62 58 102t157 101q111 61 151 97t40 79z" />
    <glyph glyph-name="three.denominator" unicode="&#xf658;" horiz-adv-x="579" 
d="M426 215q0 -150 -100.5 -187.5t-178.5 -37.5q-120 0 -204 39l32 145h82l-16 -72l14 -14q45 -18 90 -18q86 0 124 45t38 106q0 84 -98 84h-80l16 76h76q141 0 141 131q0 33 -24.5 57.5t-76.5 24.5t-95 -16l-16 -15l-19 -69h-80l33 143q107 37 209 37t144 -45t42 -101
q0 -152 -149 -186v-6q96 -27 96 -121z" />
    <glyph glyph-name="four.denominator" unicode="&#xf659;" horiz-adv-x="610" 
d="M274 258l60 279l-273 -279h213zM-37 252l404 420h112l-88 -414h88l-16 -70h-90l-25 -106l12 -14h76l-12 -68h-303l14 68h82l16 14l23 106h-309z" />
    <glyph glyph-name="five.denominator" unicode="&#xf65a;" horiz-adv-x="585" 
d="M217 397q102 0 163.5 -37.5t61.5 -128.5t-77 -166t-226 -75q-125 0 -194 43l30 145h82l-16 -69l18 -17q42 -14 91 -14q86 0 125.5 39t39.5 95t-38.5 76.5t-98.5 20.5h-160l78 355h414l-41 -179h-78l17 72l-17 12h-221l-37 -172h84z" />
    <glyph glyph-name="six.denominator" unicode="&#xf65b;" horiz-adv-x="608" 
d="M354 223q0 103 -96 103q-82 0 -147 -62q-5 -22 -5 -65q0 -127 101 -127q66 0 106.5 44t40.5 107zM473 233q0 -103 -79.5 -173t-186.5 -70q-221 0 -221 215q0 175 98.5 322t292.5 147q69 0 141 -25l-33 -147h-71l12 67l-10 13q-30 12 -68 12q-76 0 -135.5 -67.5
t-87.5 -172.5q84 49 168 49q180 0 180 -170z" />
    <glyph glyph-name="seven.denominator" unicode="&#xf65c;" horiz-adv-x="536" 
d="M508 664l-10 -68l-359 -596h-131l379 567h-258l-18 -12l-15 -70h-82l37 179h457z" />
    <glyph glyph-name="eight.denominator" unicode="&#xf65d;" horiz-adv-x="608" 
d="M397 506q0 88 -102 88q-63 0 -97 -26.5t-34 -65.5t29.5 -60.5t82.5 -44.5l29 -10q35 16 63.5 47t28.5 72zM66 161q0 -34 28 -62.5t94 -28.5t107 30.5t41 76.5t-26.5 70.5t-84.5 43.5l-32 12q-85 -43 -106 -75.5t-21 -66.5zM55 470q0 85 69 144.5t179 59.5t153.5 -44.5
t43.5 -97.5q0 -115 -135 -174q92 -52 92 -150q0 -99 -75 -158.5t-199 -59.5t-173 44t-49 98q0 92 55 139t115 61q-76 53 -76 138z" />
    <glyph glyph-name="nine.denominator" unicode="&#xf65e;" horiz-adv-x="608" 
d="M159.5 362q24.5 -22 86.5 -22t133 61q4 32 4 64q0 127 -102 127q-63 0 -104.5 -44t-41.5 -104t24.5 -82zM203 260q-187 0 -187 170q0 103 79 173.5t187 70.5q220 0 220 -215q0 -182 -98.5 -325.5t-292.5 -143.5q-82 0 -140 28l33 146h70l-13 -70q24 -22 71 -22
q86 0 144.5 66.5t85.5 172.5q-73 -51 -159 -51z" />
    <glyph glyph-name="comma.denominator" unicode="&#xf65f;" horiz-adv-x="292" 
d="M-33 50q0 32 21.5 54.5t52.5 22.5t44 -16.5t13 -38.5t-8 -33.5t-14 -22.5l-101 -139l-41 29l58 80l-4 24q-21 8 -21 40z" />
    <glyph glyph-name="period.denominator" unicode="&#xf660;" horiz-adv-x="286" 
d="M23 -12q-60 0 -60 62q0 28 21.5 52.5t56.5 24.5q53 0 53 -59q0 -31 -20.5 -55.5t-50.5 -24.5z" />
    <glyph glyph-name="zero.numerator" unicode="&#xf661;" horiz-adv-x="657" 
d="M502 1444q88 0 146 -57t59 -161q0 -204 -92 -335t-248 -131q-96 0 -154 57q-57 57 -57 159q0 205 90 337q91 131 256 131zM381 848q94 0 156 128q49 101 51 253q0 125 -105 125q-97 0 -154 -125q-53 -112 -53 -247q0 -134 105 -134z" />
    <glyph glyph-name="one.numerator" unicode="&#xf662;" horiz-adv-x="430" 
d="M317 1393q29 0 51 16t29 33h70l-127 -592l8 -12h101l-13 -68h-342l12 68h99l14 12l103 465l-13 14h-96l14 64h90z" />
    <glyph glyph-name="two.numerator" unicode="&#xf663;" horiz-adv-x="591" 
d="M530 1276q0 86 -84 86q-60 0 -120 -23l-19 -16l-14 -72h-82l29 146q121 47 226 47t147 -43t42 -92t-12 -82q-22 -62 -118 -122q-46 -30 -101 -61t-99 -56q-68 -39 -77 -81l-8 -45h249l13 15l20 77h78l-39 -184h-461l25 127q11 63 59 104q47 41 157 100q109 60 149 96
t40 79z" />
    <glyph glyph-name="three.numerator" unicode="&#xf664;" horiz-adv-x="579" 
d="M494 1106q96 -27 96 -120q0 -94 -68 -160t-207 -66q-122 0 -209 39l33 145h82l-16 -72l14 -14q45 -18 90 -18q86 0 124 45t38 106q0 84 -98 84h-80l16 76h76q141 0 141 131q0 34 -24 58t-77 24q-52 0 -95 -16l-17 -15l-18 -69h-80l33 143q107 37 209 37t144 -45t42 -101
q0 -150 -149 -186v-6z" />
    <glyph glyph-name="four.numerator" unicode="&#xf665;" horiz-adv-x="610" 
d="M438 1028l60 279l-273 -279h213zM127 1022l403 420h113l-88 -414h88l-16 -70h-90l-25 -106l12 -14h76l-12 -68h-303l14 68h82l16 14l23 106h-309z" />
    <glyph glyph-name="five.numerator" unicode="&#xf666;" horiz-adv-x="585" 
d="M381 1167q101 0 163 -38t62 -128t-78 -167q-78 -76 -225 -74q-125 0 -194 43l30 145h82l-16 -69l18 -17q42 -14 91 -14q125 0 157 87q8 24 8 44q0 59 -39 79t-98 21h-160l78 355h414l-41 -179h-78l16 72l-16 12h-221l-37 -172h84z" />
    <glyph glyph-name="six.numerator" unicode="&#xf667;" horiz-adv-x="610" 
d="M518 993q0 103 -96 103q-80 0 -148 -62q-4 -18 -4 -34v-31q0 -127 101 -127q67 0 107 44t40 107zM637 1004q0 -102 -79 -173t-186 -71q-222 0 -222 215q0 177 90 309q107 160 301 160q77 0 141 -25l-33 -147h-71l12 67l-10 13q-30 12 -68 12q-79 0 -135 -66
q-57 -66 -88 -174q84 48 165 49q183 2 183 -169z" />
    <glyph glyph-name="seven.numerator" unicode="&#xf668;" horiz-adv-x="536" 
d="M672 1434l-10 -68l-359 -596h-131l379 567h-258l-19 -12l-14 -70h-82l37 179h457z" />
    <glyph glyph-name="eight.numerator" unicode="&#xf669;" horiz-adv-x="608" 
d="M561 1276q0 88 -102 88q-63 0 -97 -27t-34 -65t30 -61q30 -22 82 -44l29 -10q35 16 63 47t29 72zM500 947q0 46 -27 71t-84 43l-33 12q-54 -27 -74 -44q-51 -42 -52 -87t27 -74q29 -28 95 -28t107 30t41 77zM219 1240q0 85 69 144q69 60 179 60q109 0 153 -44t44 -97
q0 -117 -136 -175q93 -52 93 -151q0 -97 -75 -157t-199 -60t-173 44t-49 103q0 145 170 195q-76 53 -76 138z" />
    <glyph glyph-name="nine.numerator" unicode="&#xf66a;" horiz-adv-x="610" 
d="M299 1214q1 -60 25 -82t71 -22q81 0 148 61q4 32 4 64q0 127 -103 127q-63 0 -104 -44t-41 -104zM296 842q88 0 146 67q57 67 84 172q-71 -49 -168 -51q-178 0 -178 170q0 101 78 171q78 71 187 72q219 2 221 -214q0 -183 -88 -310q-108 -159 -304 -159q-81 0 -139 28
l33 146h70l-13 -70q25 -22 71 -22z" />
    <glyph glyph-name="comma.numerator" unicode="&#xf66b;" horiz-adv-x="292" 
d="M131 820q0 32 22 54q23 22 53 23q30 0 43 -16t13 -38t-8 -34t-14 -23l-101 -139l-41 29l58 80l-4 24q-21 8 -21 40z" />
    <glyph glyph-name="period.numerator" unicode="&#xf66c;" horiz-adv-x="286" 
d="M205 897q53 0 53 -59q0 -31 -20 -56q-20 -24 -50 -24t-46 17q-15 17 -15 45q-1 28 21 52t57 25z" />
    <glyph glyph-name="commaaccent" unicode="&#xf6c3;" horiz-adv-x="509" 
d="M133 -296q0 46 32 82t80 36t74.5 -23.5t26.5 -63.5t-41 -93l-155 -207q-4 0 -33 18l-33 21l90 125l-4 39q-37 20 -37 66z" />
    <glyph glyph-name="uniF8FF" unicode="&#xf8ff;" horiz-adv-x="2908" 
d="M141 10q0 -10 -10 -10h-22q-8 0 -9 10v62q0 10 9 10h22q10 0 10 -10v-62zM2589 854h96v23q0 37 -48 37t-48 -37v-23zM389 854h98v23q0 37 -49 37t-49 -37v-23zM2275 739v127q0 31 -32 31t-78 -31v-129q49 -32 75 -32t30.5 12t4.5 22zM924 299q0 66 -100 66t-101 -66v-74
h201v74zM1137 102q0 -67 102 -67h12q10 0 11 -10v-15q0 -10 -11 -10h-18q-80 0 -107.5 25.5t-27.5 72.5v258h-51q-8 0 -9 11v14q0 8 9 10h51v84q0 10 8 10h22q8 0 9 -10v-84h96q8 0 8 -8v-16q0 -10 -8 -11h-96v-254zM443 399q118 0 118 -94v-295q0 -10 -8 -10h-23
q-8 0 -8 10v287q0 63 -80 63q-47 0 -80.5 -17t-46.5 -30v-303q0 -10 -8 -10h-22q-10 0 -11 10v375q0 8 11 8h18q10 0 10 -8v-35q65 49 130 49zM682 301q0 98 142 98t141 -98v-100q0 -8 -9 -8h-233v-99q0 -67 100.5 -67t100.5 67v17q0 8 12 8h18q10 0 11 -8v-19
q1 -98 -141 -98t-142 98v209zM1559 997q23 0 22 -20v-55q0 -23 -22 -23h-64v-158q0 -37 49 -36h21q25 0 24 -23v-55q0 -23 -24 -23h-39q-92 0 -126 30t-34 93v172h-35q-23 0 -22 23v51q0 16 22 22l33 2h2v74q0 25 25 25h79q25 0 25 -25v-74h64zM1892 999h76q23 0 23 -16v-6
l-172 -510q-8 -23 -29 -23h-57q-23 0 -23 17v6l33 121l-133 389q-2 4 -2 8q0 14 24 14h82q16 0 25 -22l45 -143q14 -51 14 -76q7 7 21 71l49 148q4 10 8 16t16 6zM2464 883q0 125 170 125t170 -125v-88q0 -23 -23 -23h-192v-47q0 -37 48 -37t48 37v2q0 23 25 23h65
q23 0 23 -23v-6q0 -127 -127 -127t-167 35t-40 92v162zM262 883q0 125 171 125t171 -125v-88q0 -23 -24 -23h-191v-47q0 -37 49 -37t49 37v2q0 23 23 23h65q25 0 25 -23v-6q0 -127 -128 -127t-169 35t-41 92v162zM2284 594q-62 0 -119 43v-170q0 -23 -23 -23h-82
q-23 0 -22 23v510q0 23 22 22h74q25 0 25 -22l2 -14q51 45 123 45q116 0 116 -123v-164q0 -127 -116 -127zM861 897q-34 0 -62 -31v-239q0 -23 -21 -23h-84q-23 0 -22 23v350q0 23 22 22h78q23 0 23 -22v-12q55 43 119 43t104 -54q16 14 47 34t84 20t85 -32t32 -79v-270
q0 -23 -25 -23h-78q-27 0 -26 23v237q0 18 -5.5 25.5t-36.5 7.5t-65 -31v-239q0 -23 -22 -23h-78q-25 0 -25 23v237q0 18 -5 25.5t-39 7.5z" />
    <glyph glyph-name="f_f" unicode="&#xfb00;" horiz-adv-x="1384" 
d="M-104 -276q74 0 116 74t64 188l190 985h-164l19 102h135l35 29l10 49q35 176 131 270t279 95q104 0 188 -21l-41 -207h-113l23 107l-23 24q-24 4 -51 4q-86 -1 -132 -65t-75 -197l-20 -88h266l-20 -102h-267l-186 -975q-70 -365 -381 -365q-106 0 -180 21l41 201h113
l-21 -99l23 -26q20 -4 41 -4zM616 -276q74 0 116 74t65 188l190 985h-164l19 102h135l35 29l10 49q35 176 131 270t279 95q99 0 188 -21l-41 -207h-113l23 107l-23 24q-24 4 -51 4q-86 -1 -132 -65t-75 -197l-20 -88h266l-20 -102h-267l-186 -975q-70 -365 -381 -365
q-106 0 -180 21l41 201h112l-20 -99l22 -26q20 -4 41 -4z" />
    <glyph glyph-name="f_f_i" unicode="&#xfb03;" horiz-adv-x="2017" 
d="M1878 1495q109 -1 109 -99q0 -48 -34 -84q-33 -36 -91 -36q-108 0 -109 98q0 47 34 84t91 37zM1829 1077q55 -1 66 -23t3 -63l-184 -860l25 -31h133l-21 -100h-194q-72 0 -107 26t-16 111l168 803l-21 31h-137l25 106h260zM-104 -276q74 0 116 74t64 188l190 985h-164
l19 102h135l35 29l10 49q35 176 131 270t279 95q104 0 188 -21l-41 -207h-113l23 107l-23 24q-24 4 -51 4q-86 -1 -132 -65t-75 -197l-20 -88h266l-20 -102h-267l-186 -975q-70 -365 -381 -365q-106 0 -180 21l41 201h113l-21 -99l23 -26q20 -4 41 -4zM616 -276q74 0 116 74
t65 188l190 985h-164l19 102h135l35 29l10 49q35 176 131 270t279 95q99 0 188 -21l-41 -207h-113l23 107l-23 24q-24 4 -51 4q-86 -1 -132 -65t-75 -197l-20 -88h266l-20 -102h-267l-186 -975q-70 -365 -381 -365q-106 0 -180 21l41 201h112l-20 -99l22 -26q20 -4 41 -4z
" />
    <glyph glyph-name="f_f_l" unicode="&#xfb04;" horiz-adv-x="2070" 
d="M1974 1495q53 0 64 -22q10 -23 2 -58l-275 -1284l25 -31h133l-20 -100h-195q-68 0 -104 26t-19 109l262 1225l-20 29h-137l24 106h260zM-104 -276q74 0 116 74t64 188l190 985h-164l19 102h135l35 29l10 49q35 176 131 270t279 95q104 0 188 -21l-41 -207h-113l23 107
l-23 24q-24 4 -51 4q-86 -1 -132 -65t-75 -197l-20 -88h266l-20 -102h-267l-186 -975q-70 -365 -381 -365q-106 0 -180 21l41 201h113l-21 -99l23 -26q20 -4 41 -4zM616 -276q74 0 116 74t65 188l190 985h-164l19 102h135l35 29l10 49q35 176 131 270t279 95q99 0 188 -21
l-41 -207h-113l23 107l-23 24q-24 4 -51 4q-86 -1 -132 -65t-75 -197l-20 -88h266l-20 -102h-267l-186 -975q-70 -365 -381 -365q-106 0 -180 21l41 201h112l-20 -99l22 -26q20 -4 41 -4z" />
    <glyph glyph-name="longs_t" unicode="&#xfb05;" horiz-adv-x="1228" 
d="M-116 -369q-112 0 -185 21l41 201h113l-21 -99l23 -26q20 -4 41 -4q74 0 116 74t64 188l190 985h-164l21 102h133l37 29l8 49q37 172 132 268t278 97q104 0 188 -21l-41 -207h-110l20 107l-20 24q-28 4 -54 4q-86 -1 -132 -65t-75 -197l-227 -1165q-72 -365 -376 -365z
M693 29q-36 41 -15 137l172 805h-129l20 102h101l35 29l118 270h121l-63 -299h217l-21 -102h-217l-180 -840l25 -31h227l-23 -100q-159 -12 -255 -12t-133 41z" />
    <glyph glyph-name="zero.tab" unicode="&#xff10;" horiz-adv-x="1228" 
d="M741 1327q-231 0 -365 -321q-106 -257 -110 -562q0 -164 62 -251t202 -87q233 0 366 322q106 257 110 561q0 338 -265 338zM528 -20q-225 0 -342 137q-118 137 -116 362q0 361 158 645q112 204 302 289q96 43 216 43q222 0 341 -136t118 -364t-71 -438
q-124 -378 -393 -496q-96 -42 -213 -42z" />
    <glyph glyph-name="one.tab" unicode="&#xff11;" horiz-adv-x="1228" 
d="M627 1356q109 0 148.5 42t45.5 56h101l-283 -1325l23 -29h258l-21 -100h-764l23 100h254l34 29l232 1090l-23 28h-243l22 109h193z" />
    <glyph glyph-name="two.tab" unicode="&#xff12;" horiz-adv-x="1228" 
d="M358 1366q204 88 410 88t304 -89q99 -89 97 -212q0 -173 -110 -287t-364 -250q-254 -137 -312 -188q-57 -51 -80 -89t-35 -83l-24 -98h596l37 26l36 176h121l-73 -360h-941l56 260q28 133 127 226t339 217t332 212q91 88 91 218q1 86 -57 137t-181 51t-264 -51l-41 -35
l-37 -180h-127l61 295q2 0 39 16z" />
    <glyph glyph-name="three.tab" unicode="&#xff13;" horiz-adv-x="1228" 
d="M737 1454q214 0 314 -90t100 -219q0 -181 -95 -281t-247 -127v-6q99 -29 161 -92t62 -167q0 -210 -134 -343q-154 -152 -439 -152q-153 0 -301 43q-66 18 -117 43l63 293h119l-39 -180l21 -29q106 -41 221 -42q206 -1 306 104q99 105 97 258q0 121 -65 166
q-66 45 -176 45h-148l27 119h143q236 0 313 170q27 61 27 125q-1 119 -59 178q-59 59 -183 59t-241 -43l-37 -29l-39 -182h-117l62 293q2 0 36 14t140 43t225 29z" />
    <glyph glyph-name="four.tab" unicode="&#xff14;" horiz-adv-x="1228" 
d="M723 532l151 709l-667 -709h516zM53 532l875 922h184l-197 -922h195l-23 -120h-196l-60 -277l25 -29h166l-25 -106h-594l25 106h176l35 29l59 277h-669z" />
    <glyph glyph-name="five.tab" unicode="&#xff15;" horiz-adv-x="1228" 
d="M610 846q312 0 410 -191q35 -67 35 -161t-34 -186q-72 -195 -292 -284q-113 -46 -237 -46q-259 -1 -445 90l64 288h120l-36 -170l26 -30q104 -45 225 -45q210 0 311 108t99 256q0 184 -177 217q-54 10 -118 10h-336l156 732h805l-70 -338h-119l31 151l-22 29h-512
l-97 -430h213z" />
    <glyph glyph-name="six.tab" unicode="&#xff16;" horiz-adv-x="1228" 
d="M911 516q0 106 -60 164q-60 59 -171 59q-163 0 -308 -116q-40 -33 -67 -64q-4 -29 -4 -59v-60q1 -174 63 -256t203 -82t242 107q102 108 102 307zM723 864q257 0 347 -191q30 -65 30 -173t-46 -210q-46 -101 -124 -170q-161 -142 -373 -141q-438 2 -436 492q0 236 76 443
q134 378 449 497q114 43 242 43t204 -20t98 -35l-64 -297h-120l38 176l-26 31q-54 24 -150 24t-191 -46t-167 -130q-147 -172 -188 -459q191 166 401 166z" />
    <glyph glyph-name="seven.tab" unicode="&#xff17;" horiz-adv-x="1228" 
d="M1255 1434l-24 -105l-768 -1329h-215l821 1282h-616l-33 -29l-35 -159h-119l72 340h917z" />
    <glyph glyph-name="eight.tab" unicode="&#xff18;" horiz-adv-x="1228" 
d="M430 1092q0 -100 74 -160q74 -61 180 -103l33 -12q196 74 264 210q25 49 25 101q0 94 -64 150t-200 55q-137 0 -225 -70q-87 -71 -87 -171zM221 322q0 -151 155 -201q56 -19 137 -19q158 -1 259 85q101 85 100 214q0 104 -69 162q-70 57 -193 101l-51 18
q-129 -50 -192 -98q-146 -111 -146 -262zM831 770q236 -123 236 -334t-160 -335q-160 -123 -402 -122q-241 1 -358 100q-94 81 -94 205t42 200t116 137q74 62 238 112q-197 108 -197 296t144 307q145 118 360 118t325 -94q86 -75 86 -193q0 -264 -336 -397z" />
    <glyph glyph-name="nine.tab" unicode="&#xff19;" horiz-adv-x="1228" 
d="M362 920q0 -106 60 -164q60 -59 172 -60q156 0 306 116q40 32 69 65q4 58 4 118q1 174 -63 256t-204 82t-242 -107q-102 -108 -102 -306zM174 934q0 108 46 210q92 203 301 276q99 36 208 36q199 0 311 -119t113 -372q0 -363 -176 -649q-128 -208 -349 -292
q-114 -44 -241 -44t-204 20t-99 35l61 297h121l-37 -176l27 -31q68 -25 157 -25t183 46t166 130q144 168 190 461q-176 -165 -403 -168q-256 0 -345 192q-30 65 -30 173z" />
    <glyph glyph-name="grave.case" horiz-adv-x="718" 
d="M766 1548l-221 236l108 104h31l172 -284l-63 -56h-27z" />
    <glyph glyph-name="dieresis.case" horiz-adv-x="671" 
d="M682 1697q0 36 32 68.5t76 32.5t65.5 -23.5t21.5 -60.5t-32 -67.5t-76 -30.5t-65.5 22.5t-21.5 58.5zM401 1697q0 36 32 68.5t76 32.5t65.5 -23.5t21.5 -60.5t-33 -67.5t-77 -30.5t-64.5 22.5t-20.5 58.5z" />
    <glyph glyph-name="macron.case" horiz-adv-x="784" 
d="M455 1753h510l-23 -113h-510z" />
    <glyph glyph-name="acute.case" horiz-adv-x="720" 
d="M549 1548l-39 56l289 284h41l63 -104l-321 -236h-33z" />
    <glyph glyph-name="circumflex.case" 
d="M428 1548l-27 41l304 303h69l176 -303l-47 -41h-22l-166 203l-248 -203h-39z" />
    <glyph glyph-name="caron.case" 
d="M696 1548h-67l-176 301l43 43h26l162 -204l252 204h37l28 -43z" />
    <glyph glyph-name="breve.case" 
d="M681 1575q-101 0 -151.5 65t-50.5 164l92 23q0 -57 29.5 -101.5t99.5 -44.5t118 43t73 99l82 -19q-54 -153 -146 -191t-146 -38z" />
    <glyph glyph-name="dotaccent.case" horiz-adv-x="411" 
d="M369 1701q0 46 37.5 85t91.5 39t81 -27.5t27 -73.5t-39 -85.5t-93 -39.5t-79.5 28t-25.5 74z" />
    <glyph glyph-name="ring.case" horiz-adv-x="628" 
d="M496 1679q0 -86 102 -86q66 0 106.5 34t40.5 95q0 88 -104 88q-66 0 -105.5 -35t-39.5 -96zM668 1872q70 0 125 -38t55 -98q0 -103 -72 -154.5t-172 -51.5t-156.5 36t-56.5 97t20.5 99t56.5 62.5t83 36t117 11.5z" />
    <glyph glyph-name="tilde.case" 
d="M868 1591q-62 0 -100.5 16.5t-105.5 53.5t-111 37q-45 0 -67.5 -18.5t-26.5 -39.5l-17 -69h-86l17 74q20 90 65 134t125 44q41 0 78 -17.5t74 -39t74.5 -39t80.5 -17.5t63.5 20.5t24.5 41.5l13 63h84l-19 -78q-16 -80 -60 -123t-106 -43z" />
    <glyph glyph-name="hungarumlaut.case" 
d="M657 1548l-24 47l299 265h39l55 -82l-340 -230h-29zM422 1548l-29 47l258 293h39l68 -71l-307 -269h-29z" />
    <glyph glyph-name="caron.salt" horiz-adv-x="468" 
d="M375 1192l80 405h125l-33 -165l-70 -240h-102z" />
    <glyph glyph-name="commaaccent.salt" horiz-adv-x="509" 
d="M426 1360q0 -45 -30 -81t-80 -36t-75.5 23.5t-25.5 61.5t41 95l152 201l63 -39l-86 -119l6 -39q35 -22 35 -67z" />
    </font>
</defs>
</svg>
