<?xml version="1.0" standalone="no"?>
<!DOCTYPE svg PUBLIC "-//W3C//DTD SVG 1.1//EN" "http://www.w3.org/Graphics/SVG/1.1/DTD/svg11.dtd" >
<svg xmlns="http://www.w3.org/2000/svg">
<metadata>
Created by FontPrep 20130207 at Thu Nov 20 13:02:36 2014
 By usuario
Copyright (c) 2014 by Eduardo Manso. All rights reserved.
</metadata>
<defs>
<font id="45514d075dce0374bad8d46a44ccfe93" horiz-adv-x='1024' >
  <font-face 
    font-family="Catalana-BoldItalic"
    font-weight="700"
    font-style="italic"
    font-stretch="normal"
    units-per-em="2048"
    panose-1="2 0 0 0 0 0 0 0 0 0"
    ascent="1536"
    descent="-512"
    x-height="1085"
    cap-height="1434"
    bbox="-467 -586 2865 1974"
    underline-thickness="102"
    underline-position="-102"
    unicode-range="U+000D-FF19"
  />
<missing-glyph horiz-adv-x="1808" 
d="M857 238q-52 0 -83 31.5t-31 76.5t31 76t83 31t83 -31t31 -76t-31 -76.5t-83 -31.5zM901 1124q229 0 266 -88t37 -146q0 -123 -164 -198q-59 -27 -79.5 -42t-20.5 -44v-22l-37 -54h-94l-39 54v22q0 102 55 132t103 54q72 36 73 107q0 41 -28.5 71.5t-82.5 30.5t-126 -24
l-12 -16v-99h-119v180q125 82 268 82zM297 715q0 -123 45 -229.5t125 -186.5t186.5 -126t229.5 -46t229.5 46t185 126t124.5 186.5t46 229.5t-45 230.5t-123.5 187t-185 126t-229.5 46.5t-230.5 -46.5t-186.5 -126t-125 -187t-46 -230.5zM143 714.5q0 153.5 58.5 289
t159 234.5t235.5 157.5t288.5 58.5t289 -58.5t234.5 -157.5t157.5 -234.5t58.5 -289t-58.5 -286.5t-159.5 -233.5t-235.5 -157.5t-288 -57t-288.5 57t-234.5 157.5t-158 233.5t-58.5 286.5z" />
    <glyph glyph-name="fi" unicode="fi" horiz-adv-x="1345" 
d="M1139 1198q-148 0 -148 146q0 72 50 127q51 55 139 55t126 -37t38 -109t-50 -128q-49 -54 -155 -54zM1186 1085q77 0 77 -59q-1 -16 -3 -31l-170 -794l30 -37h90l-34 -164h-211q-107 0 -141 22q-68 43 -42 164l146 688l-29 37h-90l39 174h338zM-94 -227q58 0 91 61
t50 152l172 925h-125l35 170h88l45 37l4 25q39 260 273 344q80 29 164 29q97 0 235 -23l-51 -240h-174l20 95l-20 26h-2q-58 0 -90 -64q-26 -49 -48 -149l-14 -80h225l-34 -170h-226l-168 -907q-47 -262 -275 -344q-81 -29 -202 -29t-201 23l50 229h174l-19 -84l21 -26h2z
" />
    <glyph glyph-name="fl" unicode="fl" horiz-adv-x="1382" 
d="M1311 1495q59 0 70 -29t5 -61l-256 -1204l31 -37h90l-37 -164h-210q-110 0 -142 22q-65 45 -41 164l234 1098l-29 37h-90l37 174h338zM-94 -227q58 0 91 61t50 152l172 925h-125l35 170h88l45 37l4 25q39 260 273 344q80 29 164 29q97 0 235 -23l-51 -240h-174l20 95
l-20 26h-2q-58 0 -90 -64q-26 -49 -48 -149l-14 -80h225l-34 -170h-226l-168 -907q-47 -262 -275 -344q-81 -29 -202 -29t-201 23l50 229h174l-19 -84l21 -26h2z" />
    <glyph glyph-name=".notdef" horiz-adv-x="1808" 
d="M857 238q-52 0 -83 31.5t-31 76.5t31 76t83 31t83 -31t31 -76t-31 -76.5t-83 -31.5zM901 1124q229 0 266 -88t37 -146q0 -123 -164 -198q-59 -27 -79.5 -42t-20.5 -44v-22l-37 -54h-94l-39 54v22q0 102 55 132t103 54q72 36 73 107q0 41 -28.5 71.5t-82.5 30.5t-126 -24
l-12 -16v-99h-119v180q125 82 268 82zM297 715q0 -123 45 -229.5t125 -186.5t186.5 -126t229.5 -46t229.5 46t185 126t124.5 186.5t46 229.5t-45 230.5t-123.5 187t-185 126t-229.5 46.5t-230.5 -46.5t-186.5 -126t-125 -187t-46 -230.5zM143 714.5q0 153.5 58.5 289
t159 234.5t235.5 157.5t288.5 58.5t289 -58.5t234.5 -157.5t157.5 -234.5t58.5 -289t-58.5 -286.5t-159.5 -233.5t-235.5 -157.5t-288 -57t-288.5 57t-234.5 157.5t-158 233.5t-58.5 286.5z" />
    <glyph glyph-name=".null" horiz-adv-x="0" 
 />
    <glyph glyph-name="nonmarkingreturn" unicode="&#xd;" horiz-adv-x="0" 
 />
    <glyph glyph-name="NULL" horiz-adv-x="0" 
 />
    <glyph glyph-name="NULL" horiz-adv-x="0" 
 />
    <glyph glyph-name="space" unicode=" " horiz-adv-x="446" 
 />
    <glyph glyph-name="exclam" unicode="!" horiz-adv-x="581" 
d="M182 461l-45 90l72 532l76 351h360l-76 -351l-155 -532l-80 -90h-152zM10 115q0 91 62 151t141 60t121.5 -44t42.5 -94q0 -88 -61.5 -148t-159.5 -60q-61 0 -103.5 43t-42.5 92z" />
    <glyph glyph-name="quotedbl" unicode="&#x22;" horiz-adv-x="819" 
d="M553 905l35 381l33 148h270l-33 -148l-125 -381h-180zM203 905l37 381l32 148h269l-33 -148l-123 -381h-182z" />
    <glyph glyph-name="numbersign" unicode="#" horiz-adv-x="1122" 
d="M422 455h188l60 178h-189zM973 299h-225l-99 -299h-188l98 299h-188l-99 -299h-188l98 299h-147v156h198l60 178h-176v155h227l98 297h189l-99 -297h189l98 297h189l-99 -297h146v-155h-197l-59 -178h174v-156z" />
    <glyph glyph-name="dollar" unicode="$" horiz-adv-x="1157" 
d="M471 1073q0 -61 22.5 -94t96.5 -66l74 347q-193 -36 -193 -187zM739 393q0 51 -23.5 84t-82.5 62l-78 -367q184 40 184 221zM1053 478q0 -96 -41 -187.5t-148 -187.5t-348 -117l-41 -195h-123l39 189q-261 6 -403 55l78 371h186l-41 -191l31 -37q76 -16 188 -16l90 422
q-172 59 -262 151t-90 248q0 199 151 323t386 144l34 162h123l-35 -158q202 -5 359 -53l-76 -354h-186l37 174l-29 34q-71 12 -144 15l-86 -404q181 -70 241.5 -126t85 -111t24.5 -151z" />
    <glyph glyph-name="percent" unicode="%" horiz-adv-x="1482" 
d="M520 1448q96 0 159 -64q62 -64 62 -172q0 -203 -98 -328q-98 -124 -246 -124q-117 0 -179 64t-62 170q0 306 202 418q66 36 162 36zM344 995q0 -100 59 -100q68 1 110 109t42 206t-59 99q-98 0 -142 -216q-10 -55 -10 -98zM1150 678q96 0 158 -64t62 -172
q0 -110 -26 -189q-51 -159 -180 -229q-62 -34 -138 -34q-117 0 -179 64q-63 64 -63 170t24 185t69 138t111 95t162 36zM973 225q0 -100 59 -100q68 1 110 109t42 206t-60 99q-97 0 -141 -216q-10 -55 -10 -98zM1198 1434h148l-1016 -1434h-148z" />
    <glyph glyph-name="ampersand" unicode="&#x26;" horiz-adv-x="1490" 
d="M780 891q195 118 195 294q0 122 -137 122q-72 0 -117 -45.5t-45 -101.5q0 -95 59 -195zM561 184q115 0 225 72l-251 403q-126 -50 -164.5 -129t-38.5 -151t57 -133.5t172 -61.5zM1186 1186q0 -238 -346 -393l182 -295q70 96 107.5 173t67.5 114.5t106 37.5h159l-35 -174
h-94l-43 -37q-92 -170 -170 -274l82 -131l35 -33h119l-39 -174h-248q-117 0 -180 94l-8 12q-188 -126 -423 -126q-236 0 -344 103t-108 237q0 135 54.5 214.5t155 144t255.5 83.5q-82 144 -82 305q0 162 122 274.5t311 112.5q190 0 277 -76.5t87 -191.5z" />
    <glyph glyph-name="quotesingle" unicode="'" horiz-adv-x="477" 
d="M203 905l37 381l32 148h275l-33 -148l-123 -381h-188z" />
    <glyph glyph-name="parenleft" unicode="(" horiz-adv-x="718" 
d="M53 406q0 72 15 137l65 309q63 293 207.5 431t258.5 207t245 140l47 -82q-290 -227 -365 -405t-100 -291l-66 -309q-23 -106 -22 -195q0 -273 190 -498l-77 -81q-398 282 -398 637z" />
    <glyph glyph-name="parenright" unicode=")" horiz-adv-x="716" 
d="M700 993q0 -72 -14 -137l-65 -309q-62 -292 -207.5 -431t-259 -208.5t-244.5 -138.5l-47 81q286 224 363 404t102 293l65 309q23 106 23 195q0 273 -191 497l78 82q397 -282 397 -637z" />
    <glyph glyph-name="asterisk" unicode="*" horiz-adv-x="935" 
d="M453 1434h221v-117l-49 -164l125 123l106 55l100 -198l-104 -54l-199 -37l150 -108l69 -94l-176 -133l-71 94l-62 170l-61 -170l-72 -94l-176 133l70 94l149 108l-199 37l-104 54l100 198l107 -55l125 -123l-49 164v117z" />
    <glyph glyph-name="plus" unicode="+" horiz-adv-x="1032" 
d="M94 791h338v339h201v-339h338v-195h-338v-342h-201v342h-338v195z" />
    <glyph glyph-name="comma" unicode="," horiz-adv-x="520" 
d="M41 6q-53 35 -53 111t54.5 134t134.5 58q79 0 121 -40t42 -91t-17.5 -84t-39.5 -61l-228 -299l-112 69l106 148z" />
    <glyph glyph-name="hyphen" unicode="-" horiz-adv-x="712" 
d="M129 686h483l-47 -215h-483z" />
    <glyph glyph-name="period" unicode="." horiz-adv-x="516" 
d="M-14 108q0 87 60.5 144t137.5 57t115.5 -42.5t38.5 -108.5t-59.5 -122t-139.5 -56t-116.5 41t-36.5 87z" />
    <glyph glyph-name="slash" unicode="/" horiz-adv-x="890" 
d="M-129 -209l983 1821h205l-985 -1821h-203z" />
    <glyph glyph-name="zero" unicode="0" horiz-adv-x="1314" 
d="M940 991q0 254 -156 254q-121 0 -222 -166.5t-122.5 -369.5t-21.5 -295t34.5 -159t110.5 -67t128 42t111.5 140.5t98.5 286.5t39 334zM571 -20q-237 0 -359 149t-122 377q0 351 144.5 589.5t291 299.5t323 61t299 -148.5t122.5 -385.5q0 -158 -43 -324t-130 -304
t-218.5 -226t-307.5 -88z" />
    <glyph glyph-name="one" unicode="1" horiz-adv-x="851" 
d="M377 1333q98 0 163.5 36t92.5 85h164l-265 -1243l27 -37h170l-37 -174h-735l37 174h170l43 37l192 905l-28 37h-168l37 180h137z" />
    <glyph glyph-name="two" unicode="2" horiz-adv-x="1177" 
d="M813 1085q0 152 -188 152q-72 0 -152 -25l-41 -32l-35 -152h-198l73 328q220 98 443 98t332.5 -104.5t109.5 -243.5q0 -176 -117.5 -292.5t-385.5 -265.5q-183 -102 -234.5 -150t-67.5 -124l-6 -24h430l43 35l35 164h186l-92 -449h-977l54 264q28 150 121 243.5
t306 214.5q214 121 266 170.5t73.5 93.5t21.5 99z" />
    <glyph glyph-name="three" unicode="3" horiz-adv-x="1146" 
d="M795 1083q0 168 -187 168q-68 0 -141 -30l-35 -29l-39 -164h-190l71 336q97 49 218.5 69.5t219.5 20.5t257 -55t159 -287q0 -150 -92 -249t-245 -128v-8q98 -35 161.5 -98.5t63.5 -163.5q0 -205 -145.5 -347.5t-432.5 -142.5q-161 1 -279 33t-175 58l69 335h195l-35 -163
l20 -29q77 -31 161 -31q151 0 219.5 82t68.5 215q0 82 -37 123t-127 41h-149l41 190h147q104 0 171 67t67 187z" />
    <glyph glyph-name="four" unicode="4" horiz-adv-x="1224" 
d="M645 582l115 532l-492 -532h377zM33 582l815 872h307l-186 -872h166l-37 -189h-166l-41 -182l29 -37h131l-39 -174h-676l39 174h149l43 37l39 182h-610z" />
    <glyph glyph-name="five" unicode="5" horiz-adv-x="1134" 
d="M537 872q346 0 419.5 -137t73.5 -235q0 -213 -159.5 -368t-460.5 -155q-163 0 -310 48q-68 20 -118 47l71 329h199l-33 -147l27 -35q70 -27 153 -27q148 1 221.5 77.5t73.5 186.5q0 109 -61.5 151t-175.5 42h-307l165 785h832l-86 -416h-191l27 129l-31 35h-372l-68 -310
h111z" />
    <glyph glyph-name="six" unicode="6" horiz-adv-x="1208" 
d="M801 496q0 82 -40 130t-115 48q-152 0 -255 -107q-6 -78 -6 -177t39 -156.5t139 -57.5t169 81.5t69 238.5zM424 762q138 110 297 110t275 -89.5t116 -264.5q0 -253 -168.5 -395.5t-393.5 -142.5q-224 0 -349 118.5t-125 368.5q0 191 107.5 496.5t330.5 398t358 92.5
q209 0 332 -43l-69 -344h-199l33 154l-29 34q-109 27 -198 -17t-177 -145t-141 -331z" />
    <glyph glyph-name="seven" unicode="7" horiz-adv-x="1052" 
d="M1186 1434l-37 -168l-700 -1266h-351l789 1184h-484l-41 -35l-32 -139h-189l90 424h955z" />
    <glyph glyph-name="eight" unicode="8" horiz-adv-x="1193" 
d="M897 1102q0 74 -47 116t-139 42t-149.5 -48.5t-57.5 -118.5t50.5 -123t180.5 -114l35 -16q127 106 127 262zM467 635q-164 -127 -164 -277q0 -184 203 -184q115 0 180.5 67t65.5 136t-41 122.5t-148 94.5zM352 709q-141 114 -141 303t153.5 315.5t377.5 126.5
t323.5 -91.5t99.5 -217.5q0 -201 -102 -279t-158 -102q164 -116 164 -297q0 -222 -163 -354.5t-415 -132.5t-356 94t-104 241q0 282 321 394z" />
    <glyph glyph-name="nine" unicode="9" horiz-adv-x="1206" 
d="M453 938q0 -178 159 -178q148 0 246 106q8 78 8 178t-39 156.5t-143 56.5q-156 0 -193.5 -118.5t-37.5 -200.5zM827 674q-134 -111 -295 -111q-162 0 -277.5 90.5t-115.5 266.5q0 247 170 391.5t394 144.5q223 0 347 -118.5t124 -370.5q0 -190 -106.5 -496.5t-331 -398.5
t-367.5 -92t-234 22q-49 8 -86 23l70 344h194l-30 -154l28 -37q31 -6 66 -6q160 0 278.5 134t171.5 368z" />
    <glyph glyph-name="colon" unicode=":" horiz-adv-x="579" 
d="M180 904q0 86 60 144t138 58q77 0 115.5 -42t38.5 -108t-59 -123t-139 -57t-117 41t-37 87zM14 108q0 85 60 143t138 58q77 0 116 -42.5t39 -108.5t-59.5 -122t-139.5 -56t-117 41t-37 87z" />
    <glyph glyph-name="semicolon" unicode=";" horiz-adv-x="581" 
d="M182 904q0 86 60 144t138 58q77 0 116 -42t39 -108t-59.5 -123t-139.5 -57t-117 41t-37 87zM68 6q-54 36 -54 111t54.5 133.5t134.5 58.5t122 -40t42 -103t-58 -133l-227 -299l-113 69l107 148z" />
    <glyph glyph-name="less" unicode="&#x3c;" horiz-adv-x="1107" 
d="M92 641v137l877 355v-211l-561 -209l561 -219v-209z" />
    <glyph glyph-name="equal" unicode="=" horiz-adv-x="1200" 
d="M166 625h876v-195h-876v195zM172 963h877v-195h-877v195z" />
    <glyph glyph-name="greater" unicode="&#x3e;" horiz-adv-x="1095" 
d="M164 494l561 219l-561 209v211l876 -355v-137l-876 -356v209z" />
    <glyph glyph-name="question" unicode="?" horiz-adv-x="1062" 
d="M154 115q0 93 62.5 152t140.5 59q79 0 121 -44t42 -94q0 -88 -61.5 -148t-159.5 -60q-61 0 -103 43t-42 92zM638 1454q238 0 354 -87.5t116 -222.5t-75 -231.5t-275 -179.5q-53 -23 -88 -38t-67.5 -37.5t-39.5 -65.5l-8 -41l-80 -90h-151l-45 90l10 61q18 114 77.5 158.5
t108.5 66t107 49.5q107 51 146.5 104t39.5 118q0 141 -213 141q-85 0 -141 -24l-35 -29l-35 -160h-186l65 312q55 31 123 53q156 53 292 53z" />
    <glyph glyph-name="at" unicode="@" horiz-adv-x="1798" 
d="M943 893q-108 0 -157.5 -123t-49.5 -247t98 -124q53 0 137 52v14q0 35 12 94l66 297q-44 37 -106 37zM90 554q0 182 67.5 349.5t190.5 290.5t296.5 191.5t369.5 68.5q361 0 552 -195.5t191 -480.5t-120.5 -398.5t-209 -143t-167.5 -29.5q-205 0 -267 135
q-68 -87 -141.5 -111t-110.5 -24q-123 0 -200.5 77.5t-77.5 234.5q0 275 134.5 420.5t291.5 145.5q66 0 120 -35.5t76 -76.5l39 59q14 23 28.5 30t49.5 7h156l-119 -547q-8 -32 -8 -67t23.5 -64t76.5 -29q101 0 171.5 108.5t70.5 320.5t-142.5 366t-402.5 154
q-332 0 -488.5 -161t-211 -303.5t-54.5 -292.5t38 -245.5t157 -226.5t501 -131q163 0 361 53l10 -108q-191 -91 -444 -91t-463 109.5t-277 283.5t-67 356z" />
    <glyph glyph-name="A" unicode="A" horiz-adv-x="1339" 
d="M465 565h321l-57 504zM809 371h-444l-86 -164l26 -33h78l-39 -174h-489l39 174h77l43 37l678 1227h295l174 -1231l29 -33h80l-39 -174h-541l39 174h62l36 33z" />
    <glyph glyph-name="B" unicode="B" horiz-adv-x="1335" 
d="M614 201q152 0 214.5 78.5t62.5 203.5q0 78 -47 114t-142 36h-165l-95 -432h172zM698 834q147 0 213 69.5t66 186.5q0 78 -52.5 110.5t-146.5 32.5h-112l-88 -399h120zM842 1434q221 0 344 -79t123 -233t-78 -241.5t-211 -137.5v-6q98 -41 150.5 -106t52.5 -179
q0 -222 -167 -337t-460 -115h-643l37 174h88l43 37l215 1012l-29 37h-88l39 174h584z" />
    <glyph glyph-name="C" unicode="C" horiz-adv-x="1196" 
d="M82 524q0 422 232 676t610 254q187 0 344 -57l-78 -375h-195l37 174l-26 35q-40 8 -116 8t-166.5 -40t-195 -170.5t-104.5 -477.5q0 -256 105 -302t169 -46t111 6l45 35l41 188h195l-80 -383q-151 -69 -371 -69q-266 0 -411.5 141t-145.5 403z" />
    <glyph glyph-name="D" unicode="D" horiz-adv-x="1435" 
d="M614 213q176 0 306.5 182t130.5 510q0 160 -59.5 238t-207.5 78h-118l-220 -1008h168zM827 1434q260 0 413 -137.5t153 -397.5q0 -426 -226 -662.5t-604 -236.5h-610l39 174h88l43 37l213 1012l-29 37h-88l39 174h569z" />
    <glyph glyph-name="E" unicode="E" horiz-adv-x="1253" 
d="M666 1229l-84 -398h209l40 33l17 82h172l-90 -428h-172l16 82l-26 31h-211l-91 -426h422l43 35l37 163h187l-86 -403h-1096l39 174h88l43 37l213 1012l-29 37h-88l39 174h1075l-86 -404h-186l35 164l-29 35h-401z" />
    <glyph glyph-name="F" unicode="F" horiz-adv-x="1236" 
d="M666 1225l-91 -414h238l43 35l16 80h172l-90 -428h-172l17 82l-27 30h-240l-83 -399l26 -37h131l-39 -174h-614l39 174h88l43 37l213 1012l-29 37h-88l39 174h1104l-86 -404h-182l34 160l-28 35h-434z" />
    <glyph glyph-name="G" unicode="G" horiz-adv-x="1292" 
d="M82 506q0 442 231 695t605 253q228 0 385 -57l-80 -375h-187l39 182l-26 31q-68 14 -155 14q-88 0 -178.5 -41t-191 -175t-100.5 -492q0 -160 70.5 -262.5t214.5 -102.5q37 0 57 4l65 312l-30 36h-76l39 174h491l-38 -174h-60l-39 -36l-92 -443q-163 -69 -376 -69
q-273 0 -420.5 148.5t-147.5 377.5z" />
    <glyph glyph-name="H" unicode="H" horiz-adv-x="1488" 
d="M958 625h-423l-89 -414l27 -37h90l-39 -174h-573l39 174h88l43 37l215 1012l-29 37h-88l37 174h573l-36 -174h-91l-40 -37l-82 -385h424l81 385l-26 37h-88l37 174h573l-37 -174h-90l-43 -37l-215 -1012l29 -37h90l-39 -174h-574l39 174h88l41 37z" />
    <glyph glyph-name="I" unicode="I" horiz-adv-x="739" 
d="M336 1223l-29 37h-88l39 174h573l-38 -174h-91l-40 -37l-213 -1012l26 -37h90l-39 -174h-573l39 174h88l43 37z" />
    <glyph glyph-name="J" unicode="J" horiz-adv-x="1062" 
d="M332 -20q-209 0 -318 63q-51 27 -77 63l67 320h211l-37 -174l21 -33q55 -24 86 -24q98 0 149 45t70 135l178 848l-27 37h-88l39 174h574l-39 -174h-90l-43 -37l-172 -820q-41 -195 -168 -309t-336 -114z" />
    <glyph glyph-name="K" unicode="K" horiz-adv-x="1425" 
d="M526 0h-573l39 174h88l43 37l213 1012l-29 37h-88l39 174h573l-38 -174h-91l-38 -35l-84 -402h82l438 414l-15 23h-61l39 174h493l-38 -174h-82l-56 -31l-456 -428l274 -596l33 -31h86l-39 -174h-557l39 174h74l14 14l-197 457h-110l-92 -436l26 -35h90z" />
    <glyph glyph-name="L" unicode="L" horiz-adv-x="1138" 
d="M449 209h339l43 35l41 188h187l-92 -432h-1014l39 174h88l43 37l213 1012l-29 37h-88l39 174h573l-38 -174h-91l-40 -37z" />
    <glyph glyph-name="M" unicode="M" horiz-adv-x="1689" 
d="M1255 936l-387 -533h-204l-156 478l-141 -670l28 -37h90l-39 -174h-495l39 174h88l43 37l215 1012l-29 37h-88l37 174h383l217 -725l504 725h422l-37 -174h-88l-45 -37l-215 -1012l28 -37h91l-39 -174h-543l39 174h88l41 37z" />
    <glyph glyph-name="N" unicode="N" horiz-adv-x="1454" 
d="M956 -6l-440 948l-154 -731l29 -37h90l-39 -174h-491l39 174h88l43 37l213 1012l-29 37h-88l39 174h367l391 -854l137 643l-29 37h-88l39 174h492l-39 -174h-90l-43 -37l-260 -1229h-177z" />
    <glyph glyph-name="O" unicode="O" horiz-adv-x="1400" 
d="M422 471q0 -139 44 -205.5t166 -66.5t232 159.5t134 350t24 256.5q0 133 -44 201.5t-167 68.5t-213.5 -132.5t-133 -312.5t-42.5 -319zM836 1454q258 0 393 -150.5t135 -396.5q0 -345 -196.5 -636t-558.5 -291q-255 0 -392 151.5t-137 386.5q0 351 155.5 583.5t311 292.5
t289.5 60z" />
    <glyph glyph-name="P" unicode="P" horiz-adv-x="1288" 
d="M702 713q129 0 209 77.5t80 245.5q0 94 -45 145.5t-153 51.5h-127l-111 -520h147zM836 1434q227 0 359 -95.5t132 -289.5q0 -268 -179 -402.5t-484 -134.5h-152l-63 -301l26 -37h115l-39 -174h-598l39 174h88l43 37l213 1012l-29 37h-88l39 174h578z" />
    <glyph glyph-name="Q" unicode="Q" horiz-adv-x="1400" 
d="M422 471q0 -139 44 -205.5t166 -66.5t232 159.5t134 350t24 256.5q0 133 -44 201.5t-167 68.5t-213.5 -132.5t-133 -312.5t-42.5 -319zM836 1454q258 0 393 -150.5t135 -411.5q0 -262 -126 -509.5t-357 -349.5l96 -119l70 -31h110l-35 -174h-295q-76 0 -113.5 22.5
t-62.5 63.5l-114 189q-223 23 -340 171t-117 363q0 351 155.5 583.5t311 292.5t289.5 60z" />
    <glyph glyph-name="R" unicode="R" horiz-adv-x="1359" 
d="M854 1434q217 0 341 -85t124 -266t-122 -286.5t-263 -120.5v-8q78 -10 123 -58.5t55 -152.5l25 -250l32 -33h72l-39 -174h-289q-101 0 -110 106l-33 349q-8 80 -20 99t-56 19h-168l-77 -364l26 -35h107l-39 -174h-590l39 174h88l43 37l213 1012l-29 37h-88l39 174h596z
M707 774q127 0 201.5 74t74.5 227q0 74 -40 116t-140 42h-137l-97 -459h138z" />
    <glyph glyph-name="S" unicode="S" horiz-adv-x="1128" 
d="M430 190q277 0 277 203q0 53 -33 86t-72.5 55.5t-99.5 53.5q-159 81 -246.5 169.5t-87.5 218.5q0 236 161.5 357t402.5 121q242 0 417 -80l-80 -352h-197l37 170l-28 35q-66 16 -167 16q-102 0 -173.5 -44t-71.5 -122t41.5 -115.5t191.5 -114.5t238 -166t88 -210
q0 -233 -160 -362t-423 -129t-449 88l76 364h196l-41 -186l31 -37q84 -19 172 -19z" />
    <glyph glyph-name="T" unicode="T" horiz-adv-x="1208" 
d="M221 1434h1114l-88 -412h-188l31 162l-27 37h-168l-211 -1010l29 -37h116l-38 -174h-623l39 174h108l43 37l211 1010h-170l-43 -37l-30 -162h-193z" />
    <glyph glyph-name="U" unicode="U" horiz-adv-x="1370" 
d="M610 -20q-223 0 -352 87t-129 273q0 66 14 131l160 752l-29 37h-88l37 174h578l-37 -174h-90l-43 -37l-160 -756q-14 -77 -14 -127t44.5 -96.5t124.5 -46.5q139 0 197.5 66t87.5 204l160 756l-29 37h-88l37 174h500l-37 -174h-90l-43 -37l-160 -752
q-83 -382 -264.5 -436.5t-286.5 -54.5z" />
    <glyph glyph-name="V" unicode="V" horiz-adv-x="1320" 
d="M223 1227l-26 33h-78l39 174h540l-39 -174h-63l-39 -33l82 -824l430 824l-25 33h-79l39 174h495l-39 -174h-69l-39 -33l-670 -1231h-299z" />
    <glyph glyph-name="W" unicode="W" horiz-adv-x="1939" 
d="M221 1229l-24 31h-72l39 174h538l-38 -174h-72l-39 -33l49 -725l445 932h251l58 -932l350 721l-27 37h-82l39 174h478l-39 -174h-66l-39 -33l-612 -1231h-277l-65 835l-410 -835h-278z" />
    <glyph glyph-name="X" unicode="X" horiz-adv-x="1366" 
d="M-98 0l39 174h65l33 23l493 532l-227 504l-26 27h-103l39 174h586l-37 -174h-62l-28 -27l110 -270l265 276l-13 21h-55l39 174h463l-39 -174h-66l-51 -33l-448 -451l260 -579l22 -23h101l-39 -174h-592l39 174h59l31 29l-133 321l-289 -327l18 -23h43l-39 -174h-458z" />
    <glyph glyph-name="Y" unicode="Y" horiz-adv-x="1253" 
d="M223 0l39 174h88l43 37l68 319l-246 695l-27 35h-75l37 174h546l-37 -174h-65l-37 -31l152 -428l297 426l-25 33h-68l37 174h473l-37 -174h-75l-39 -33l-471 -629l-82 -389l26 -35h93l-39 -174h-576z" />
    <glyph glyph-name="Z" unicode="Z" horiz-adv-x="1222" 
d="M-55 0l37 176l858 1047h-383l-41 -33l-37 -166h-195l88 410h1014l-37 -177l-848 -1044h439l39 33l34 166h195l-88 -412h-1075z" />
    <glyph glyph-name="bracketleft" unicode="[" horiz-adv-x="638" 
d="M-55 -209l387 1819h463l-31 -144h-178l-326 -1534h178l-30 -141h-463z" />
    <glyph glyph-name="backslash" unicode="\" horiz-adv-x="851" 
d="M252 1612h184l199 -1821h-184z" />
    <glyph glyph-name="bracketright" unicode="]" horiz-adv-x="641" 
d="M731 1610l-387 -1819h-463l31 144h178l326 1533h-178l30 142h463z" />
    <glyph glyph-name="asciicircum" unicode="^" horiz-adv-x="894" 
d="M666 793l-168 421l-162 -421h-203l266 641h199l272 -641h-204z" />
    <glyph glyph-name="underscore" unicode="_" horiz-adv-x="1040" 
d="M-166 -164h1040l-34 -160h-1041z" />
    <glyph glyph-name="grave" unicode="`" horiz-adv-x="837" 
d="M256 1368l182 180h47l205 -272l-104 -94h-35z" />
    <glyph glyph-name="a" unicode="a" horiz-adv-x="1191" 
d="M344 385q0 -80 28.5 -127t102.5 -47q35 0 86 24.5t101 79.5l110 527q-62 37 -129 37q-66 0 -123 -43t-116.5 -148.5t-59.5 -302.5zM29 388q0 112 37.5 247t155 303t368.5 168q156 0 235 -96l25 39q14 23 28.5 29.5t49.5 6.5h202l-188 -884l31 -37h90l-37 -164h-201
q-99 0 -148 22t-42 97l4 41h-6q-49 -82 -125 -131t-161 -49t-143.5 28.5t-97 78.5t-58 119.5t-19.5 181.5z" />
    <glyph glyph-name="b" unicode="b" horiz-adv-x="1189" 
d="M682 874q-35 0 -86 -24.5t-100 -79.5l-113 -528q53 -35 125 -35q137 0 221 147.5t84 345.5q0 80 -28.5 127t-102.5 47zM557 1495q59 0 70.5 -26.5t3.5 -63.5l-101 -469q49 78 123 124t158 46q158 0 237.5 -105t79.5 -260t-37.5 -290.5t-110.5 -240t-177.5 -167.5
t-246.5 -63t-220 90h-6q-7 -34 -29 -52t-80 -18h-319l37 164h90l41 37l231 1083l-27 37h-90l35 174h338z" />
    <glyph glyph-name="c" unicode="c" horiz-adv-x="970" 
d="M31 403q0 318 185 510.5t456 192.5q158 0 297 -45l-74 -348h-195l35 166l-30 34q-8 2 -11 2h-41q-160 0 -234.5 -148.5t-74.5 -303.5q0 -156 55 -217.5t161 -61.5t214 135l86 -96q-109 -243 -414 -243q-175 0 -295 104.5t-120 318.5z" />
    <glyph glyph-name="d" unicode="d" horiz-adv-x="1191" 
d="M344 385q0 -80 28.5 -127t102.5 -47q33 0 84 23.5t100 78.5l113 529q-62 37 -129 37q-66 0 -123 -43t-116.5 -148.5t-59.5 -302.5zM593 1106q136 0 218 -82l57 260l-28 37h-90l36 174h338q59 0 71.5 -25.5t4.5 -64.5l-256 -1204l31 -37h90l-37 -164h-201q-99 0 -148 22
t-42 97l4 41h-8q-49 -82 -125 -131t-161 -49q-158 0 -238 104t-80 259q0 156 37.5 291.5t110.5 240t176.5 168t239.5 63.5z" />
    <glyph glyph-name="e" unicode="e" horiz-adv-x="1007" 
d="M606 924q-80 0 -152 -91t-96 -268q163 23 220 51.5t88.5 71.5t31.5 117q0 119 -92 119zM33 426q0 139 49 269t176.5 270.5t370.5 140.5q164 0 260 -71.5t96 -204.5t-116.5 -239t-286.5 -139.5t-234 -39.5v-2q0 -226 209 -226q127 0 236 115l81 -106q-148 -213 -413 -213
q-299 0 -363.5 153.5t-64.5 292.5z" />
    <glyph glyph-name="f" unicode="f" horiz-adv-x="704" 
d="M-94 -227q58 0 90.5 61.5t50.5 151.5l172 925h-125l35 170h88l45 37l4 25q39 259 195.5 316t240.5 57q98 0 236 -23l-51 -240h-174l20 95l-20 26h-2q-80 0 -104.5 -86t-33.5 -127l-14 -80h225l-34 -170h-226l-168 -907q-47 -262 -201.5 -317.5t-253.5 -55.5
q-142 0 -223 23l50 229h174l-19 -84l21 -26h2z" />
    <glyph glyph-name="g" unicode="g" horiz-adv-x="1103" 
d="M385 731q0 -160 127 -160q78 0 124 62.5t46 154.5q0 160 -129 160q-78 0 -123 -62.5t-45 -154.5zM199 -106q0 -121 203 -121t247.5 61.5t44.5 111.5t-35.5 64.5t-115.5 14.5h-295q-49 -49 -49 -131zM231 473q-133 85 -133 254t134 274t325 105q94 0 172 -21h393l-35 -174
h-114l-19 -14q12 -37 12 -109t-38.5 -147.5t-137 -152t-290.5 -76.5q-79 0 -129 10q-72 -35 -72 -78q0 -57 88 -57h268q226 0 275 -97.5t49 -181.5t-91 -230.5t-521 -146.5t-430 217q0 140 190 209q-98 51 -98 166q0 149 202 250z" />
    <glyph glyph-name="h" unicode="h" horiz-adv-x="1187" 
d="M762 791q0 83 -93 83t-196 -96l-166 -778h-305l272 1284l-26 37h-90l37 174h337q55 0 68.5 -26.5t5.5 -63.5l-98 -465q132 166 317 166q123 0 187.5 -66.5t64.5 -181.5q0 -49 -12 -100l-119 -557l31 -37h90l-37 -164h-211q-111 0 -144.5 23.5t-42.5 60.5t5 102l117 543
q8 32 8 62z" />
    <glyph glyph-name="i" unicode="i" horiz-adv-x="632" 
d="M430 1198q-147 0 -147 146q0 72 50 127t138 55t126 -37t38 -109t-49 -127t-156 -55zM477 1085q56 0 68 -23t6 -67l-170 -794l31 -37h90l-35 -164h-211q-106 0 -157.5 32.5t-24.5 153.5l145 688l-29 37h-90l39 174h338z" />
    <glyph glyph-name="j" unicode="j" horiz-adv-x="608" 
d="M438 1198q-147 0 -147 146q0 72 50.5 127t138.5 55t125.5 -37t37.5 -109t-49 -127t-156 -55zM487 1085q59 0 68.5 -28.5t3.5 -61.5l-207 -975q-40 -183 -147 -286t-320 -103q-133 0 -213 23l49 237h175l-19 -92l21 -26h4q50 0 85.5 66.5t55.5 162.5l184 872l-26 37h-101
l39 174h348z" />
    <glyph glyph-name="k" unicode="k" horiz-adv-x="1191" 
d="M836 0q-130 0 -166.5 67.5t-53.5 108.5l-137 334h-63l-109 -510h-305l272 1284l-26 37h-90l37 174h337q55 0 68.5 -25.5t5.5 -64.5l-160 -746h50l299 236l-11 16h-67l35 174h479l-35 -174h-86l-37 -12l-321 -248l217 -458l30 -29h91l-35 -164h-219z" />
    <glyph glyph-name="l" unicode="l" horiz-adv-x="600" 
d="M528 1495q59 0 70.5 -28.5t5.5 -61.5l-256 -1204l31 -37h90l-37 -164h-211q-110 0 -158.5 34t-23.5 152l233 1098l-28 37h-90l36 174h338z" />
    <glyph glyph-name="m" unicode="m" horiz-adv-x="1794" 
d="M780 791q0 83 -90 83t-188 -94l-168 -780h-305l188 874l-29 37h-92l39 174h326q54 0 67 -23t7 -67l-15 -59h10q137 170 314 170q106 0 168.5 -51t79.5 -144q68 90 148.5 142.5t196.5 52.5t180 -66.5t64 -181.5q0 -49 -12 -100l-119 -557l31 -37h90l-37 -164h-211
q-107 0 -157.5 31.5t-24.5 154.5l117 543q8 32 8 62q0 83 -85 83t-194 -94q0 -10 -4 -22l-163 -758h-306l158 729q8 32 8 62z" />
    <glyph glyph-name="n" unicode="n" horiz-adv-x="1216" 
d="M791 791q0 83 -94 83t-195 -94l-168 -780h-305l188 874l-29 37h-92l39 174h326q54 0 67 -23t7 -67l-15 -59h12q137 170 322 170q123 0 187.5 -66.5t64.5 -181.5q0 -49 -12 -100l-119 -557l31 -37h90l-37 -164h-211q-112 0 -160.5 32.5t-21.5 153.5l116 543q9 36 9 62z
" />
    <glyph glyph-name="o" unicode="o" horiz-adv-x="1124" 
d="M37 450q0 142 50 270t132 214t186.5 129t204.5 43q203 0 325 -109.5t122 -300.5q0 -190 -50.5 -320t-132 -218t-186 -133t-204.5 -45t-179.5 26.5t-139 80.5t-94 137.5t-34.5 225.5zM352 382q0 -93 29 -147.5t101 -54.5t122.5 53.5t93.5 167.5t43 301q0 100 -28.5 151.5
t-101.5 51.5t-123 -53t-79.5 -129t-43 -162t-13.5 -179z" />
    <glyph glyph-name="p" unicode="p" horiz-adv-x="1191" 
d="M686 874q-35 0 -86 -24.5t-100 -79.5l-113 -528q53 -35 125 -35q137 0 221 147.5t84 345.5q0 80 -28.5 127t-102.5 47zM463 1085q54 0 67 -23t7 -67l-15 -69h6q49 80 124 130t161 50q160 0 240 -106t80 -260t-38 -289.5t-111 -240t-177.5 -167.5t-241.5 -63t-217 79
l-43 -206l27 -37h102l-35 -164h-575l35 164h90l45 37l221 1024l-25 34h-94l39 174h328z" />
    <glyph glyph-name="q" unicode="q" horiz-adv-x="1187" 
d="M344 385q0 -80 28.5 -127t102.5 -47q35 0 85 24.5t99 77.5l113 531q-59 35 -127 35t-125 -43t-116.5 -148.5t-59.5 -302.5zM29 343q0 319 155 541t406 222q147 0 227 -90h8q8 33 30 51t81 18h319l-38 -174h-91l-43 -37l-215 -1021l27 -37h90l-35 -164h-567l35 164h102
l43 37l62 294q-108 -167 -287 -167q-149 0 -229 103.5t-80 259.5z" />
    <glyph glyph-name="r" unicode="r" horiz-adv-x="847" 
d="M461 1085q81 0 78.5 -37.5t-4.5 -52.5l-19 -80h10q70 115 162 153t144 38t67 -3q16 -3 27 -3l-90 -428h-181l31 143l-27 33q-84 -25 -159 -80l-166 -768h-305l188 874l-29 37h-92l39 174h326z" />
    <glyph glyph-name="s" unicode="s" horiz-adv-x="933" 
d="M532 676q287 -100 287 -296t-136.5 -298t-352.5 -102q-143 0 -262 43q-53 18 -97 43l64 305h176l-29 -156l27 -37q64 -16 119 -16q101 0 148.5 37.5t47.5 81.5q0 43 -8 63.5t-36 42.5t-150 61q-121 39 -176.5 117t-55.5 165q0 169 130.5 272.5t359.5 103.5q96 0 188 -22
t133 -37l-61 -297h-176l22 133l-24 32q-39 11 -106 11q-68 0 -127.5 -28t-59.5 -84t33.5 -81.5t121.5 -56.5z" />
    <glyph glyph-name="t" unicode="t" horiz-adv-x="724" 
d="M103.5 40q-52.5 60 -21.5 206l143 665h-125l35 170h90l43 37l160 254h199l-62 -291h226l-35 -170h-226l-151 -710l31 -37h196l-35 -164q-137 -20 -276 -20t-191.5 60z" />
    <glyph glyph-name="u" unicode="u" horiz-adv-x="1206" 
d="M395 295q0 -84 92 -84q72 0 121 42t66 56l168 776h305l-193 -880l31 -41h90l-35 -164h-200q-97 0 -132.5 15.5t-51 39t-9.5 66.5l4 29h-8q-137 -170 -311 -170q-123 0 -187.5 66.5t-64.5 180.5q0 47 12 101l117 546l-31 37h-90l39 174h211q109 0 142.5 -22.5t44 -59
t-4.5 -104.5l-117 -543q-8 -32 -8 -61z" />
    <glyph glyph-name="v" unicode="v" horiz-adv-x="1122" 
d="M276 1085q82 0 136.5 -32.5t68.5 -137.5l78 -565l283 524l-25 37h-63l39 174h190q105 0 131 -54.5t-16 -131.5l-510 -903h-266l-150 881l-31 34h-73l38 174h170z" />
    <glyph glyph-name="w" unicode="w" horiz-adv-x="1579" 
d="M268 1085q118 0 150.5 -54t38.5 -111l41 -510l325 675h215l43 -686l240 475l-25 37h-63l37 174h182q106 0 126.5 -54t-19.5 -128l-478 -907h-229l-47 594l-293 -594h-238l-106 883l-25 32h-73l36 174h162z" />
    <glyph glyph-name="x" unicode="x" horiz-adv-x="1171" 
d="M354 1085q93 0 132.5 -36.5t80.5 -128.5l80 -177l160 148l-14 20h-31l39 174h416l-39 -174h-78l-33 -22l-338 -301l203 -389l35 -35h94l-33 -164h-217q-126 0 -162.5 63.5t-54.5 104.5l-96 205l-195 -187l16 -22h43l-36 -164h-422l37 164h59l31 20l377 351l-172 342
l-35 34h-105l39 174h219z" />
    <glyph glyph-name="y" unicode="y" horiz-adv-x="1140" 
d="M303 1085q80 0 129.5 -32.5t65.5 -137.5l75 -538l283 497l-25 37h-53l39 174h182q103 0 132 -54t-15 -132l-600 -1046l25 -37h86l-31 -164h-506l31 164h110l45 37l70 122l-156 902l-30 34h-92l38 174h197z" />
    <glyph glyph-name="z" unicode="z" horiz-adv-x="1034" 
d="M-63 0l28 135l666 770h-273l-39 -33l-28 -139h-195l74 352h881l-29 -135l-664 -770h299l39 33l29 139h195l-74 -352h-909z" />
    <glyph glyph-name="braceleft" unicode="{" horiz-adv-x="727" 
d="M88 16q0 45 12 105l66 317q16 74 16 116t-26.5 59.5t-96.5 23.5l33 154q100 8 133.5 43t59.5 155l61 289q37 185 130 262.5t302 77.5q53 0 111 -8l-25 -113l-51 -4q-73 -10 -106.5 -40t-53.5 -116l-55 -260q-47 -209 -90 -261t-85 -68.5t-101 -30.5v-6
q74 -20 109.5 -57.5t35.5 -114.5t-25 -189l-61 -289q-8 -33 -8 -75t27.5 -59t72.5 -21l53 -4l-24 -113q-62 -8 -115 -8q-143 0 -221 55t-78 180z" />
    <glyph glyph-name="bar" unicode="|" horiz-adv-x="575" 
d="M211 -209v1821h188v-1821h-188z" />
    <glyph glyph-name="braceright" unicode="}" horiz-adv-x="724" 
d="M375 1618q143 0 221 -55t78 -181q0 -45 -12 -104l-66 -317q-16 -74 -16 -116t26 -60q27 -17 96 -23l-32 -154q-100 -8 -134 -45t-59 -153l-61 -289q-37 -187 -130 -263q-93 -77 -302 -77q-55 0 -111 8l25 113l51 4q74 10 96 31q44 41 64 125l55 260q47 210 102 276
q31 37 73 53t101 31v6q-74 20 -110 58t-35 114q0 76 25 189l61 288q8 33 8 75t-28 59t-72 22l-53 4l24 113q62 8 115 8z" />
    <glyph glyph-name="asciitilde" unicode="~" horiz-adv-x="1306" 
d="M903 647q43 0 80 19l127 131l115 -99q-57 -104 -149.5 -169.5t-211.5 -65.5t-216 55t-145.5 80t-92.5 25t-80 -19l-127 -131l-113 96q55 104 147.5 171t210.5 67t216 -55.5t147 -80t92 -24.5z" />
    <glyph glyph-name="uni00A0" unicode="&#xa0;" horiz-adv-x="446" 
 />
    <glyph glyph-name="exclamdown" unicode="&#xa1;" horiz-adv-x="565" 
d="M360 625l46 -90l-72 -533l-76 -350h-360l75 350l156 533l80 90h151zM532 971q0 -92 -62 -152q-62 -59 -141 -59t-121 44t-42 93q0 90 62 150q62 59 141 59t121 -43t42 -92z" />
    <glyph glyph-name="cent" unicode="&#xa2;" horiz-adv-x="1024" 
d="M395 609q0 -168 88 -226l148 698q-123 -42 -179.5 -173t-56.5 -299zM621 350q93 0 150.5 38t70.5 50l55 -112q-111 -154 -334 -166l-37 -180h-129l39 184q-243 34 -294.5 172.5t-51.5 267.5t46 256t166.5 261t371.5 159l37 174h129l-37 -172q146 -11 246 -43l-72 -340
h-186l34 162l-30 35l-31 2l-160 -748h17z" />
    <glyph glyph-name="sterling" unicode="&#xa3;" horiz-adv-x="1245" 
d="M628.5 1412q98.5 42 252.5 42t286 -41q66 -18 117 -41l-67 -319h-187l35 147l-23 25q-78 26 -144 26q-128 0 -190.5 -59.5t-95.5 -220.5l-41 -193h273l-33 -149h-272l-31 -152q-26 -127 -119 -260h457l41 35l39 180h180l-92 -432h-1059l33 150h88l43 36l94 443h-125
l33 149h123l43 193q40 202 141.5 300.5t200 140.5z" />
    <glyph glyph-name="currency" unicode="&#xa4;" horiz-adv-x="1118" 
d="M430 667.5q0 -61.5 42 -104.5t97.5 -43t96.5 43t41 104.5t-41 104.5t-96.5 43t-97.5 -43t-42 -104.5zM260 667q0 69 31 134l-164 164l147 145l162 -164q57 31 131 31t131 -31l164 164l148 -145l-166 -164q33 -67 33 -135t-33 -134l164 -159l-148 -146l-162 162
q-63 -29 -133 -29t-131 31l-162 -164l-147 146l164 164q-29 61 -29 130z" />
    <glyph glyph-name="yen" unicode="&#xa5;" horiz-adv-x="1390" 
d="M248 784h203l-156 441l-27 35h-75l36 174h547l-37 -174h-65l-37 -31l151 -428l297 426l-24 33h-68l37 174h473l-37 -174h-75l-39 -33l-332 -443h170l-31 -149h-252l-26 -37l-15 -63h271l-31 -150h-270l-37 -176l26 -35h93l-39 -174h-576l39 174h88l43 37l37 174h-346
l31 150h344l-35 100h-287z" />
    <glyph glyph-name="brokenbar" unicode="&#xa6;" horiz-adv-x="591" 
d="M219 852v760h189v-760h-189zM219 -209v762h189v-762h-189z" />
    <glyph glyph-name="section" unicode="&#xa7;" horiz-adv-x="1179" 
d="M373 750q-51 -59 -51 -133t44 -102.5t186 -78.5q142 -51 222 -100q53 57 53 132t-45.5 104t-197.5 84q-151 54 -211 94zM932 72q0 -206 -173 -323.5t-421 -117.5q-233 0 -406 50l76 350h174l-39 -176l25 -33q105 -12 210 -12t185 50t80 142q0 51 -46.5 84.5t-150.5 69.5
q-104 35 -170.5 60.5t-139.5 77.5t-73 181t63.5 213t164.5 127q-74 81 -74 195q0 208 172 326t422 118q236 0 406 -49l-76 -350h-174l39 176l-25 33q-105 12 -210 12t-185 -50t-80 -143q0 -49 46.5 -84.5t150.5 -69.5t170.5 -59.5t139 -78t72.5 -177.5q0 -245 -229 -346
q76 -85 76 -196z" />
    <glyph glyph-name="dieresis" unicode="&#xa8;" horiz-adv-x="688" 
d="M506 1359q0 52 46 99t110 47t95 -33.5t31 -86.5t-48 -98.5t-112 -45.5t-93 33t-29 85zM160 1359q0 52 46 99t110 47t95 -33.5t31 -86.5t-48 -98.5t-112 -45.5t-93 33t-29 85z" />
    <glyph glyph-name="copyright" unicode="&#xa9;" horiz-adv-x="1658" 
d="M233 715q0 -131 48.5 -246t132.5 -200t196.5 -134t239.5 -49t239.5 49t196.5 134t132 200t48 246t-48 245.5t-132 200.5t-196.5 135.5t-239.5 49.5t-239.5 -49.5t-196.5 -135.5t-132.5 -200.5t-48.5 -245.5zM868 244q-221 0 -340.5 120t-119.5 346t128 351t361 125
q88 0 233 -29v-260h-139v104l-22 23q-28 4 -72 4q-119 -2 -169 -80t-50 -226t53 -232t176 -84h30q30 0 46 2l25 24v115h139v-250q-127 -53 -279 -53zM115 714q0 153 57 287t157.5 234t233.5 158.5t286 58.5t287 -58.5t234 -158.5t158.5 -234.5t58.5 -286.5t-58.5 -285.5
t-158.5 -234t-235 -157.5t-287 -57t-285 57t-233.5 157.5t-157.5 233.5t-57 286z" />
    <glyph glyph-name="ordfeminine" unicode="&#xaa;" horiz-adv-x="835" 
d="M446 934q54 0 113 65l57 269q-32 37 -74 37q-77 0 -121 -78t-44 -185q0 -108 69 -108zM360 778q-94 0 -140 66t-46 158q0 186 85 319t230 133q53 0 92.5 -23.5t59.5 -54.5l29 43q8 12 16 17.5t31 5.5h131l-113 -529l19 -22h53l-23 -100h-131q-89 0 -103.5 23.5
t-10.5 49.5l4 27h-4q-85 -113 -179 -113z" />
    <glyph glyph-name="guillemotleft" unicode="&#xab;" horiz-adv-x="1032" 
d="M59 580l400 368h166l-328 -430l137 -424h-145l-252 381zM461 580l399 368h166l-328 -430l138 -424h-146l-252 381z" />
    <glyph glyph-name="logicalnot" unicode="&#xac;" horiz-adv-x="1173" 
d="M135 791h877v-469h-195v276h-682v193z" />
    <glyph glyph-name="uni00AD" unicode="&#xad;" horiz-adv-x="712" 
d="M129 686h483l-47 -215h-483z" />
    <glyph glyph-name="registered" unicode="&#xae;" horiz-adv-x="1361" 
d="M680 1053v-142h72q45 0 60 17.5t15 52.5t-15 53.5t-60 18.5h-72zM756 1184q266 0 266 -178q0 -108 -58.5 -132t-82.5 -26v-4q35 -6 53 -27.5t39 -68.5l37 -82l20 -15h27v-108h-174q-49 0 -60 47l-39 135q-10 35 -16 44t-27 9h-61v-110l16 -17h47v-108h-309v108h41l17 17
v393l-17 14h-41v109h322zM1078 510.5q141 150.5 141 355.5t-142.5 351.5t-340.5 146.5t-342 -146t-144 -356t144 -356t343.5 -146t340.5 150.5zM319.5 1280q172.5 174 414.5 174q241 0 414 -173t173 -419.5t-174 -419t-414 -172.5q-121 0 -227.5 47.5t-232.5 173.5
t-126 370.5t172.5 418.5z" />
    <glyph glyph-name="macron" unicode="&#xaf;" 
d="M295 1446h528l-39 -180h-528z" />
    <glyph glyph-name="degree" unicode="&#xb0;" horiz-adv-x="763" 
d="M350 1144.5q0 -61.5 42 -104.5t97.5 -43t96.5 43t41 104.5t-41 104.5t-96.5 43t-97.5 -43t-42 -104.5zM182 1144.5q0 63.5 24.5 120t66.5 98.5t97.5 66.5t119 24.5t120 -24.5t98.5 -66.5t66.5 -98.5t24.5 -120t-24.5 -118.5t-66.5 -97t-98.5 -66.5t-120 -24.5t-119 24.5
t-97.5 66.5t-66.5 97t-24.5 118.5z" />
    <glyph glyph-name="plusminus" unicode="&#xb1;" horiz-adv-x="1167" 
d="M137 373h877v-193h-877v193zM137 944h342v291h193v-291h342v-192h-342v-291h-193v291h-342v192z" />
    <glyph glyph-name="twosuperior" unicode="&#xb2;" horiz-adv-x="593" 
d="M610 1697q109 -36 109 -143q0 -86 -52 -143t-192 -135q-94 -51 -100 -63t-13 -39h158l17 16l16 70h121l-49 -224h-480l27 121q15 79 56 120t138 98t127 85q29 28 29 60q0 34 -11 48t-45 15q-34 0 -56 -8l-19 -16l-14 -58h-125l35 164q116 45 200 45t123 -13z" />
    <glyph glyph-name="threesuperior" unicode="&#xb3;" horiz-adv-x="571" 
d="M700 1556q0 -138 -137 -180v-6q88 -31 88 -121q0 -148 -150 -203q-85 -31 -193 -18t-158 37l34 166h125l-14 -60l14 -16q11 -10 59 -10t74 34t25 81q0 61 -57 61h-86l22 113h86q37 0 60 28t22 74q0 53 -59 53q-35 0 -47 -6l-21 -16l-14 -58h-123l35 166q136 35 205 35
q210 0 210 -154z" />
    <glyph glyph-name="acute" unicode="&#xb4;" horiz-adv-x="837" 
d="M670 1548l104 -180l-373 -186h-45l-65 94l321 272h58z" />
    <glyph glyph-name="mu" unicode="&#xb5;" horiz-adv-x="1284" 
d="M379 1085q109 0 142.5 -22.5t43.5 -59t-4 -104.5l-117 -543q-8 -32 -8 -61q0 -84 92 -84q72 0 121 42t66 56l168 776h305l-193 -880l31 -41h90l-35 -164h-200q-97 0 -132.5 15.5t-51 39t-9.5 66.5l4 29h-8q-137 -170 -311 -170q-20 0 -31 2l-12 -164l-35 -166h-305
l260 1222l-31 37h-90l39 174h211z" />
    <glyph glyph-name="paragraph" unicode="&#xb6;" horiz-adv-x="1304" 
d="M1227 1223l-334 -1571h-160l379 1782h285l-37 -174h-88zM131 915q0 257 166.5 388t460.5 131h192l-379 -1782h-159l182 860q-217 2 -340 102.5t-123 300.5z" />
    <glyph glyph-name="periodcentered" unicode="&#xb7;" horiz-adv-x="532" 
d="M119 736q0 87 60 145q60 57 137 57q78 0 116 -42t39 -108q0 -66 -59 -123q-60 -57 -140 -57t-116 41t-37 87z" />
    <glyph glyph-name="cedilla" unicode="&#xb8;" 
d="M226 -266q73 0 73 54t-149 77l8 41l131 125h160l-105 -105q78 0 122 -28.5t44 -103t-83 -119t-174 -44.5q-161 0 -228 60l59 86q69 -43 142 -43z" />
    <glyph glyph-name="onesuperior" unicode="&#xb9;" horiz-adv-x="475" 
d="M354 1649q33 0 63 17t40 40h116l-118 -555l14 -16h78l-23 -99h-381l23 99h76l18 16l82 383l-12 16h-76l20 99h80z" />
    <glyph glyph-name="ordmasculine" unicode="&#xba;" horiz-adv-x="747" 
d="M586 1236q0 40 -13.5 65.5t-57.5 25.5t-71.5 -38t-52 -111t-24.5 -147q0 -75 13 -100.5t57 -25.5t72 37t45 89t24.5 108.5t7.5 96.5zM778 1175q0 -85 -29.5 -163t-102.5 -156t-214 -78q-178 0 -218 97t-40 181t29.5 162t104 157t212.5 79q177 0 217.5 -97t40.5 -182z" />
    <glyph glyph-name="guillemotright" unicode="&#xbb;" horiz-adv-x="1032" 
d="M530 463l-399 -369h-166l328 430l-137 424h145l252 -381zM932 463l-400 -369h-165l327 430l-137 424h145l252 -381z" />
    <glyph glyph-name="onequarter" unicode="&#xbc;" horiz-adv-x="1263" 
d="M870 285l39 184l-170 -184h131zM590 272l371 398h182l-82 -385h74l-25 -107h-74l-12 -63l12 -17h58l-21 -98h-350l20 98h70l21 17l12 63h-277zM319 1382q33 0 63 18t40 40h117l-119 -555l14 -17h78l-23 -98h-380l22 98h76l18 17l82 383l-12 16h-76l21 98h79zM1073 1434
h148l-1016 -1434h-148z" />
    <glyph glyph-name="onehalf" unicode="&#xbd;" horiz-adv-x="1296" 
d="M964 674q188 0 222 -99q10 -29 10 -65q0 -79 -54 -138q-54 -58 -168 -120q-115 -62 -122 -76q-8 -14 -12 -39h157l17 17l16 69h121l-49 -223h-479l26 121q15 80 59 123t138 97t124 82t29 77q0 45 -51 47q-39 0 -61 -8l-19 -17l-14 -57h-125l35 164q116 45 200 45z
M319 1382q33 0 63 18t40 40h117l-119 -555l14 -17h78l-23 -98h-380l22 98h76l18 17l82 383l-12 16h-76l21 98h79zM1073 1434h148l-1016 -1434h-148z" />
    <glyph glyph-name="threequarters" unicode="&#xbe;" horiz-adv-x="1331" 
d="M938 285l39 184l-170 -184h131zM657 272l371 398h182l-82 -385h74l-24 -107h-74l-12 -63l12 -17h57l-20 -98h-350l20 98h70l20 17l12 63h-276zM1141 1434h147l-1016 -1434h-147zM614 983q0 -149 -150 -204q-52 -19 -134 -19q-133 0 -217 39l34 166h125l-14 -60l14 -16
q10 -10 58 -10q48 -1 74 33t26 81q0 61 -57 62h-86l22 112h86q37 0 60 28t22 75q0 53 -59 53q-35 0 -47 -6l-21 -17l-14 -57h-123l35 166q136 35 219 35q192 0 197 -154q0 -137 -138 -180v-6q88 -31 88 -121z" />
    <glyph glyph-name="questiondown" unicode="&#xbf;" horiz-adv-x="1054" 
d="M735 1106q55 0 97 -43t43 -92q0 -91 -62 -151t-142 -60q-79 0 -121 44t-42 93t16 85t45 64t70 44t96 16zM260 -29q0 -59 48 -97t150 -38t156 25l35 28l35 160h186l-65 -311q-96 -54 -217 -80q-122 -26 -228 -26q-208 -1 -324 87q-116 89 -116 223t75 231t275 179l106 46
t69 47t20 49l8 41l80 90h152l45 -90l-11 -62q-25 -155 -186 -224q-158 -71 -214 -114t-67 -88q-12 -45 -12 -76z" />
    <glyph glyph-name="Agrave" unicode="&#xc0;" horiz-adv-x="1339" 
d="M465 565h321l-57 504zM809 371h-444l-86 -164l26 -33h78l-39 -174h-489l39 174h77l43 37l678 1227h295l174 -1231l29 -33h80l-39 -174h-541l39 174h62l36 33zM795 1530l-295 186l182 180h47l205 -272l-105 -94h-34z" />
    <glyph glyph-name="Aacute" unicode="&#xc1;" horiz-adv-x="1339" 
d="M465 565h321l-57 504zM809 371h-444l-86 -164l26 -33h78l-39 -174h-489l39 174h77l43 37l678 1227h295l174 -1231l29 -33h80l-39 -174h-541l39 174h62l36 33zM831 1530l-65 94l321 272h58l104 -180l-372 -186h-46z" />
    <glyph glyph-name="Acircumflex" unicode="&#xc2;" horiz-adv-x="1339" 
d="M465 565h321l-57 504zM809 371h-444l-86 -164l26 -33h78l-39 -174h-489l39 174h77l43 37l678 1227h295l174 -1231l29 -33h80l-39 -174h-541l39 174h62l36 33zM549 1528l-41 69l344 306h96l215 -306l-71 -69h-33l-197 153l-258 -153h-55z" />
    <glyph glyph-name="Atilde" unicode="&#xc3;" horiz-adv-x="1339" 
d="M465 565h321l-57 504zM809 371h-444l-86 -164l26 -33h78l-39 -174h-489l39 174h77l43 37l678 1227h295l174 -1231l29 -33h80l-39 -174h-541l39 174h62l36 33zM977 1550q-50 0 -143 37t-131 37t-56 -18l-18 -78h-129l18 84q27 119 71 167t126 48q44 -1 113 -29t107 -42
t82 -13q44 0 50 29l14 67h125l-20 -92q-23 -101 -70 -149t-139 -48z" />
    <glyph glyph-name="Adieresis" unicode="&#xc4;" horiz-adv-x="1339" 
d="M465 565h321l-57 504zM809 371h-444l-86 -164l26 -33h78l-39 -174h-489l39 174h77l43 37l678 1227h295l174 -1231l29 -33h80l-39 -174h-541l39 174h62l36 33zM903 1707q0 52 46 99q47 47 111 47q64 1 95 -33t31 -87t-48 -99t-112 -45q-64 0 -93 33q-30 33 -30 85z
M557 1707q0 52 46 99q47 47 111 47q64 1 95 -33t31 -87t-48 -99t-112 -45q-64 0 -93 33q-30 33 -30 85z" />
    <glyph glyph-name="Aring" unicode="&#xc5;" horiz-adv-x="1339" 
d="M465 565h321l-57 504zM809 371h-444l-86 -164l26 -33h78l-39 -174h-489l39 174h77l43 37l678 1227h295l174 -1231l29 -33h80l-39 -174h-541l39 174h62l36 33zM778 1671q0 -70 76 -69q59 0 84 30t25 78q0 70 -78 72q-107 0 -107 -111zM920 1872q82 0 144 -42t62 -130
t-86 -141q-71 -46 -185 -47q-113 -1 -177 38q-64 40 -64 104t22 103q65 115 284 115z" />
    <glyph glyph-name="AE" unicode="&#xc6;" horiz-adv-x="1961" 
d="M1026 1227l-469 -658h350l140 658h-21zM-25 174l41 35l910 1225h1116l-86 -404h-178l32 164l-28 35h-412l-82 -398h219l41 33l17 82h164l-91 -428h-163l16 82l-27 31h-221l-88 -426h432l43 35l35 163h178l-86 -403h-1095l38 174h88l43 37l35 166h-446l-131 -184l16 -19
h74l-39 -174h-485l39 174h81z" />
    <glyph glyph-name="Ccedilla" unicode="&#xc7;" horiz-adv-x="1196" 
d="M424 551q0 -352 289 -348q49 0 96 6l45 35l41 188h195l-80 -383q-154 -71 -371 -69h-30l-54 -54q78 0 122 -28t44 -82q0 -94 -91 -145q-68 -38 -162 -39q-164 -2 -232 59l59 86q69 -43 142 -43t73 53t-150 78l9 41l96 91q-144 32 -238 124q-145 141 -145 403
q0 424 233 678t609 252q187 0 344 -57l-78 -375h-195l37 174l-26 35q-40 8 -116 8t-166 -40q-190 -84 -262 -337q-38 -131 -38 -311z" />
    <glyph glyph-name="Egrave" unicode="&#xc8;" horiz-adv-x="1253" 
d="M809 1530l-295 186l182 180h47l205 -272l-104 -94h-35zM666 1229l-84 -398h209l40 33l17 82h172l-90 -428h-172l16 82l-26 31h-211l-91 -426h422l43 35l37 163h187l-86 -403h-1096l39 174h88l43 37l213 1012l-29 37h-88l39 174h1075l-86 -404h-186l35 164l-29 35h-401z
" />
    <glyph glyph-name="Eacute" unicode="&#xc9;" horiz-adv-x="1253" 
d="M666 1229l-84 -398h209l40 33l17 82h172l-90 -428h-172l16 82l-26 31h-211l-91 -426h422l43 35l37 163h187l-86 -403h-1096l39 174h88l43 37l213 1012l-29 37h-88l39 174h1075l-86 -404h-186l35 164l-29 35h-401zM846 1530l-66 94l322 272h57l105 -180l-373 -186h-45z
" />
    <glyph glyph-name="Ecircumflex" unicode="&#xca;" horiz-adv-x="1253" 
d="M563 1528l-41 69l344 306h97l215 -306l-72 -69h-33l-196 153l-259 -153h-55zM666 1229l-84 -398h209l40 33l17 82h172l-90 -428h-172l16 82l-26 31h-211l-91 -426h422l43 35l37 163h187l-86 -403h-1096l39 174h88l43 37l213 1012l-29 37h-88l39 174h1075l-86 -404h-186
l35 164l-29 35h-401z" />
    <glyph glyph-name="Edieresis" unicode="&#xcb;" horiz-adv-x="1253" 
d="M666 1229l-84 -398h209l40 33l17 82h172l-90 -428h-172l16 82l-26 31h-211l-91 -426h422l43 35l37 163h187l-86 -403h-1096l39 174h88l43 37l213 1012l-29 37h-88l39 174h1075l-86 -404h-186l35 164l-29 35h-401zM918 1707q0 52 46 99t110 47q64 1 95 -33t31 -87t-48 -99
t-112 -45q-64 0 -93 33t-29 85zM571 1707q0 52 46 99q47 47 111 47q64 1 95 -33t31 -87t-48 -99t-112 -45q-64 0 -93 33q-30 33 -30 85z" />
    <glyph glyph-name="Igrave" unicode="&#xcc;" horiz-adv-x="739" 
d="M336 1223l-29 37h-88l39 174h573l-38 -174h-91l-40 -37l-213 -1012l26 -37h90l-39 -174h-573l39 174h88l43 37zM532 1530l-294 186l182 180h47l205 -272l-105 -94h-35z" />
    <glyph glyph-name="Iacute" unicode="&#xcd;" horiz-adv-x="739" 
d="M336 1223l-29 37h-88l39 174h573l-38 -174h-91l-40 -37l-213 -1012l26 -37h90l-39 -174h-573l39 174h88l43 37zM569 1530l-65 94l321 272h58l104 -180l-373 -186h-45z" />
    <glyph glyph-name="Icircumflex" unicode="&#xce;" horiz-adv-x="739" 
d="M336 1223l-29 37h-88l39 174h573l-38 -174h-91l-40 -37l-213 -1012l26 -37h90l-39 -174h-573l39 174h88l43 37zM287 1528l-41 69l344 306h96l215 -306l-72 -69h-32l-197 153l-258 -153h-55z" />
    <glyph glyph-name="Idieresis" unicode="&#xcf;" horiz-adv-x="739" 
d="M336 1223l-29 37h-88l39 174h573l-38 -174h-91l-40 -37l-213 -1012l26 -37h90l-39 -174h-573l39 174h88l43 37zM641 1707q0 52 46 99q47 47 111 47q64 1 95 -33t31 -87t-48 -99t-112 -45q-64 0 -93 33q-30 33 -30 85zM295 1707q0 52 46 99q47 47 111 47q64 1 95 -33
t31 -87t-48 -99t-112 -45q-63 0 -93 33t-30 85z" />
    <glyph glyph-name="Eth" unicode="&#xd0;" horiz-adv-x="1437" 
d="M616 213q176 0 306.5 182t130.5 510q0 160 -59.5 238t-207.5 78h-118l-90 -416h274l-41 -150h-266l-96 -442h167zM829 1434q260 0 413 -137.5t153 -397.5q0 -426 -226 -662.5t-604 -236.5h-610l39 174h88l43 37l92 444h-145l41 150h137l88 418l-29 37h-88l39 174h569z
" />
    <glyph glyph-name="Ntilde" unicode="&#xd1;" horiz-adv-x="1454" 
d="M1034 1550q-47 0 -142 37t-132 37t-55 -18l-19 -78h-129l18 84q27 119 71 167t108 48q64 -1 132 -29t106 -42t82 -13q44 0 50 29l15 67h125l-21 -92q-23 -102 -69 -150q-47 -47 -140 -47zM956 -6l-440 948l-154 -731l29 -37h90l-39 -174h-491l39 174h88l43 37l213 1012
l-29 37h-88l39 174h367l391 -854l137 643l-29 37h-88l39 174h492l-39 -174h-90l-43 -37l-260 -1229h-177z" />
    <glyph glyph-name="Ograve" unicode="&#xd2;" horiz-adv-x="1400" 
d="M842 1530l-295 186l182 180h47l205 -272l-104 -94h-35zM422 426q0 -94 44 -161t165 -67t212 131q91 130 135 305q44 176 44 320t-44 212t-167 69q-123 0 -222 -144q-121 -178 -158 -488q-9 -83 -9 -177zM410 1306q180 148 432 148t387 -151t135 -396q0 -344 -186 -621
q-128 -192 -332 -268q-104 -38 -236 -38q-254 1 -392 152t-138 386q0 346 184 627q61 92 146 161z" />
    <glyph glyph-name="Oacute" unicode="&#xd3;" horiz-adv-x="1400" 
d="M879 1530l-66 94l322 272h57l104 -180l-372 -186h-45zM422 426q0 -94 44 -161t165 -67t212 131q91 130 135 305q44 176 44 320t-44 212t-167 69q-123 0 -222 -144q-121 -178 -158 -488q-9 -83 -9 -177zM410 1306q180 148 432 148t387 -151t135 -396q0 -344 -186 -621
q-128 -192 -332 -268q-104 -38 -236 -38q-254 1 -392 152t-138 386q0 346 184 627q61 92 146 161z" />
    <glyph glyph-name="Ocircumflex" unicode="&#xd4;" horiz-adv-x="1400" 
d="M596 1528l-41 69l344 306h96l215 -306l-71 -69h-33l-197 153l-258 -153h-55zM422 426q0 -94 44 -161t165 -67t212 131q91 130 135 305q44 176 44 320t-44 212t-167 69q-123 0 -222 -144q-121 -178 -158 -488q-9 -83 -9 -177zM410 1306q180 148 432 148t387 -151t135 -396
q0 -344 -186 -621q-128 -192 -332 -268q-104 -38 -236 -38q-254 1 -392 152t-138 386q0 346 184 627q61 92 146 161z" />
    <glyph glyph-name="Otilde" unicode="&#xd5;" horiz-adv-x="1400" 
d="M422 426q0 -94 44 -161t165 -67t212 131q91 130 135 305q44 176 44 320t-44 212t-167 69q-123 0 -222 -144q-121 -178 -158 -488q-9 -83 -9 -177zM410 1306q180 148 432 148t387 -151t135 -396q0 -344 -186 -621q-128 -192 -332 -268q-104 -38 -236 -38q-254 1 -392 152
t-138 386q0 346 184 627q61 92 146 161zM1024 1550q-50 0 -143 37t-129 37t-58 -18l-18 -78h-129l18 84q27 119 71 167t108 48q64 -1 132 -29t106 -42t82 -13q44 0 50 29l14 67h125l-20 -92q-23 -101 -70 -149t-139 -48z" />
    <glyph glyph-name="Odieresis" unicode="&#xd6;" horiz-adv-x="1400" 
d="M422 426q0 -94 44 -161t165 -67t212 131q91 130 135 305q44 176 44 320t-44 212t-167 69q-123 0 -222 -144q-121 -178 -158 -488q-9 -83 -9 -177zM410 1306q180 148 432 148t387 -151t135 -396q0 -344 -186 -621q-128 -192 -332 -268q-104 -38 -236 -38q-254 1 -392 152
t-138 386q0 346 184 627q61 92 146 161zM950 1707q0 52 46 99t110 47q64 1 96 -33q31 -34 31 -87t-48 -99q-47 -46 -111 -45q-64 0 -94 33t-30 85zM604 1707q0 52 46 99t110 47q64 1 96 -33q31 -34 31 -87t-48 -99q-47 -46 -111 -45q-64 0 -94 33t-30 85z" />
    <glyph glyph-name="multiply" unicode="&#xd7;" horiz-adv-x="1056" 
d="M125 418l268 266l-268 268l147 146l267 -269l266 269l147 -146l-270 -268l270 -266l-145 -148l-268 271l-269 -271z" />
    <glyph glyph-name="Oslash" unicode="&#xd8;" horiz-adv-x="1402" 
d="M446 301q46 -102 173 -102q235 0 316 290t85 437zM1010 1092q-36 143 -179 143t-233.5 -132.5t-133 -312.5t-42.5 -335v-4zM80 518q0 351 155.5 583.5t311 292.5t342.5 60t328 -139l126 139h162l-215 -235q74 -133 74 -312q0 -345 -158.5 -579.5t-311.5 -291t-278 -56.5
q-218 0 -360 114l-104 -114h-164l186 202q-94 140 -94 336z" />
    <glyph glyph-name="Ugrave" unicode="&#xd9;" horiz-adv-x="1370" 
d="M872 1530l-294 186l182 180h47l205 -272l-105 -94h-35zM129 340q0 66 14 131l160 752l-29 37h-88l37 174h578l-37 -174h-90l-43 -37l-160 -756q-14 -77 -14 -127t44 -96q45 -47 125 -47q140 0 198 65q59 65 87 205l160 756l-29 37h-88l37 174h500l-37 -174h-90l-43 -37
l-160 -752q-56 -256 -196 -375q-140 -118 -359 -117t-348 88t-129 273z" />
    <glyph glyph-name="Uacute" unicode="&#xda;" horiz-adv-x="1370" 
d="M129 340q0 66 14 131l160 752l-29 37h-88l37 174h578l-37 -174h-90l-43 -37l-160 -756q-14 -77 -14 -127t44 -96q45 -47 125 -47q140 0 198 65q59 65 87 205l160 756l-29 37h-88l37 174h500l-37 -174h-90l-43 -37l-160 -752q-56 -256 -196 -375q-140 -118 -359 -117
t-348 88t-129 273zM909 1530l-65 94l321 272h58l104 -180l-373 -186h-45z" />
    <glyph glyph-name="Ucircumflex" unicode="&#xdb;" horiz-adv-x="1370" 
d="M627 1528l-41 69l344 306h96l215 -306l-72 -69h-32l-197 153l-258 -153h-55zM129 340q0 66 14 131l160 752l-29 37h-88l37 174h578l-37 -174h-90l-43 -37l-160 -756q-14 -77 -14 -127t44 -96q45 -47 125 -47q140 0 198 65q59 65 87 205l160 756l-29 37h-88l37 174h500
l-37 -174h-90l-43 -37l-160 -752q-56 -256 -196 -375q-140 -118 -359 -117t-348 88t-129 273z" />
    <glyph glyph-name="Udieresis" unicode="&#xdc;" horiz-adv-x="1370" 
d="M129 340q0 66 14 131l160 752l-29 37h-88l37 174h578l-37 -174h-90l-43 -37l-160 -756q-14 -77 -14 -127t44 -96q45 -47 125 -47q140 0 198 65q59 65 87 205l160 756l-29 37h-88l37 174h500l-37 -174h-90l-43 -37l-160 -752q-56 -256 -196 -375q-140 -118 -359 -117
t-348 88t-129 273zM981 1707q0 52 46 99q47 47 111 47q64 1 95 -33t31 -87t-48 -99t-112 -45q-63 0 -93 33t-30 85zM635 1707q0 52 46 99q47 47 111 47q64 1 95 -33t31 -87t-48 -99t-112 -45q-63 0 -93 33t-30 85z" />
    <glyph glyph-name="Yacute" unicode="&#xdd;" horiz-adv-x="1253" 
d="M223 0l39 174h88l43 37l68 319l-246 695l-27 35h-75l37 174h546l-37 -174h-65l-37 -31l152 -428l297 426l-25 33h-68l37 174h473l-37 -174h-75l-39 -33l-471 -629l-82 -389l26 -35h93l-39 -174h-576zM872 1530l-65 94l321 272h58l104 -180l-372 -186h-46z" />
    <glyph glyph-name="Thorn" unicode="&#xde;" horiz-adv-x="1298" 
d="M655 487q127 0 205 73t78 231q0 86 -46 131t-159 45h-125l-102 -480h149zM778 1167q231 0 365.5 -91t134.5 -283q0 -248 -177 -377t-487 -129h-149l-16 -76l26 -37h90l-39 -174h-573l39 174h88l43 37l213 1012l-29 37h-88l39 174h573l-38 -174h-91l-40 -37l-13 -56h129z
" />
    <glyph glyph-name="germandbls" unicode="&#xdf;" horiz-adv-x="1239" 
d="M866.5 1019.5q55.5 63.5 55.5 212.5q0 148 -138 148q-161 0 -211 -233l-243 -1143q-57 -258 -206 -315.5t-246 -57.5q-145 0 -222 23l51 229h174l-20 -84l20 -26h2q82 0 108.5 86t37.5 127l198 925h-131l35 170h94l45 37v2q30 152 176 274t357 122q146 0 261.5 -64.5
t115.5 -208.5q0 -102 -45 -165.5t-98.5 -106.5t-98.5 -78t-45 -77t23.5 -73t58.5 -79q84 -114 128 -191.5t44 -156.5q0 -149 -103 -242.5t-264 -93.5q-163 0 -254 47l56 262h157l-24 -119l22 -33h11q112 0 112 117q0 84 -121 207q-114 126 -114 232t55 156t93 78.5t93.5 92z
" />
    <glyph glyph-name="agrave" unicode="&#xe0;" horiz-adv-x="1191" 
d="M475 211q35 0 86 25t101 79l110 527q-60 35 -127 36q-68 1 -125 -42t-96 -112q-78 -138 -80 -339q0 -80 28 -127t103 -47zM29 388q0 112 38 246q78 278 286 408q103 64 248 64t224 -96l25 39q14 23 28 29t50 7h202l-188 -884l31 -37h90l-37 -164h-201q-99 0 -131 14
q-66 28 -59 105l4 41h-6q-49 -82 -125 -131t-161 -49q-155 0 -237 103q-81 103 -81 305zM326 1368l182 180h47l205 -272l-105 -94h-34z" />
    <glyph glyph-name="aacute" unicode="&#xe1;" horiz-adv-x="1191" 
d="M475 211q35 0 86 25t101 79l110 527q-60 35 -127 36q-68 1 -125 -42t-96 -112q-78 -138 -80 -339q0 -80 28 -127t103 -47zM29 388q0 112 38 246q78 278 286 408q103 64 248 64t224 -96l25 39q14 23 28 29t50 7h202l-188 -884l31 -37h90l-37 -164h-201q-99 0 -131 14
q-66 28 -59 105l4 41h-6q-49 -82 -125 -131t-161 -49q-155 0 -237 103q-81 103 -81 305zM965 1548l104 -180l-373 -186h-45l-65 94l321 272h58z" />
    <glyph glyph-name="acircumflex" unicode="&#xe2;" horiz-adv-x="1191" 
d="M475 211q35 0 86 25t101 79l110 527q-60 35 -127 36q-68 1 -125 -42t-96 -112q-78 -138 -80 -339q0 -80 28 -127t103 -47zM29 388q0 112 38 246q78 278 286 408q103 64 248 64t224 -96l25 39q14 23 28 29t50 7h202l-188 -884l31 -37h90l-37 -164h-201q-99 0 -131 14
q-66 28 -59 105l4 41h-6q-49 -82 -125 -131t-161 -49q-155 0 -237 103q-81 103 -81 305zM391 1174l-41 69l344 305h97l215 -305l-72 -69h-33l-196 153l-259 -153h-55z" />
    <glyph glyph-name="atilde" unicode="&#xe3;" horiz-adv-x="1191" 
d="M475 211q35 0 86 25t101 79l110 527q-60 35 -127 36q-68 1 -125 -42t-96 -112q-78 -138 -80 -339q0 -80 28 -127t103 -47zM29 388q0 112 38 246q78 278 286 408q103 64 248 64t224 -96l25 39q14 23 28 29t50 7h202l-188 -884l31 -37h90l-37 -164h-201q-99 0 -131 14
q-66 28 -59 105l4 41h-6q-49 -82 -125 -131t-161 -49q-155 0 -237 103q-81 103 -81 305zM794 1408q38 -14 79 -13q42 0 53 28l14 68h125l-21 -92q-23 -102 -69 -150q-47 -47 -120 -47t-164 37t-130 37q-40 0 -55 -19l-19 -77h-129l19 84q27 119 70 167q44 48 126 48
q35 1 71 -13t74 -29t76 -29z" />
    <glyph glyph-name="adieresis" unicode="&#xe4;" horiz-adv-x="1191" 
d="M475 211q35 0 86 25t101 79l110 527q-60 35 -127 36q-68 1 -125 -42t-96 -112q-78 -138 -80 -339q0 -80 28 -127t103 -47zM29 388q0 112 38 246q78 278 286 408q103 64 248 64t224 -96l25 39q14 23 28 29t50 7h202l-188 -884l31 -37h90l-37 -164h-201q-99 0 -131 14
q-66 28 -59 105l4 41h-6q-49 -82 -125 -131t-161 -49q-155 0 -237 103q-81 103 -81 305zM748 1359q0 52 46 99t110 47t95 -34q31 -35 31 -87t-48 -98t-112 -45q-64 0 -93 33t-29 85zM401 1359q0 52 46 99q47 47 111 47t95 -34q31 -35 31 -87t-48 -98t-112 -45q-64 0 -93 33
q-30 33 -30 85z" />
    <glyph glyph-name="aring" unicode="&#xe5;" horiz-adv-x="1191" 
d="M475 211q35 0 86 25t101 79l110 527q-60 35 -127 36q-68 1 -125 -42t-96 -112q-78 -138 -80 -339q0 -80 28 -127t103 -47zM29 388q0 112 38 246q78 278 286 408q103 64 248 64t224 -96l25 39q14 23 28 29t50 7h202l-188 -884l31 -37h90l-37 -164h-201q-99 0 -131 14
q-66 28 -59 105l4 41h-6q-49 -82 -125 -131t-161 -49q-155 0 -237 103q-81 103 -81 305zM621 1323q0 -70 75 -70q109 0 109 109q0 70 -78 72q-106 0 -106 -111zM762 1524q82 0 144 -42t62 -108q1 -108 -77 -158q-78 -51 -192 -52q-115 -1 -179 38q-63 40 -63 104t21 103
q65 115 284 115z" />
    <glyph glyph-name="ae" unicode="&#xe6;" horiz-adv-x="1554" 
d="M606 362v33t2 49h-153q-164 0 -164 -127q0 -53 23.5 -79.5t82.5 -26.5q100 0 215 72q-6 45 -6 79zM1171 920q-117 0 -170 -113t-67 -197q141 0 204.5 29t94.5 67.5t31 104.5q-1 109 -93 109zM668 793q0 110 -134 110q-66 0 -118 -6l-35 -31l-29 -137h-188l69 328
q178 49 387 49t263 -123q139 123 304 123t258 -69.5t93 -190.5t-112 -251t-511 -151v-45q0 -113 50.5 -168t160.5 -55t215 84l64 -123q-146 -157 -379 -157q-278 0 -377 194q-178 -194 -377 -194q-147 0 -217.5 78t-70.5 182q0 186 114 278t308 92h227l22 99q4 23 8.5 44
t4.5 40z" />
    <glyph glyph-name="ccedilla" unicode="&#xe7;" horiz-adv-x="970" 
d="M313 -3q-282 77 -282 433q0 139 52 269q52 129 140 221q178 186 449 186q158 0 297 -45l-74 -348h-195l35 166l-30 34q-7 2 -21 2h-31q-158 0 -242 -164q-67 -132 -67 -288t55 -217q55 -62 156 -62t181 91q22 24 38 44l86 -96q-107 -239 -403 -243l-54 -54q78 0 122 -28
t44 -82q1 -53 -25 -88q-68 -93 -255 -97q-135 0 -205 60l59 86q69 -43 143 -43t72 55q0 52 -149 76l8 41z" />
    <glyph glyph-name="egrave" unicode="&#xe8;" horiz-adv-x="1007" 
d="M606 924q-128 0 -208 -196q-28 -69 -40 -163q161 23 219 52t90 71t31 117q0 119 -92 119zM33 426q0 139 49 269q97 257 322 362q108 49 248 49t237 -72q96 -72 96 -203t-116 -239q-116 -107 -386 -160q-72 -14 -135 -20v-2q0 -224 209 -226q124 0 236 115l81 -106
q-148 -213 -413 -213q-298 0 -394 227q-34 80 -34 219zM295 1368l182 180h47l205 -272l-104 -94h-35z" />
    <glyph glyph-name="eacute" unicode="&#xe9;" horiz-adv-x="1007" 
d="M934 1548l104 -180l-372 -186h-45l-66 94l322 272h57zM606 924q-128 0 -208 -196q-28 -69 -40 -163q161 23 219 52t90 71t31 117q0 119 -92 119zM33 426q0 139 49 269q97 257 322 362q108 49 248 49t237 -72q96 -72 96 -203t-116 -239q-116 -107 -386 -160
q-72 -14 -135 -20v-2q0 -224 209 -226q124 0 236 115l81 -106q-148 -213 -413 -213q-298 0 -394 227q-34 80 -34 219z" />
    <glyph glyph-name="ecircumflex" unicode="&#xea;" horiz-adv-x="1007" 
d="M360 1174l-41 69l345 305h96l215 -305l-72 -69h-33l-196 153l-258 -153h-56zM606 924q-128 0 -208 -196q-28 -69 -40 -163q161 23 219 52t90 71t31 117q0 119 -92 119zM33 426q0 139 49 269q97 257 322 362q108 49 248 49t237 -72q96 -72 96 -203t-116 -239
q-116 -107 -386 -160q-72 -14 -135 -20v-2q0 -224 209 -226q124 0 236 115l81 -106q-148 -213 -413 -213q-298 0 -394 227q-34 80 -34 219z" />
    <glyph glyph-name="edieresis" unicode="&#xeb;" horiz-adv-x="1007" 
d="M717 1359q0 52 46 99q47 47 111 47t95 -34q31 -35 31 -87t-49 -98q-47 -46 -111 -45q-64 0 -94 33q-29 33 -29 85zM371 1359q0 52 46 99q47 47 111 47t95 -34q31 -35 31 -87t-49 -98q-47 -46 -111 -45q-64 0 -94 33q-29 33 -29 85zM606 924q-128 0 -208 -196
q-28 -69 -40 -163q161 23 219 52t90 71t31 117q0 119 -92 119zM33 426q0 139 49 269q97 257 322 362q108 49 248 49t237 -72q96 -72 96 -203t-116 -239q-116 -107 -386 -160q-72 -14 -135 -20v-2q0 -224 209 -226q124 0 236 115l81 -106q-148 -213 -413 -213
q-298 0 -394 227q-34 80 -34 219z" />
    <glyph glyph-name="igrave" unicode="&#xec;" horiz-adv-x="636" 
d="M479 1085q61 0 71 -28q9 -29 3 -62l-170 -794l31 -37h90l-35 -164h-211q-106 0 -140 22q-67 43 -42 164l145 688l-28 37h-91l39 174h338zM90 1368l182 180h47l205 -272l-104 -94h-35z" />
    <glyph glyph-name="iacute" unicode="&#xed;" horiz-adv-x="632" 
d="M702 1548l105 -180l-373 -186h-45l-65 94l321 272h57zM477 1085q61 0 71 -28q9 -29 3 -62l-170 -794l31 -37h90l-35 -164h-211q-106 0 -140 22q-67 43 -42 164l145 688l-29 37h-90l39 174h338z" />
    <glyph glyph-name="icircumflex" unicode="&#xee;" horiz-adv-x="634" 
d="M135 1174l-41 69l344 305h97l215 -305l-72 -69h-33l-196 153l-259 -153h-55zM479 1085q61 0 71 -28q9 -29 3 -62l-170 -794l31 -37h90l-35 -164h-211q-106 0 -140 22q-67 43 -42 164l145 688l-28 37h-91l39 174h338z" />
    <glyph glyph-name="idieresis" unicode="&#xef;" horiz-adv-x="632" 
d="M489 1359q1 52 47 99t110 47t95 -34q31 -35 31 -87t-48 -98t-112 -45q-64 0 -93 33q-30 33 -30 85zM143 1359q0 52 46 99q47 47 111 47t95 -34q31 -35 31 -87t-48 -98t-112 -45q-64 0 -93 33q-30 33 -30 85zM477 1085q61 0 71 -28q9 -29 3 -62l-170 -794l31 -37h90
l-35 -164h-211q-106 0 -140 22q-67 43 -42 164l145 688l-29 37h-90l39 174h338z" />
    <glyph glyph-name="eth" unicode="&#xf0;" horiz-adv-x="1126" 
d="M354 382q0 -93 29 -147.5t101 -54.5t122.5 53.5t93.5 167.5t43 301q0 100 -28.5 151.5t-101.5 51.5t-123 -53t-79.5 -129t-43 -162t-13.5 -179zM1059 678q0 -325 -132 -467.5t-236.5 -186.5t-204.5 -44q-202 0 -324.5 112.5t-122.5 331.5q0 321 128 458.5t229.5 180.5
t194.5 43t128 -23q-26 76 -68 142l-143 -60l-25 109l103 43q-27 34 -84 96l123 105q88 -49 159 -117l162 67l29 -110l-111 -47q195 -258 195 -633z" />
    <glyph glyph-name="ntilde" unicode="&#xf1;" horiz-adv-x="1216" 
d="M461 1085q77 0 77 -59q-1 -16 -3 -31l-15 -59h12q137 170 322 170q124 0 188 -67t64 -181q0 -49 -12 -100l-119 -557l31 -37h90l-37 -164h-211q-43 0 -82 3q-136 10 -100 183l116 543q7 28 9 62q0 85 -86 84t-167 -66q-22 -16 -36 -29l-168 -780h-305l188 874l-29 37h-92
l39 174h326zM826 1408q38 -14 82 -13q44 0 50 28l15 68h125l-21 -92q-23 -102 -69 -150q-47 -47 -120 -47t-164 37t-130 37q-40 0 -55 -19l-19 -77h-129l19 84q27 119 70 167q44 48 126 48q35 1 71 -13t74 -29q37 -15 75 -29z" />
    <glyph glyph-name="ograve" unicode="&#xf2;" horiz-adv-x="1124" 
d="M37 450q0 142 50 270q99 253 319 343q104 43 204 43q203 0 325 -110t122 -300q0 -344 -183 -538q-166 -178 -399 -178q-192 0 -309 107q-59 54 -94 138q-35 83 -35 225zM352 382q0 -94 29 -148t101 -54t123 53q50 53 80 133q56 150 56 336q0 100 -28 152q-29 51 -102 51
t-123 -53t-79 -129q-57 -144 -57 -341zM328 1368l182 180h47l205 -272l-105 -94h-34z" />
    <glyph glyph-name="oacute" unicode="&#xf3;" horiz-adv-x="1124" 
d="M967 1548l104 -180l-373 -186h-45l-65 94l321 272h58zM37 450q0 142 50 270q99 253 319 343q104 43 204 43q203 0 325 -110t122 -300q0 -344 -183 -538q-166 -178 -399 -178q-192 0 -309 107q-59 54 -94 138q-35 83 -35 225zM352 382q0 -94 29 -148t101 -54t123 53
q50 53 80 133q56 150 56 336q0 100 -28 152q-29 51 -102 51t-123 -53t-79 -129q-57 -144 -57 -341z" />
    <glyph glyph-name="ocircumflex" unicode="&#xf4;" horiz-adv-x="1124" 
d="M393 1174l-41 69l344 305h97l215 -305l-72 -69h-33l-196 153l-258 -153h-56zM37 450q0 142 50 270q99 253 319 343q104 43 204 43q203 0 325 -110t122 -300q0 -344 -183 -538q-166 -178 -399 -178q-192 0 -309 107q-59 54 -94 138q-35 83 -35 225zM352 382q0 -94 29 -148
t101 -54t123 53q50 53 80 133q56 150 56 336q0 100 -28 152q-29 51 -102 51t-123 -53t-79 -129q-57 -144 -57 -341z" />
    <glyph glyph-name="otilde" unicode="&#xf5;" horiz-adv-x="1124" 
d="M37 450q0 142 50 270q99 253 319 343q104 43 204 43q203 0 325 -110t122 -300q0 -344 -183 -538q-166 -178 -399 -178q-192 0 -309 107q-59 54 -94 138q-35 83 -35 225zM352 382q0 -94 29 -148t101 -54t123 53q50 53 80 133q56 150 56 336q0 100 -28 152q-29 51 -102 51
t-123 -53t-79 -129q-57 -144 -57 -341zM796 1408q38 -14 81 -13q44 0 51 28l14 68h125l-20 -92q-23 -101 -70 -149t-120 -48t-164 37t-130 37q-40 0 -55 -19l-19 -77h-129l19 84q27 119 71 167t125 48q35 1 71 -13t74 -29t76 -29z" />
    <glyph glyph-name="odieresis" unicode="&#xf6;" horiz-adv-x="1124" 
d="M750 1359q0 52 46 99t110 47t96 -34q30 -35 30 -87t-48 -98t-112 -45q-64 0 -93 33t-29 85zM403 1359q1 52 47 99t110 47t95 -34q31 -35 31 -87t-48 -98t-112 -45q-64 0 -93 33q-30 33 -30 85zM37 450q0 142 50 270q99 253 319 343q104 43 204 43q203 0 325 -110
t122 -300q0 -344 -183 -538q-166 -178 -399 -178q-192 0 -309 107q-59 54 -94 138q-35 83 -35 225zM352 382q0 -94 29 -148t101 -54t123 53q50 53 80 133q56 150 56 336q0 100 -28 152q-29 51 -102 51t-123 -53t-79 -129q-57 -144 -57 -341z" />
    <glyph glyph-name="divide" unicode="&#xf7;" horiz-adv-x="1050" 
d="M102 791h877v-195h-877v195zM406 360q0 55 40.5 94.5t94 39.5t94.5 -39t41 -95t-41 -95.5t-94.5 -39.5t-94 40t-40.5 95zM406 1028q0 55 40.5 94t94 39t94.5 -39t41 -94t-41 -95t-94.5 -40t-94 40t-40.5 95z" />
    <glyph glyph-name="oslash" unicode="&#xf8;" horiz-adv-x="1128" 
d="M475 180q78 0 163.5 85.5t102.5 396.5l-370 -400q26 -82 104 -82zM622 905q-141 0 -204.5 -164t-63.5 -329l375 405q-25 88 -107 88zM39 427q0 317 173 498t409 181q177 0 292 -92l86 92h156l-164 -176q68 -102 68 -263t-50.5 -291t-132 -218t-186 -133t-213.5 -45
q-174 0 -287 88l-81 -88h-158l160 172q-72 110 -72 275z" />
    <glyph glyph-name="ugrave" unicode="&#xf9;" horiz-adv-x="1206" 
d="M395 295q0 -84 92 -84q74 1 150 67q20 18 37 31l168 776h305l-193 -880l31 -41h90l-35 -164h-200q-96 0 -133 15q-71 29 -60 106l4 29h-8q-137 -170 -311 -170q-123 0 -188 66t-64 181q0 47 12 101l117 546l-31 37h-90l39 174h211q108 0 142 -22t44 -59t-4 -105
l-117 -543q-8 -32 -8 -61zM367 1368l182 180h47l205 -272l-105 -94h-34z" />
    <glyph glyph-name="uacute" unicode="&#xfa;" horiz-adv-x="1206" 
d="M1006 1548l104 -180l-373 -186h-45l-65 94l321 272h58zM395 295q0 -84 92 -84q74 1 150 67q20 18 37 31l168 776h305l-193 -880l31 -41h90l-35 -164h-200q-96 0 -133 15q-71 29 -60 106l4 29h-8q-137 -170 -311 -170q-123 0 -188 66t-64 181q0 47 12 101l117 546l-31 37
h-90l39 174h211q108 0 142 -22t44 -59t-4 -105l-117 -543q-8 -32 -8 -61z" />
    <glyph glyph-name="ucircumflex" unicode="&#xfb;" horiz-adv-x="1206" 
d="M432 1174l-41 69l344 305h96l216 -305l-72 -69h-33l-197 153l-258 -153h-55zM395 295q0 -84 92 -84q74 1 150 67q20 18 37 31l168 776h305l-193 -880l31 -41h90l-35 -164h-200q-96 0 -133 15q-71 29 -60 106l4 29h-8q-137 -170 -311 -170q-123 0 -188 66t-64 181
q0 47 12 101l117 546l-31 37h-90l39 174h211q108 0 142 -22t44 -59t-4 -105l-117 -543q-8 -32 -8 -61z" />
    <glyph glyph-name="udieresis" unicode="&#xfc;" horiz-adv-x="1206" 
d="M788 1359q0 52 46 99t111 47q64 0 95 -34q31 -35 31 -87t-48 -98q-47 -46 -111 -45q-64 0 -94 33t-30 85zM442 1359q0 52 46 99t110 47t96 -34q31 -35 31 -87t-48 -98q-47 -46 -111 -45q-64 0 -94 33t-30 85zM395 295q0 -84 92 -84q74 1 150 67q20 18 37 31l168 776h305
l-193 -880l31 -41h90l-35 -164h-200q-96 0 -133 15q-71 29 -60 106l4 29h-8q-137 -170 -311 -170q-123 0 -188 66t-64 181q0 47 12 101l117 546l-31 37h-90l39 174h211q108 0 142 -22t44 -59t-4 -105l-117 -543q-8 -32 -8 -61z" />
    <glyph glyph-name="yacute" unicode="&#xfd;" horiz-adv-x="1140" 
d="M303 1085q81 0 113 -21q66 -42 82 -149l75 -538l283 497l-25 37h-53l39 174h182q102 0 132 -54q29 -54 -15 -132l-600 -1046l25 -37h86l-31 -164h-506l31 164h110l45 37l70 122l-156 902l-30 34h-92l38 174h197zM983 1548l104 -180l-372 -186h-45l-66 94l322 272h57z" />
    <glyph glyph-name="thorn" unicode="&#xfe;" horiz-adv-x="1161" 
d="M655 874q-35 0 -86 -24.5t-100 -79.5l-113 -528q53 -35 125 -35t129.5 43t116.5 148t59 302q0 80 -28.5 127t-102.5 47zM793 1106q149 0 229 -106t80 -260t-38 -289.5t-110.5 -240t-177 -167.5t-241.5 -63t-218 79l-43 -206l25 -37h102l-32 -164h-566l33 164h88l45 37
l305 1431l-26 37h-90l35 174h337q59 0 70.5 -26.5t3.5 -63.5l-100 -469q107 170 289 170z" />
    <glyph glyph-name="ydieresis" unicode="&#xff;" horiz-adv-x="1140" 
d="M303 1085q81 0 113 -21q66 -42 82 -149l75 -538l283 497l-25 37h-53l39 174h182q102 0 132 -54q29 -54 -15 -132l-600 -1046l25 -37h86l-31 -164h-506l31 164h110l45 37l70 122l-156 902l-30 34h-92l38 174h197zM766 1359q0 52 46 99t110 47t96 -34q31 -35 31 -87
q-1 -52 -49 -98t-111 -45q-63 0 -93 33t-30 85zM542 1241q-64 0 -92 33q-30 33 -30 85t46 99t110 47t96 -34q30 -35 30 -87t-48 -98t-112 -45z" />
    <glyph glyph-name="Amacron" unicode="&#x100;" horiz-adv-x="1339" 
d="M465 565h321l-57 504zM809 371h-444l-86 -164l26 -33h78l-39 -174h-489l39 174h77l43 37l678 1227h295l174 -1231l29 -33h80l-39 -174h-541l39 174h62l36 33zM625 1794h528l-39 -180h-528z" />
    <glyph glyph-name="amacron" unicode="&#x101;" horiz-adv-x="1191" 
d="M475 211q35 0 86 25t101 79l110 527q-60 35 -127 36q-68 1 -125 -42t-96 -112q-78 -138 -80 -339q0 -80 28 -127t103 -47zM29 388q0 112 38 246q78 278 286 408q103 64 248 64t224 -96l25 39q14 23 28 29t50 7h202l-188 -884l31 -37h90l-37 -164h-201q-99 0 -131 14
q-66 28 -59 105l4 41h-6q-49 -82 -125 -131t-161 -49q-155 0 -237 103q-81 103 -81 305zM465 1446h528l-39 -180h-528z" />
    <glyph glyph-name="Abreve" unicode="&#x102;" horiz-adv-x="1339" 
d="M465 565h321l-57 504zM809 371h-444l-86 -164l26 -33h78l-39 -174h-489l39 174h77l43 37l678 1227h295l174 -1231l29 -33h80l-39 -174h-541l39 174h62l36 33zM874 1724q56 0 96 31t60 70l125 -31q-56 -164 -200 -218q-50 -20 -108 -20q-108 -1 -164 68t-56 170l139 39
q4 -41 28 -75t80 -34z" />
    <glyph glyph-name="abreve" unicode="&#x103;" horiz-adv-x="1191" 
d="M475 211q35 0 86 25t101 79l110 527q-60 35 -127 36q-68 1 -125 -42t-96 -112q-78 -138 -80 -339q0 -80 28 -127t103 -47zM29 388q0 112 38 246q78 278 286 408q103 64 248 64t224 -96l25 39q14 23 28 29t50 7h202l-188 -884l31 -37h90l-37 -164h-201q-99 0 -131 14
q-66 28 -59 105l4 41h-6q-49 -82 -125 -131t-161 -49q-155 0 -237 103q-81 103 -81 305zM714 1376q56 0 96 31t60 70l125 -31q-56 -164 -199 -218q-50 -20 -108 -20q-108 -1 -165 68q-56 69 -56 170l139 39q4 -41 28 -75t80 -34z" />
    <glyph glyph-name="Aogonek" unicode="&#x104;" horiz-adv-x="1339" 
d="M465 565h321l-57 504zM907 -176q0 -82 80 -82q35 0 72 12.5t51 22.5l23 -86q-94 -60 -230 -60q-213 0 -213 150q0 137 180 219h-180l39 174h62l36 33l-18 164h-444l-86 -164l26 -33h78l-39 -174h-489l39 174h77l43 37l678 1227h295l174 -1231l29 -33h80l-39 -174h-86
q-238 -46 -238 -176z" />
    <glyph glyph-name="aogonek" unicode="&#x105;" horiz-adv-x="1191" 
d="M344 385q0 -80 28.5 -127t102.5 -47q35 0 86 24.5t101 79.5l110 527q-62 37 -129 37q-66 0 -123 -43t-116.5 -148.5t-59.5 -302.5zM733 -176q0 -82 80 -82q35 0 72 12.5t51 22.5l22 -86q-94 -60 -229 -60q-213 0 -213 150q0 80 56.5 136t142.5 91q-39 10 -62.5 34
t-17.5 77l4 41h-6q-49 -82 -125 -131t-161 -49q-158 0 -238 104t-80 259q0 319 155 541t406 222q156 0 235 -96l25 39q14 23 28.5 29.5t49.5 6.5h202l-188 -884l31 -37h90l-37 -164h-55q-238 -46 -238 -176z" />
    <glyph glyph-name="Cacute" unicode="&#x106;" horiz-adv-x="1196" 
d="M424 551q0 -352 289 -348q49 0 96 6l45 35l41 188h195l-80 -383q-154 -71 -371 -69q-266 0 -412 141q-145 141 -145 403q0 424 233 678t609 252q187 0 344 -57l-78 -375h-195l37 174l-26 35q-40 8 -116 8t-166 -40q-190 -84 -262 -337q-38 -131 -38 -311zM944 1530
l-65 94l321 272h57l105 -180l-373 -186h-45z" />
    <glyph glyph-name="cacute" unicode="&#x107;" horiz-adv-x="970" 
d="M956 1548l105 -180l-373 -186h-45l-65 94l321 272h57zM31 403q0 317 185 510t456 193q158 0 297 -45l-74 -348h-195l35 166l-30 34q-7 2 -21 2h-31q-158 0 -242 -164q-67 -132 -67 -288t55 -217q55 -62 156 -62t181 91q22 24 38 44l86 -96q-109 -243 -414 -243
q-176 0 -295 105q-120 106 -120 318z" />
    <glyph glyph-name="Ccircumflex" unicode="&#x108;" horiz-adv-x="1196" 
d="M424 551q0 -352 289 -348q49 0 96 6l45 35l41 188h195l-80 -383q-154 -71 -371 -69q-266 0 -412 141q-145 141 -145 403q0 424 233 678t609 252q187 0 344 -57l-78 -375h-195l37 174l-26 35q-40 8 -116 8t-166 -40q-190 -84 -262 -337q-38 -131 -38 -311zM662 1528
l-41 69l344 306h96l215 -306l-72 -69h-33l-196 153l-258 -153h-55z" />
    <glyph glyph-name="ccircumflex" unicode="&#x109;" horiz-adv-x="970" 
d="M383 1174l-41 69l344 305h96l215 -305l-71 -69h-33l-197 153l-258 -153h-55zM31 403q0 317 185 510t456 193q158 0 297 -45l-74 -348h-195l35 166l-30 34q-7 2 -21 2h-31q-158 0 -242 -164q-67 -132 -67 -288t55 -217q55 -62 156 -62t181 91q22 24 38 44l86 -96
q-109 -243 -414 -243q-176 0 -295 105q-120 106 -120 318z" />
    <glyph glyph-name="Cdotaccent" unicode="&#x10a;" horiz-adv-x="1196" 
d="M958 1534q-80 0 -116 41t-37 87q0 88 59 144t138 57q78 1 116 -41t39 -109q0 -67 -59 -123q-60 -56 -140 -56zM424 551q0 -352 289 -348q49 0 96 6l45 35l41 188h195l-80 -383q-154 -71 -371 -69q-266 0 -412 141q-145 141 -145 403q0 424 233 678t609 252q187 0 344 -57
l-78 -375h-195l37 174l-26 35q-40 8 -116 8t-166 -40q-190 -84 -262 -337q-38 -131 -38 -311z" />
    <glyph glyph-name="cdotaccent" unicode="&#x10b;" horiz-adv-x="970" 
d="M31 403q0 317 185 510t456 193q158 0 297 -45l-74 -348h-195l35 166l-30 34q-7 2 -21 2h-31q-158 0 -242 -164q-67 -132 -67 -288t55 -217q55 -62 156 -62t181 91q22 24 38 44l86 -96q-109 -243 -414 -243q-176 0 -295 105q-120 106 -120 318zM530 1314q0 87 60 144
q60 56 137 57q78 1 117 -41t39 -109q1 -67 -59 -123t-140 -56t-117 41t-37 87z" />
    <glyph glyph-name="Ccaron" unicode="&#x10c;" horiz-adv-x="1196" 
d="M424 551q0 -352 289 -348q49 0 96 6l45 35l41 188h195l-80 -383q-154 -71 -371 -69q-266 0 -412 141q-145 141 -145 403q0 424 233 678t609 252q187 0 344 -57l-78 -375h-195l37 174l-26 35q-40 8 -116 8t-166 -40q-190 -84 -262 -337q-38 -131 -38 -311zM977 1530h-96
l-215 305l71 70h33l197 -154l258 154h55l41 -70z" />
    <glyph glyph-name="ccaron" unicode="&#x10d;" horiz-adv-x="970" 
d="M727 1182h-96l-215 305l71 69h33l197 -153l258 153h55l41 -69zM31 403q0 317 185 510t456 193q158 0 297 -45l-74 -348h-195l35 166l-30 34q-7 2 -21 2h-31q-158 0 -242 -164q-67 -132 -67 -288t55 -217q55 -62 156 -62t181 91q22 24 38 44l86 -96q-109 -243 -414 -243
q-176 0 -295 105q-120 106 -120 318z" />
    <glyph glyph-name="Dcaron" unicode="&#x10e;" horiz-adv-x="1435" 
d="M614 213q177 0 307 183t130 509q1 160 -59 238t-208 78h-118l-220 -1008h168zM827 1434q261 0 413 -138q153 -138 153 -397q0 -426 -226 -663q-226 -236 -604 -236h-610l39 174h88l43 37l213 1012l-29 37h-88l39 174h569zM918 1530h-97l-215 305l72 70h33l196 -154
l258 154h56l41 -70z" />
    <glyph glyph-name="dcaron" unicode="&#x10f;" horiz-adv-x="1249" 
d="M1278 1192l86 405h223l-26 -124l-99 -281h-184zM344 391q0 -86 29 -133t102 -47q33 -1 84 23t100 79l113 529q-60 35 -127 36q-68 1 -125 -42q-114 -86 -155 -270q-21 -89 -21 -175zM1124 1495q60 0 72 -26t4 -64l-256 -1204l31 -37h90l-37 -164h-201q-99 0 -131 14
q-66 28 -59 105l4 41h-8q-49 -82 -125 -131t-161 -49q-155 0 -237 103q-81 103 -81 259q0 318 155 540t407 224q135 0 220 -82l57 260l-28 37h-90l36 174h338z" />
    <glyph glyph-name="Dcroat" unicode="&#x110;" horiz-adv-x="1437" 
d="M616 213q176 0 306.5 182t130.5 510q0 160 -59.5 238t-207.5 78h-118l-90 -416h274l-41 -150h-266l-96 -442h167zM829 1434q260 0 413 -137.5t153 -397.5q0 -426 -226 -662.5t-604 -236.5h-610l39 174h88l43 37l92 444h-145l41 150h137l88 418l-29 37h-88l39 174h569z
" />
    <glyph glyph-name="dcroat" unicode="&#x111;" horiz-adv-x="1191" 
d="M344 385q0 -80 28.5 -127t102.5 -47q33 0 84 23.5t100 78.5l113 529q-62 37 -129 37q-66 0 -123 -43t-116.5 -148.5t-59.5 -302.5zM593 1106q136 0 218 -82l27 123h-248l28 127h248l2 10l-28 37h-90l36 174h338q59 0 71.5 -25.5t4.5 -64.5l-29 -131h129l-28 -127h-127
l-201 -946l31 -37h90l-37 -164h-201q-99 0 -148 22t-42 97l4 41h-8q-49 -82 -125 -131t-161 -49q-158 0 -238 104t-80 259q0 156 37.5 291.5t110.5 240t176.5 168t239.5 63.5z" />
    <glyph glyph-name="Emacron" unicode="&#x112;" horiz-adv-x="1253" 
d="M666 1229l-84 -398h209l40 33l17 82h172l-90 -428h-172l16 82l-26 31h-211l-91 -426h422l43 35l37 163h187l-86 -403h-1096l39 174h88l43 37l213 1012l-29 37h-88l39 174h1075l-86 -404h-186l35 164l-29 35h-401zM639 1794h528l-39 -180h-528z" />
    <glyph glyph-name="emacron" unicode="&#x113;" horiz-adv-x="1007" 
d="M606 924q-128 0 -208 -196q-28 -69 -40 -163q161 23 219 52t90 71t31 117q0 119 -92 119zM33 426q0 139 49 269q97 257 322 362q108 49 248 49t237 -72q96 -72 96 -203t-116 -239q-116 -107 -386 -160q-72 -14 -135 -20v-2q0 -224 209 -226q124 0 236 115l81 -106
q-148 -213 -413 -213q-298 0 -394 227q-34 80 -34 219zM434 1446h529l-39 -180h-529z" />
    <glyph glyph-name="Ebreve" unicode="&#x114;" horiz-adv-x="1253" 
d="M666 1229l-84 -398h209l40 33l17 82h172l-90 -428h-172l16 82l-26 31h-211l-91 -426h422l43 35l37 163h187l-86 -403h-1096l39 174h88l43 37l213 1012l-29 37h-88l39 174h1075l-86 -404h-186l35 164l-29 35h-401zM888 1724q56 0 96 31t60 70l125 -31q-56 -164 -199 -218
q-50 -20 -108 -20q-108 -1 -165 68q-56 69 -56 170l139 39q4 -41 28 -75t80 -34z" />
    <glyph glyph-name="ebreve" unicode="&#x115;" horiz-adv-x="1007" 
d="M606 924q-128 0 -208 -196q-28 -69 -40 -163q161 23 219 52t90 71t31 117q0 119 -92 119zM33 426q0 139 49 269q97 257 322 362q108 49 248 49t237 -72q96 -72 96 -203t-116 -239q-116 -107 -386 -160q-72 -14 -135 -20v-2q0 -224 209 -226q124 0 236 115l81 -106
q-148 -213 -413 -213q-298 0 -394 227q-34 80 -34 219zM683 1376q56 0 96 31t61 70l125 -31q-56 -163 -200 -218q-51 -20 -109 -20t-99 20q-118 56 -121 218l139 39q4 -41 28 -75t80 -34z" />
    <glyph glyph-name="Edotaccent" unicode="&#x116;" horiz-adv-x="1253" 
d="M707 1662q0 88 59 144t137 57t117 -41t39 -109q1 -67 -59 -123t-140 -56t-117 41q-36 41 -36 87zM666 1229l-84 -398h209l40 33l17 82h172l-90 -428h-172l16 82l-26 31h-211l-91 -426h422l43 35l37 163h187l-86 -403h-1096l39 174h88l43 37l213 1012l-29 37h-88l39 174
h1075l-86 -404h-186l35 164l-29 35h-401z" />
    <glyph glyph-name="edotaccent" unicode="&#x117;" horiz-adv-x="1007" 
d="M606 924q-128 0 -208 -196q-28 -69 -40 -163q161 23 219 52t90 71t31 117q0 119 -92 119zM33 426q0 139 49 269q97 257 322 362q108 49 248 49t237 -72q96 -72 96 -203t-116 -239q-116 -107 -386 -160q-72 -14 -135 -20v-2q0 -224 209 -226q124 0 236 115l81 -106
q-148 -213 -413 -213q-298 0 -394 227q-34 80 -34 219zM662 1186q-80 0 -118 41q-36 41 -36 87q0 88 59 144t138 57t117 -41t38 -109t-59 -123t-139 -56z" />
    <glyph glyph-name="Eogonek" unicode="&#x118;" horiz-adv-x="1251" 
d="M711 -176q0 -82 80 -82q35 0 71.5 12.5t50.5 22.5l23 -86q-94 -60 -229 -60q-213 0 -213 150q0 138 180 219h-723l39 174h88l43 37l213 1012l-29 37h-88l39 174h1075l-86 -404h-186l35 164l-29 35h-401l-84 -398h208l41 33l17 82h172l-90 -428h-172l16 82l-27 31h-210
l-91 -426h422l43 35l37 163h187l-86 -403h-99q-237 -46 -237 -176z" />
    <glyph glyph-name="eogonek" unicode="&#x119;" horiz-adv-x="1007" 
d="M606 924q-80 0 -152 -91t-96 -268q163 23 220 51.5t88.5 71.5t31.5 117q0 119 -92 119zM446 -171q0 -87 80 -87q34 0 71.5 12.5t51.5 22.5l23 -86q-94 -60 -230 -60q-213 0 -213 158q0 121 127 199q-229 39 -276 178t-47 269t49 260t176.5 270.5t370.5 140.5
q164 0 260 -71.5t96 -204.5t-116.5 -239t-286.5 -139.5t-234 -39.5v-2q0 -226 209 -226q127 0 236 115l81 -106q-37 -53 -100.5 -109t-155.5 -82t-132 -74.5t-40 -98.5z" />
    <glyph glyph-name="Ecaron" unicode="&#x11a;" horiz-adv-x="1253" 
d="M666 1229l-84 -398h209l40 33l17 82h172l-90 -428h-172l16 82l-26 31h-211l-91 -426h422l43 35l37 163h187l-86 -403h-1096l39 174h88l43 37l213 1012l-29 37h-88l39 174h1075l-86 -404h-186l35 164l-29 35h-401zM899 1530h-96l-215 305l71 70h33l197 -154l258 154h55
l41 -70z" />
    <glyph glyph-name="ecaron" unicode="&#x11b;" horiz-adv-x="1007" 
d="M705 1182h-97l-215 305l72 69h33l196 -153l258 153h56l41 -69zM606 924q-128 0 -208 -196q-28 -69 -40 -163q161 23 219 52t90 71t31 117q0 119 -92 119zM33 426q0 139 49 269q97 257 322 362q108 49 248 49t237 -72q96 -72 96 -203t-116 -239q-116 -107 -386 -160
q-72 -14 -135 -20v-2q0 -224 209 -226q124 0 236 115l81 -106q-148 -213 -413 -213q-298 0 -394 227q-34 80 -34 219z" />
    <glyph glyph-name="Gcircumflex" unicode="&#x11c;" horiz-adv-x="1292" 
d="M651 1528l-41 69l344 306h97l215 -306l-72 -69h-33l-196 153l-258 -153h-56zM82 518q0 432 232 685t604 251q242 0 385 -57l-80 -375h-187l39 182l-26 31q-68 14 -155 14q-88 0 -178 -41q-187 -85 -256 -347q-36 -134 -36 -307t71 -275t214 -103q35 0 57 4l65 312l-30 36
h-76l39 174h491l-38 -174h-60l-39 -36l-92 -443q-166 -71 -375 -69q-271 0 -420 148t-149 390z" />
    <glyph glyph-name="gcircumflex" unicode="&#x11d;" horiz-adv-x="1103" 
d="M309 1174l-41 69l344 305h97l215 -305l-72 -69h-33l-196 153l-258 -153h-56zM385 731q0 -160 127 -160q78 1 124 63t46 154q0 160 -129 160q-78 0 -123 -62t-45 -155zM199 -106q0 -121 202 -121t272 93q21 30 21 80t-36 64t-115 15h-295q-49 -49 -49 -131zM231 473
q-133 85 -133 255t134 274t325 104q94 0 172 -21h393l-35 -174h-114l-19 -14q12 -37 12 -109t-38 -147q-75 -145 -252 -203q-84 -26 -170 -26t-135 10q-72 -35 -72 -78q0 -57 88 -57h268q226 0 298 -145q26 -50 26 -134t-46 -160q-46 -74 -128 -122q-165 -96 -440 -95
q-432 0 -428 217q0 140 190 209q-98 51 -98 166q0 147 202 250z" />
    <glyph glyph-name="Gbreve" unicode="&#x11e;" horiz-adv-x="1292" 
d="M82 518q0 432 232 685t604 251q242 0 385 -57l-80 -375h-187l39 182l-26 31q-68 14 -155 14q-88 0 -178 -41q-187 -85 -256 -347q-36 -134 -36 -307t71 -275t214 -103q35 0 57 4l65 312l-30 36h-76l39 174h491l-38 -174h-60l-39 -36l-92 -443q-166 -71 -375 -69
q-271 0 -420 148t-149 390zM976 1724q56 0 96 31t61 70l124 -31q-56 -164 -199 -218q-50 -20 -108 -20q-108 -1 -165 68q-56 69 -56 170l139 39q4 -41 28 -75t80 -34z" />
    <glyph glyph-name="gbreve" unicode="&#x11f;" horiz-adv-x="1103" 
d="M385 731q0 -160 127 -160q78 1 124 63t46 154q0 160 -129 160q-78 0 -123 -62t-45 -155zM199 -106q0 -121 202 -121t272 93q21 30 21 80t-36 64t-115 15h-295q-49 -49 -49 -131zM231 473q-133 85 -133 255t134 274t325 104q94 0 172 -21h393l-35 -174h-114l-19 -14
q12 -37 12 -109t-38 -147q-75 -145 -252 -203q-84 -26 -170 -26t-135 10q-72 -35 -72 -78q0 -57 88 -57h268q226 0 298 -145q26 -50 26 -134t-46 -160q-46 -74 -128 -122q-165 -96 -440 -95q-432 0 -428 217q0 140 190 209q-98 51 -98 166q0 147 202 250zM632 1376
q56 0 96 31t60 70l125 -31q-56 -164 -199 -218q-50 -20 -108 -20q-108 -1 -165 68q-56 69 -56 170l139 39q4 -41 28 -75t80 -34z" />
    <glyph glyph-name="Gdotaccent" unicode="&#x120;" horiz-adv-x="1292" 
d="M795 1662q0 88 59 144t138 57q78 1 116 -41t39 -109t-59 -123t-140 -56t-117 41q-36 41 -36 87zM82 518q0 432 232 685t604 251q242 0 385 -57l-80 -375h-187l39 182l-26 31q-68 14 -155 14q-88 0 -178 -41q-187 -85 -256 -347q-36 -134 -36 -307t71 -275t214 -103
q35 0 57 4l65 312l-30 36h-76l39 174h491l-38 -174h-60l-39 -36l-92 -443q-166 -71 -375 -69q-271 0 -420 148t-149 390z" />
    <glyph glyph-name="gdotaccent" unicode="&#x121;" horiz-adv-x="1103" 
d="M385 731q0 -160 127 -160q78 1 124 63t46 154q0 160 -129 160q-78 0 -123 -62t-45 -155zM199 -106q0 -121 202 -121t272 93q21 30 21 80t-36 64t-115 15h-295q-49 -49 -49 -131zM231 473q-133 85 -133 255t134 274t325 104q94 0 172 -21h393l-35 -174h-114l-19 -14
q12 -37 12 -109t-38 -147q-75 -145 -252 -203q-84 -26 -170 -26t-135 10q-72 -35 -72 -78q0 -57 88 -57h268q226 0 298 -145q26 -50 26 -134t-46 -160q-46 -74 -128 -122q-165 -96 -440 -95q-432 0 -428 217q0 140 190 209q-98 51 -98 166q0 147 202 250zM610 1186
q-80 0 -116 41t-37 87q0 88 59 144t138 57q78 1 116 -41t39 -109q0 -67 -59 -123q-60 -56 -140 -56z" />
    <glyph glyph-name="uni0122" unicode="&#x122;" horiz-adv-x="1292" 
d="M646 -119q70 0 106 -34t36 -92q-1 -58 -47 -115l-174 -226l-96 60l68 96l-7 51q-48 29 -48 111q0 46 46 98t116 51zM82 518q0 432 232 685t604 251q242 0 385 -57l-80 -375h-187l39 182l-26 31q-68 14 -155 14q-88 0 -178 -41q-187 -85 -256 -347q-36 -134 -36 -307
t71 -275t214 -103q35 0 57 4l65 312l-30 36h-76l39 174h491l-38 -174h-60l-39 -36l-92 -443q-166 -71 -375 -69q-271 0 -420 148t-149 390z" />
    <glyph glyph-name="uni0123" unicode="&#x123;" horiz-adv-x="1103" 
d="M600 1186q-70 0 -105 34q-36 34 -36 91t47 116l174 226l96 -60l-67 -96l6 -51q49 -30 49 -93t-47 -115t-117 -52zM385 731q0 -160 127 -160q78 1 124 63t46 154q0 160 -129 160q-78 0 -123 -62t-45 -155zM199 -106q0 -121 202 -121t272 93q21 30 21 80t-36 64t-115 15
h-295q-49 -49 -49 -131zM231 473q-133 85 -133 255t134 274t325 104q94 0 172 -21h393l-35 -174h-114l-19 -14q12 -37 12 -109t-38 -147q-75 -145 -252 -203q-84 -26 -170 -26t-135 10q-72 -35 -72 -78q0 -57 88 -57h268q226 0 298 -145q26 -50 26 -134t-46 -160
q-46 -74 -128 -122q-165 -96 -440 -95q-432 0 -428 217q0 140 190 209q-98 51 -98 166q0 147 202 250z" />
    <glyph glyph-name="Hcircumflex" unicode="&#x124;" horiz-adv-x="1488" 
d="M958 625h-423l-89 -414l27 -37h90l-39 -174h-573l39 174h88l43 37l215 1012l-29 37h-88l37 174h573l-36 -174h-91l-40 -37l-82 -385h424l81 385l-26 37h-88l37 174h573l-37 -174h-90l-43 -37l-215 -1012l29 -37h90l-39 -174h-574l39 174h88l41 37zM655 1528l-41 69
l344 306h97l215 -306l-72 -69h-33l-196 153l-258 -153h-56z" />
    <glyph glyph-name="hcircumflex" unicode="&#x125;" horiz-adv-x="1187" 
d="M133 1583l-41 70l344 305h96l216 -305l-72 -70h-33l-197 154l-258 -154h-55zM762 791q0 85 -88 84t-165 -67q-22 -17 -36 -30l-166 -778h-305l272 1284l-26 37h-90l37 174h337q94 0 74 -90l-98 -465q132 166 317 166q123 0 188 -67t64 -181q0 -49 -12 -100l-119 -557
l31 -37h90l-37 -164h-211q-111 0 -145 24q-33 24 -42 60q-9 37 5 102l117 543q8 32 8 62z" />
    <glyph glyph-name="Hbar" unicode="&#x126;" horiz-adv-x="1488" 
d="M1006 838l30 149h-424l-30 -149h424zM199 1137h120l19 86l-29 37h-88l37 174h573l-36 -174h-90l-41 -37l-19 -86h424l18 86l-26 37h-88l37 174h573l-37 -174h-90l-43 -37l-18 -86h127l-33 -150h-127l-164 -776l29 -37h90l-39 -174h-573l38 174h88l41 37l89 414h-424
l-88 -414l26 -37h90l-39 -174h-573l39 174h88l43 37l164 776h-127z" />
    <glyph glyph-name="hbar" unicode="&#x127;" horiz-adv-x="1187" 
d="M762 791q0 83 -93 83t-196 -96l-166 -778h-305l244 1147h-123l24 129h125l2 8l-26 37h-90l37 174h337q55 0 68.5 -26.5t5.5 -63.5l-28 -129h243l-24 -129h-246l-43 -207q132 166 317 166q123 0 187.5 -66.5t64.5 -181.5q0 -49 -12 -100l-119 -557l31 -37h90l-37 -164
h-211q-111 0 -144.5 23.5t-42.5 60.5t5 102l117 543q8 32 8 62z" />
    <glyph glyph-name="Itilde" unicode="&#x128;" horiz-adv-x="739" 
d="M336 1223l-29 37h-88l39 174h573l-38 -174h-91l-40 -37l-213 -1012l26 -37h90l-39 -174h-573l39 174h88l43 37zM711 1550q-48 0 -143 37t-132 37t-55 -18l-19 -78h-129l19 84q27 119 71 167t126 48q44 -1 113 -29t107 -42t82 -13q44 0 50 29l14 67h125l-20 -92
q-23 -101 -70 -149t-139 -48z" />
    <glyph glyph-name="itilde" unicode="&#x129;" horiz-adv-x="634" 
d="M479 1085q61 0 71 -28q9 -29 3 -62l-170 -794l31 -37h90l-35 -164h-211q-106 0 -140 22q-67 43 -42 164l145 688l-28 37h-91l39 174h338zM496 1408q38 -14 80 -13q42 0 53 28l14 68h125l-20 -92q-23 -101 -70 -149t-120 -48t-164 37t-130 37q-40 0 -55 -19l-19 -77h-129
l19 84q27 119 71 167t125 48q35 1 71 -13t74 -29q37 -15 75 -29z" />
    <glyph glyph-name="Imacron" unicode="&#x12a;" horiz-adv-x="739" 
d="M336 1223l-29 37h-88l39 174h573l-38 -174h-91l-40 -37l-213 -1012l26 -37h90l-39 -174h-573l39 174h88l43 37zM362 1794h529l-39 -180h-528z" />
    <glyph glyph-name="imacron" unicode="&#x12b;" horiz-adv-x="632" 
d="M477 1085q61 0 71 -28q9 -29 3 -62l-170 -794l31 -37h90l-35 -164h-211q-106 0 -140 22q-67 43 -42 164l145 688l-29 37h-90l39 174h338zM176 1446h529l-39 -180h-529z" />
    <glyph glyph-name="Iogonek" unicode="&#x12e;" horiz-adv-x="739" 
d="M190 -176q0 -82 80 -82q34 0 71.5 12.5t51.5 22.5l23 -86q-94 -60 -230 -60q-213 0 -213 150q0 138 181 219h-203l39 174h88l43 37l213 1012l-29 37h-88l39 174h573l-38 -174h-91l-41 -37l-213 -1012l27 -37h90l-39 -174h-96q-238 -46 -238 -176z" />
    <glyph glyph-name="iogonek" unicode="&#x12f;" horiz-adv-x="632" 
d="M430 1198q-147 0 -147 146q0 72 50 127t138 55t126 -37t38 -109t-49 -127t-156 -55zM176 -176q0 -82 80 -82q35 0 72 12.5t51 22.5l22 -86q-94 -60 -229 -60q-213 0 -213 114t55.5 170t141.5 91q-55 13 -78.5 53.5t-3.5 126.5l145 688l-29 37h-90l39 174h338q56 0 68 -23
t6 -67l-170 -794l31 -37h90l-35 -164h-57q-234 -45 -234 -176z" />
    <glyph glyph-name="Idotaccent" unicode="&#x130;" horiz-adv-x="739" 
d="M336 1223l-29 37h-88l39 174h573l-38 -174h-91l-40 -37l-213 -1012l26 -37h90l-39 -174h-573l39 174h88l43 37zM584 1534q-80 0 -118 41q-36 41 -36 87q0 88 59 144t138 57t117 -41t38 -109t-59 -123t-139 -56z" />
    <glyph glyph-name="dotlessi" unicode="&#x131;" horiz-adv-x="634" 
d="M477 1085q61 0 70.5 -28.5t3.5 -61.5l-170 -794l31 -37h90l-35 -164h-211q-106 0 -157.5 32.5t-24.5 153.5l145 688l-29 37h-90l39 174h338z" />
    <glyph glyph-name="IJ" unicode="&#x132;" horiz-adv-x="1368" 
d="M568 195q206 0 245 180l180 848l-26 37h-88l36 174h574l-37 -174h-90l-43 -37l-174 -820q-41 -197 -180.5 -310t-368.5 -113t-348 63q-55 27 -86 63l67 320h211l-37 -174l21 -33q44 -24 144 -24zM317 1223l-28 37h-88l39 174h573l-39 -174h-90l-41 -37l-106 -527l24 -37
h90l-39 -174h-573l39 174h88l43 37z" />
    <glyph glyph-name="ij" unicode="&#x133;" horiz-adv-x="1232" 
d="M432 1198q-147 0 -147 146q0 72 50 127t138 55t126 -37t38 -109t-49 -128q-49 -54 -156 -54zM479 1085q80 0 77 -59q-1 -16 -3 -31l-170 -794l31 -37h90l-35 -164h-211q-106 0 -140 22q-67 43 -42 164l145 688l-28 37h-91l39 174h338zM1063 1198q-148 0 -148 146
q1 72 51 127t138 55t126 -37t38 -109t-49 -128q-49 -54 -156 -54zM1112 1085q59 0 69 -28q9 -29 3 -62l-207 -975q-40 -183 -136 -275q-118 -114 -331 -114q-136 0 -213 23l49 237h174l-18 -92l20 -26h4q89 0 142 229l184 872l-27 37h-100l39 174h348z" />
    <glyph glyph-name="Jcircumflex" unicode="&#x134;" horiz-adv-x="1062" 
d="M285 195q98 0 149 45t70 135l178 848l-27 37h-88l39 174h574l-39 -174h-90l-43 -37l-172 -820q-41 -195 -168 -309t-336 -114t-318 63q-51 27 -77 63l67 320h211l-37 -174l21 -33q55 -24 86 -24zM635 1528l-41 69l344 306h96l215 -306l-71 -69h-33l-197 153l-258 -153
h-55z" />
    <glyph glyph-name="jcircumflex" unicode="&#x135;" horiz-adv-x="604" 
d="M131 1174l-41 69l344 305h96l215 -305l-71 -69h-33l-197 153l-258 -153h-55zM481 1085q80 0 77 -59q-1 -16 -3 -31l-207 -975q-40 -183 -136 -275q-118 -114 -329 -114q-136 0 -213 23l49 237h175l-19 -92l21 -26h4q49 0 82 63t57 166l184 872l-28 37h-91l39 174h338z
" />
    <glyph glyph-name="uni0136" unicode="&#x136;" horiz-adv-x="1425" 
d="M598 -119q70 0 105 -34q36 -34 36 -91t-47 -116l-174 -226l-96 60l67 96l-6 51q-49 30 -49 93q0 64 47 116t117 51zM526 0h-573l39 174h88l43 37l213 1012l-29 37h-88l39 174h573l-38 -174h-91l-38 -35l-84 -402h82l438 414l-15 23h-61l39 174h493l-38 -174h-82l-56 -31
l-456 -428l274 -596l33 -31h86l-39 -174h-557l39 174h74l14 14l-197 457h-110l-92 -436l26 -35h90z" />
    <glyph glyph-name="uni0137" unicode="&#x137;" horiz-adv-x="1191" 
d="M506 -119q70 0 105 -34q36 -34 36 -91t-47 -116l-174 -226l-96 60l67 96l-6 51q-49 30 -49 93q0 64 47 116t117 51zM836 0q-132 0 -186 102q-17 33 -34 74l-137 334h-63l-109 -510h-305l272 1284l-26 37h-90l37 174h337q54 0 68 -26t6 -64l-160 -746h50l299 236l-11 16
h-67l35 174h479l-35 -174h-86l-37 -12l-321 -248l217 -458l30 -29h91l-35 -164h-219z" />
    <glyph glyph-name="kgreenlandic" unicode="&#x138;" horiz-adv-x="1214" 
d="M866 0q-131 0 -166.5 67.5t-52.5 108.5l-137 334h-64l-110 -510h-305l186 874l-27 37h-90l37 174h338q56 0 68 -23t6 -67l-72 -336h51l303 236l-10 16h-28l38 174h437l-39 -174h-96l-48 -26l-303 -223l219 -469l31 -29h72l-33 -164h-205z" />
    <glyph glyph-name="Lacute" unicode="&#x139;" horiz-adv-x="1138" 
d="M567 1530l-65 94l321 272h58l104 -180l-373 -186h-45zM449 209h339l43 35l41 188h187l-92 -432h-1014l39 174h88l43 37l213 1012l-29 37h-88l39 174h573l-38 -174h-91l-40 -37z" />
    <glyph glyph-name="lacute" unicode="&#x13a;" horiz-adv-x="598" 
d="M776 1958l105 -180l-373 -187h-45l-66 95l322 272h57zM528 1495q58 0 70 -29t6 -61l-256 -1204l31 -37h90l-37 -164h-211q-110 0 -142 22q-65 45 -40 164l233 1098l-28 37h-90l36 174h338z" />
    <glyph glyph-name="uni013B" unicode="&#x13b;" horiz-adv-x="1138" 
d="M542 -119q70 0 106 -34t36 -91t-47 -116l-174 -226l-96 60l67 96l-6 51q-49 30 -49 93q0 64 47 116q46 52 116 51zM449 209h339l43 35l41 188h187l-92 -432h-1014l39 174h88l43 37l213 1012l-29 37h-88l39 174h573l-38 -174h-91l-40 -37z" />
    <glyph glyph-name="uni013C" unicode="&#x13c;" horiz-adv-x="602" 
d="M144 -119q70 0 105 -34q36 -34 36 -90t-47 -117l-175 -226l-96 60l68 96l-6 51q-49 30 -49 93q0 64 47 116t117 51zM528 1495q58 0 70 -29t6 -61l-256 -1204l31 -37h90l-37 -164h-211q-110 0 -142 22q-65 45 -40 164l233 1098l-28 37h-90l36 174h338z" />
    <glyph glyph-name="Lcaron" unicode="&#x13d;" horiz-adv-x="1144" 
d="M952 1192l86 405h224l-27 -124l-98 -281h-185zM446 209h340l43 35l41 188h187l-92 -432h-1014l39 174h88l43 37l213 1012l-29 37h-88l39 174h573l-38 -174h-91l-41 -37z" />
    <glyph glyph-name="lcaron" unicode="&#x13e;" horiz-adv-x="655" 
d="M680 1192l86 405h223l-26 -124l-99 -281h-184zM528 1495q58 0 70 -29t6 -61l-256 -1204l31 -37h90l-37 -164h-211q-110 0 -142 22q-65 45 -40 164l233 1098l-28 37h-90l36 174h338z" />
    <glyph glyph-name="Ldot" unicode="&#x13f;" horiz-adv-x="1167" 
d="M756 736q0 87 60 145q60 57 137 57q79 0 117 -42t38 -108t-59 -123t-139 -57t-118 41q-36 41 -36 87zM449 209h339l43 35l41 188h187l-92 -432h-1014l39 174h88l43 37l213 1012l-29 37h-88l39 174h573l-38 -174h-91l-40 -37z" />
    <glyph glyph-name="ldot" unicode="&#x140;" horiz-adv-x="847" 
d="M569 716q0 87 60 144q60 56 137 57q78 1 117 -41t39 -109t-60 -123t-139 -56q-80 0 -117 41t-37 87zM528 1495q58 0 70 -29t6 -61l-256 -1204l31 -37h90l-37 -164h-211q-110 0 -142 22q-65 45 -40 164l233 1098l-28 37h-90l36 174h338z" />
    <glyph glyph-name="Lslash" unicode="&#x141;" horiz-adv-x="1144" 
d="M596 885l240 104l-41 -190l-238 -103l-102 -487h340l43 35l41 188h186l-92 -432h-1014l39 174h88l43 37l70 330l-166 -72l39 190l166 72l104 492l-29 37h-88l39 174h574l-39 -174h-90l-41 -37z" />
    <glyph glyph-name="lslash" unicode="&#x142;" horiz-adv-x="657" 
d="M580 1495q59 0 70.5 -28.5t4.5 -61.5l-108 -508l178 86l-41 -190l-178 -84l-107 -508l31 -37h90l-37 -164h-211q-108 0 -157.5 33.5t-24.5 152.5l76 359l-174 -82l41 190l174 82l117 549l-29 37h-90l37 174h338z" />
    <glyph glyph-name="Nacute" unicode="&#x143;" horiz-adv-x="1454" 
d="M889 1530l-66 94l322 272h57l105 -180l-373 -186h-45zM956 -6l-440 948l-154 -731l29 -37h90l-39 -174h-491l39 174h88l43 37l213 1012l-29 37h-88l39 174h367l391 -854l137 643l-29 37h-88l39 174h492l-39 -174h-90l-43 -37l-260 -1229h-177z" />
    <glyph glyph-name="nacute" unicode="&#x144;" horiz-adv-x="1216" 
d="M1036 1548l105 -180l-373 -186h-45l-66 94l322 272h57zM461 1085q77 0 77 -59q-1 -16 -3 -31l-15 -59h12q137 170 322 170q124 0 188 -67t64 -181q0 -49 -12 -100l-119 -557l31 -37h90l-37 -164h-211q-43 0 -82 3q-136 10 -100 183l116 543q7 28 9 62q0 85 -86 84
t-167 -66q-22 -16 -36 -29l-168 -780h-305l188 874l-29 37h-92l39 174h326z" />
    <glyph glyph-name="uni0145" unicode="&#x145;" horiz-adv-x="1454" 
d="M632 -119q70 0 106 -34t36 -91t-47 -116l-174 -226l-96 60l67 96l-6 51q-49 30 -49 93q0 64 47 116q46 52 116 51zM956 -6l-440 948l-154 -731l29 -37h90l-39 -174h-491l39 174h88l43 37l213 1012l-29 37h-88l39 174h367l391 -854l137 643l-29 37h-88l39 174h492
l-39 -174h-90l-43 -37l-260 -1229h-177z" />
    <glyph glyph-name="uni0146" unicode="&#x146;" horiz-adv-x="1216" 
d="M500 -119q70 0 105 -34q36 -34 36 -91t-47 -116l-174 -226l-96 60l67 96l-6 51q-49 30 -49 93q0 64 47 116t117 51zM461 1085q77 0 77 -59q-1 -16 -3 -31l-15 -59h12q137 170 322 170q124 0 188 -67t64 -181q0 -49 -12 -100l-119 -557l31 -37h90l-37 -164h-211
q-43 0 -82 3q-136 10 -100 183l116 543q7 28 9 62q0 85 -86 84t-167 -66q-22 -16 -36 -29l-168 -780h-305l188 874l-29 37h-92l39 174h326z" />
    <glyph glyph-name="Ncaron" unicode="&#x147;" horiz-adv-x="1454" 
d="M956 -6l-440 948l-154 -731l29 -37h90l-39 -174h-491l39 174h88l43 37l213 1012l-29 37h-88l39 174h367l391 -854l137 643l-29 37h-88l39 174h492l-39 -174h-90l-43 -37l-260 -1229h-177zM942 1530h-96l-215 305l71 70h33l197 -154l258 154h55l41 -70z" />
    <glyph glyph-name="ncaron" unicode="&#x148;" horiz-adv-x="1216" 
d="M807 1182h-96l-215 305l71 69h33l197 -153l258 153h55l41 -69zM461 1085q77 0 77 -59q-1 -16 -3 -31l-15 -59h12q137 170 322 170q124 0 188 -67t64 -181q0 -49 -12 -100l-119 -557l31 -37h90l-37 -164h-211q-43 0 -82 3q-136 10 -100 183l116 543q7 28 9 62q0 85 -86 84
t-167 -66q-22 -16 -36 -29l-168 -780h-305l188 874l-29 37h-92l39 174h326z" />
    <glyph glyph-name="napostrophe" unicode="&#x149;" horiz-adv-x="1216" 
d="M312 1636q70 0 105 -34q36 -34 36 -89q0 -56 -47 -118l-175 -226l-96 60l68 96l-6 51q-48 29 -49 93q-2 63 46 115t118 52zM461 1085q77 0 77 -59q-1 -16 -3 -31l-15 -59h12q137 170 322 170q124 0 188 -67t64 -181q0 -49 -12 -100l-119 -557l31 -37h90l-37 -164h-211
q-43 0 -82 3q-136 10 -100 183l116 543q7 28 9 62q0 85 -86 84t-167 -66q-22 -16 -36 -29l-168 -780h-305l188 874l-29 37h-92l39 174h326z" />
    <glyph glyph-name="Omacron" unicode="&#x14c;" horiz-adv-x="1400" 
d="M422 426q0 -94 44 -161t165 -67t212 131q91 130 135 305q44 176 44 320t-44 212t-167 69q-123 0 -222 -144q-121 -178 -158 -488q-9 -83 -9 -177zM410 1306q180 148 432 148t387 -151t135 -396q0 -344 -186 -621q-128 -192 -332 -268q-104 -38 -236 -38q-254 1 -392 152
t-138 386q0 346 184 627q61 92 146 161zM672 1794h528l-39 -180h-528z" />
    <glyph glyph-name="omacron" unicode="&#x14d;" horiz-adv-x="1124" 
d="M467 1446h528l-39 -180h-528zM37 450q0 142 50 270q99 253 319 343q104 43 204 43q203 0 325 -110t122 -300q0 -344 -183 -538q-166 -178 -399 -178q-192 0 -309 107q-59 54 -94 138q-35 83 -35 225zM352 382q0 -94 29 -148t101 -54t123 53q50 53 80 133q56 150 56 336
q0 100 -28 152q-29 51 -102 51t-123 -53t-79 -129q-57 -144 -57 -341z" />
    <glyph glyph-name="Obreve" unicode="&#x14e;" horiz-adv-x="1400" 
d="M422 426q0 -94 44 -161t165 -67t212 131q91 130 135 305q44 176 44 320t-44 212t-167 69q-123 0 -222 -144q-121 -178 -158 -488q-9 -83 -9 -177zM410 1306q180 148 432 148t387 -151t135 -396q0 -344 -186 -621q-128 -192 -332 -268q-104 -38 -236 -38q-254 1 -392 152
t-138 386q0 346 184 627q61 92 146 161zM921 1724q56 0 96 31t60 70l125 -31q-56 -164 -200 -218q-50 -20 -108 -20q-108 -1 -164 68t-56 170l139 39q4 -41 28 -75t80 -34z" />
    <glyph glyph-name="obreve" unicode="&#x14f;" horiz-adv-x="1124" 
d="M37 450q0 142 50 270q99 253 319 343q104 43 204 43q203 0 325 -110t122 -300q0 -344 -183 -538q-166 -178 -399 -178q-192 0 -309 107q-59 54 -94 138q-35 83 -35 225zM352 382q0 -94 29 -148t101 -54t123 53q50 53 80 133q56 150 56 336q0 100 -28 152q-29 51 -102 51
t-123 -53t-79 -129q-57 -144 -57 -341zM716 1376q56 0 96 31t60 70l125 -31q-56 -164 -199 -218q-50 -20 -108 -20q-108 -1 -165 68q-56 69 -56 170l139 39q4 -41 28 -75t80 -34z" />
    <glyph glyph-name="Ohungarumlaut" unicode="&#x150;" horiz-adv-x="1400" 
d="M993 1530l-39 76l291 239h58l90 -139l-359 -176h-41zM713 1530l-51 82l299 284h57l86 -120l-352 -246h-39zM422 426q0 -94 44 -161t165 -67t212 131q91 130 135 305q44 176 44 320t-44 212t-167 69q-123 0 -222 -144q-121 -178 -158 -488q-9 -83 -9 -177zM410 1306
q180 148 432 148t387 -151t135 -396q0 -344 -186 -621q-128 -192 -332 -268q-104 -38 -236 -38q-254 1 -392 152t-138 386q0 346 184 627q61 92 146 161z" />
    <glyph glyph-name="ohungarumlaut" unicode="&#x151;" horiz-adv-x="1124" 
d="M774 1182l-39 75l291 240h57l91 -139l-359 -176h-41zM502 1182l-60 82l299 284h58l86 -121l-344 -245h-39zM37 450q0 142 50 270q99 253 319 343q104 43 204 43q203 0 325 -110t122 -300q0 -344 -183 -538q-166 -178 -399 -178q-192 0 -309 107q-59 54 -94 138
q-35 83 -35 225zM352 382q0 -94 29 -148t101 -54t123 53q50 53 80 133q56 150 56 336q0 100 -28 152q-29 51 -102 51t-123 -53t-79 -129q-57 -144 -57 -341z" />
    <glyph glyph-name="OE" unicode="&#x152;" horiz-adv-x="1998" 
d="M887 1235q-473 0 -473 -756q0 -133 57 -206.5t192 -73.5t207 28l207 971q-81 37 -190 37zM860 1454q166 0 293 -20h926l-86 -404h-178l32 164l-28 35h-412l-82 -398h219l41 33l17 82h163l-90 -428h-164l17 82l-27 31h-221l-88 -426h432l43 35l35 163h178l-86 -403h-936
q-109 -20 -242 -20q-248 0 -390 131t-142 375t57.5 420.5t161 298.5t247.5 185.5t310 63.5z" />
    <glyph glyph-name="oe" unicode="&#x153;" horiz-adv-x="1667" 
d="M1284 920q-79 0 -148.5 -83.5t-97.5 -263.5q164 23 251 66t87 162t-92 119zM369 216.5q29 -42.5 105 -42.5q134 0 198.5 174.5t64.5 388.5q0 88 -29 130t-104 42q-76 0 -126 -55t-94 -176t-44 -270t29 -191.5zM1305 1106q160 0 253 -69.5t93 -189.5t-109.5 -250.5
t-513.5 -174.5v-23q0 -113 50 -168t160 -55t216 84l64 -123q-146 -157 -382 -157t-333 155q-143 -155 -333 -155t-311.5 110t-121.5 322q0 328 130 466t233.5 182t209.5 44q215 0 312 -178q160 180 383 180z" />
    <glyph glyph-name="Racute" unicode="&#x154;" horiz-adv-x="1359" 
d="M854 1434q217 0 341 -85t124 -267t-134 -297q-109 -94 -251 -109v-8q78 -10 123 -58t55 -153l25 -250l32 -33h72l-39 -174h-289q-103 0 -110 106l-33 349q-8 79 -19 99q-11 19 -57 19h-168l-77 -364l26 -35h107l-39 -174h-590l39 174h88l43 37l213 1012l-29 37h-88
l39 174h596zM707 774q127 0 201 74t75 227q0 74 -40 116t-140 42h-137l-97 -459h138zM797 1530l-66 94l322 272h57l104 -180l-372 -186h-45z" />
    <glyph glyph-name="racute" unicode="&#x155;" horiz-adv-x="851" 
d="M922 1548l104 -180l-373 -186h-45l-65 94l321 272h58zM461 1085q77 0 77 -59q-1 -16 -3 -31l-19 -80h10q71 116 202 169q52 22 104 22t67 -3q16 -3 27 -3l-90 -428h-181l31 143l-27 33q-84 -25 -159 -80l-166 -768h-305l188 874l-29 37h-92l39 174h326z" />
    <glyph glyph-name="uni0156" unicode="&#x156;" horiz-adv-x="1359" 
d="M664 -119q70 0 105 -34q36 -34 36 -91t-47 -116l-174 -226l-97 60l68 96l-6 51q-49 30 -49 93q0 64 47 116t117 51zM854 1434q217 0 341 -85t124 -267t-134 -297q-109 -94 -251 -109v-8q78 -10 123 -58t55 -153l25 -250l32 -33h72l-39 -174h-289q-103 0 -110 106l-33 349
q-8 79 -19 99q-11 19 -57 19h-168l-77 -364l26 -35h107l-39 -174h-590l39 174h88l43 37l213 1012l-29 37h-88l39 174h596zM707 774q127 0 201 74t75 227q0 74 -40 116t-140 42h-137l-97 -459h138z" />
    <glyph glyph-name="uni0157" unicode="&#x157;" horiz-adv-x="854" 
d="M150 -119q70 0 105 -34q36 -34 36 -91t-47 -116l-174 -226l-97 60l68 96l-6 51q-49 30 -49 93q0 64 47 116t117 51zM461 1085q77 0 77 -59q-1 -16 -3 -31l-19 -80h10q71 116 202 169q52 22 104 22t67 -3q16 -3 27 -3l-90 -428h-181l31 143l-27 33q-84 -25 -159 -80
l-166 -768h-305l188 874l-29 37h-92l39 174h326z" />
    <glyph glyph-name="Rcaron" unicode="&#x158;" horiz-adv-x="1359" 
d="M854 1434q217 0 341 -85t124 -267t-134 -297q-109 -94 -251 -109v-8q78 -10 123 -58t55 -153l25 -250l32 -33h72l-39 -174h-289q-103 0 -110 106l-33 349q-8 79 -19 99q-11 19 -57 19h-168l-77 -364l26 -35h107l-39 -174h-590l39 174h88l43 37l213 1012l-29 37h-88
l39 174h596zM707 774q127 0 201 74t75 227q0 74 -40 116t-140 42h-137l-97 -459h138zM850 1530h-96l-215 305l71 70h33l197 -154l258 154h55l41 -70z" />
    <glyph glyph-name="rcaron" unicode="&#x159;" horiz-adv-x="854" 
d="M672 1182h-97l-215 305l72 69h33l197 -153l258 153h55l41 -69zM461 1085q77 0 77 -59q-1 -16 -3 -31l-19 -80h10q71 116 202 169q52 22 104 22t67 -3q16 -3 27 -3l-90 -428h-181l31 143l-27 33q-84 -25 -159 -80l-166 -768h-305l188 874l-29 37h-92l39 174h326z" />
    <glyph glyph-name="Sacute" unicode="&#x15a;" horiz-adv-x="1128" 
d="M1028 471q0 -347 -348 -458q-110 -33 -230 -33q-268 1 -454 88l76 364h196l-41 -186l31 -37q75 -17 167 -18q230 -2 270 128q24 80 1 125q-21 48 -94 91q-39 23 -146 77t-169 115q-63 61 -91 123t-28 158q0 98 44 184t122 144q159 118 399 118q241 0 416 -80l-80 -352
h-197l37 170l-28 35q-66 16 -167 16q-102 0 -174 -44t-71 -122q0 -78 43 -117t191 -115q149 -75 237 -164t88 -210zM762 1530l-66 94l322 272h57l105 -180l-373 -186h-45z" />
    <glyph glyph-name="sacute" unicode="&#x15b;" horiz-adv-x="933" 
d="M874 1548l105 -180l-373 -186h-45l-65 94l321 272h57zM532 676q287 -100 287 -296t-138 -299t-351 -101q-146 0 -262 43q-53 18 -97 43l64 305h176l-29 -156l27 -37q64 -16 142 -16t126 37q47 37 47 95q0 57 -36 86t-157 68q-122 39 -177 117q-56 78 -56 165
q-1 258 280 347q91 29 204 29q175 0 327 -59l-61 -297h-176l22 133l-24 32q-39 11 -106 11q-68 0 -128 -28t-59 -84q0 -56 34 -82t121 -56z" />
    <glyph glyph-name="Scircumflex" unicode="&#x15c;" horiz-adv-x="1128" 
d="M1028 471q0 -347 -348 -458q-110 -33 -230 -33q-268 1 -454 88l76 364h196l-41 -186l31 -37q75 -17 167 -18q230 -2 270 128q24 80 1 125q-21 48 -94 91q-39 23 -146 77t-169 115q-63 61 -91 123t-28 158q0 98 44 184t122 144q159 118 399 118q241 0 416 -80l-80 -352
h-197l37 170l-28 35q-66 16 -167 16q-102 0 -174 -44t-71 -122q0 -78 43 -117t191 -115q149 -75 237 -164t88 -210zM479 1528l-41 69l344 306h97l215 -306l-72 -69h-33l-196 153l-258 -153h-56z" />
    <glyph glyph-name="scircumflex" unicode="&#x15d;" horiz-adv-x="933" 
d="M301 1174l-41 69l344 305h96l215 -305l-71 -69h-33l-197 153l-258 -153h-55zM532 676q287 -100 287 -296t-138 -299t-351 -101q-146 0 -262 43q-53 18 -97 43l64 305h176l-29 -156l27 -37q64 -16 142 -16t126 37q47 37 47 95q0 57 -36 86t-157 68q-122 39 -177 117
q-56 78 -56 165q-1 258 280 347q91 29 204 29q175 0 327 -59l-61 -297h-176l22 133l-24 32q-39 11 -106 11q-68 0 -128 -28t-59 -84q0 -56 34 -82t121 -56z" />
    <glyph glyph-name="Scedilla" unicode="&#x15e;" horiz-adv-x="1128" 
d="M257 -266q73 0 73 53t-150 78l8 41l88 83l-57 9q-117 20 -223 70l76 364h196l-41 -186l31 -37q75 -17 167 -18q230 -2 270 128q24 80 1 125q-21 48 -94 91q-39 23 -146 77t-169 115q-63 61 -91 123t-28 158q0 98 44 184t122 144q159 118 399 118q241 0 416 -80l-80 -352
h-197l37 170l-28 35q-66 16 -167 16q-102 0 -174 -44t-71 -122q0 -78 43 -117t191 -115q149 -75 237 -164t88 -210q0 -347 -348 -458q-111 -34 -252 -33l-53 -54q78 0 122 -28t44 -82q0 -94 -91 -145q-68 -38 -162 -39q-162 -2 -233 59l60 86q69 -43 142 -43z" />
    <glyph glyph-name="scedilla" unicode="&#x15f;" horiz-adv-x="935" 
d="M211 178q64 -16 142 -16t126 37q47 37 47 95q0 57 -36 86t-157 68q-122 39 -177 117q-56 78 -56 165q-1 258 280 347q91 29 204 29q175 0 327 -59l-61 -297h-176l22 133l-24 32q-38 11 -106 11t-128 -28t-59 -84q0 -56 34 -82q33 -26 145 -64t188 -112t75 -180
q0 -192 -138 -295t-351 -101h-16l-54 -54q78 0 122 -28t44 -82q0 -94 -91 -145q-68 -38 -162 -39q-161 -2 -232 59l59 86q69 -43 143 -43t72 55q0 52 -149 76l8 41l94 89q-114 24 -197 71l64 305h176l-29 -156z" />
    <glyph glyph-name="Scaron" unicode="&#x160;" horiz-adv-x="1128" 
d="M1028 471q0 -347 -348 -458q-110 -33 -230 -33q-268 1 -454 88l76 364h196l-41 -186l31 -37q75 -17 167 -18q230 -2 270 128q24 80 1 125q-21 48 -94 91q-39 23 -146 77t-169 115q-63 61 -91 123t-28 158q0 98 44 184t122 144q159 118 399 118q241 0 416 -80l-80 -352
h-197l37 170l-28 35q-66 16 -167 16q-102 0 -174 -44t-71 -122q0 -78 43 -117t191 -115q149 -75 237 -164t88 -210zM815 1530h-96l-215 305l71 70h33l197 -154l258 154h55l41 -70z" />
    <glyph glyph-name="scaron" unicode="&#x161;" horiz-adv-x="933" 
d="M645 1182h-96l-215 305l72 69h32l197 -153l258 153h55l41 -69zM532 676q287 -100 287 -296t-138 -299t-351 -101q-146 0 -262 43q-53 18 -97 43l64 305h176l-29 -156l27 -37q64 -16 142 -16t126 37q47 37 47 95q0 57 -36 86t-157 68q-122 39 -177 117q-56 78 -56 165
q-1 258 280 347q91 29 204 29q175 0 327 -59l-61 -297h-176l22 133l-24 32q-39 11 -106 11q-68 0 -128 -28t-59 -84q0 -56 34 -82t121 -56z" />
    <glyph glyph-name="uni0162" unicode="&#x162;" horiz-adv-x="1208" 
d="M380 -266q73 0 73 53t-150 78l8 41l99 94h-242l39 174h108l43 37l211 1010h-170l-43 -37l-30 -162h-193l88 412h1114l-88 -412h-188l31 162l-27 37h-168l-211 -1010l29 -37h116l-38 -174h-220l-73 -74q78 0 122 -28t44 -82q0 -53 -26 -88q-69 -93 -255 -97
q-135 0 -205 60l60 86q69 -43 142 -43z" />
    <glyph glyph-name="uni0163" unicode="&#x163;" horiz-adv-x="727" 
d="M218 -266q73 0 73 53t-150 78l9 41l80 77q-87 11 -133 64t-15 199l143 665h-125l35 170h90l43 37l160 254h199l-62 -291h226l-35 -170h-226l-151 -710l31 -37h196l-35 -164q-73 -11 -179 -17l-56 -57q78 0 122 -28t44 -82q0 -94 -91 -145q-68 -38 -162 -39
q-162 -2 -233 59l60 86q69 -43 142 -43z" />
    <glyph glyph-name="Tcaron" unicode="&#x164;" horiz-adv-x="1208" 
d="M221 1434h1114l-88 -412h-188l31 162l-27 37h-168l-211 -1010l29 -37h116l-38 -174h-623l39 174h108l43 37l211 1010h-170l-43 -37l-30 -162h-193zM852 1530h-96l-215 305l71 70h33l197 -154l258 154h55l41 -70z" />
    <glyph glyph-name="tcaron" unicode="&#x165;" horiz-adv-x="727" 
d="M702 1192l86 405h224l-27 -124l-98 -281h-185zM103 40q-52 60 -21 206l143 665h-125l35 170h90l43 37l160 254h199l-62 -291h226l-35 -170h-226l-151 -710l31 -37h196l-35 -164q-137 -20 -276 -20t-192 60z" />
    <glyph glyph-name="Tbar" unicode="&#x166;" horiz-adv-x="1212" 
d="M221 1434h1114l-88 -412h-188l31 162l-27 37h-168l-90 -433h209l-33 -151h-209l-88 -426l29 -37h116l-38 -174h-623l39 174h108l43 37l88 426h-210l34 151h209l90 433h-170l-43 -37l-30 -162h-193z" />
    <glyph glyph-name="tbar" unicode="&#x167;" horiz-adv-x="731" 
d="M105.5 40q-52.5 60 -21.5 206l63 301h-104l29 139h106l49 225h-125l35 170h90l43 37l160 254h199l-62 -291h226l-35 -170h-226l-49 -225h222l-29 -139h-221l-74 -346l31 -37h196l-35 -164q-137 -20 -276 -20t-191.5 60z" />
    <glyph glyph-name="Utilde" unicode="&#x168;" horiz-adv-x="1370" 
d="M129 340q0 66 14 131l160 752l-29 37h-88l37 174h578l-37 -174h-90l-43 -37l-160 -756q-14 -77 -14 -127t44 -96q45 -47 125 -47q140 0 198 65q59 65 87 205l160 756l-29 37h-88l37 174h500l-37 -174h-90l-43 -37l-160 -752q-56 -256 -196 -375q-140 -118 -359 -117
t-348 88t-129 273zM1055 1550q-48 0 -143 37t-132 37t-55 -18l-18 -78h-129l18 84q27 119 71 167t126 48q44 -1 113 -29t107 -42t82 -13q44 0 50 29l14 67h125l-20 -92q-23 -101 -70 -149t-139 -48z" />
    <glyph glyph-name="utilde" unicode="&#x169;" horiz-adv-x="1206" 
d="M395 295q0 -84 92 -84q74 1 150 67q20 18 37 31l168 776h305l-193 -880l31 -41h90l-35 -164h-200q-96 0 -133 15q-71 29 -60 106l4 29h-8q-137 -170 -311 -170q-123 0 -188 66t-64 181q0 47 12 101l117 546l-31 37h-90l39 174h211q108 0 142 -22t44 -59t-4 -105
l-117 -543q-8 -32 -8 -61zM834 1408q38 -14 80 -13q42 0 53 28l14 68h125l-21 -92q-23 -102 -69 -150q-47 -47 -120 -47t-164 37t-130 37q-40 0 -55 -19l-19 -77h-129l19 84q27 119 70 167q44 48 126 48q35 1 71 -13t74 -29q37 -15 75 -29z" />
    <glyph glyph-name="Umacron" unicode="&#x16a;" horiz-adv-x="1370" 
d="M129 340q0 66 14 131l160 752l-29 37h-88l37 174h578l-37 -174h-90l-43 -37l-160 -756q-14 -77 -14 -127t44 -96q45 -47 125 -47q140 0 198 65q59 65 87 205l160 756l-29 37h-88l37 174h500l-37 -174h-90l-43 -37l-160 -752q-56 -256 -196 -375q-140 -118 -359 -117
t-348 88t-129 273zM702 1794h529l-39 -180h-528z" />
    <glyph glyph-name="umacron" unicode="&#x16b;" horiz-adv-x="1206" 
d="M395 295q0 -84 92 -84q74 1 150 67q20 18 37 31l168 776h305l-193 -880l31 -41h90l-35 -164h-200q-96 0 -133 15q-71 29 -60 106l4 29h-8q-137 -170 -311 -170q-123 0 -188 66t-64 181q0 47 12 101l117 546l-31 37h-90l39 174h211q108 0 142 -22t44 -59t-4 -105
l-117 -543q-8 -32 -8 -61zM506 1446h528l-39 -180h-528z" />
    <glyph glyph-name="Ubreve" unicode="&#x16c;" horiz-adv-x="1370" 
d="M129 340q0 66 14 131l160 752l-29 37h-88l37 174h578l-37 -174h-90l-43 -37l-160 -756q-14 -77 -14 -127t44 -96q45 -47 125 -47q140 0 198 65q59 65 87 205l160 756l-29 37h-88l37 174h500l-37 -174h-90l-43 -37l-160 -752q-56 -256 -196 -375q-140 -118 -359 -117
t-348 88t-129 273zM948 1724q59 0 100 31q40 31 60 70l125 -31q-56 -163 -200 -218q-50 -20 -108 -20q-110 -1 -165 68t-55 170l139 39q11 -109 104 -109z" />
    <glyph glyph-name="ubreve" unicode="&#x16d;" horiz-adv-x="1206" 
d="M395 295q0 -84 92 -84q74 1 150 67q20 18 37 31l168 776h305l-193 -880l31 -41h90l-35 -164h-200q-96 0 -133 15q-71 29 -60 106l4 29h-8q-137 -170 -311 -170q-123 0 -188 66t-64 181q0 47 12 101l117 546l-31 37h-90l39 174h211q108 0 142 -22t44 -59t-4 -105
l-117 -543q-8 -32 -8 -61zM755 1376q56 0 96 31t60 70l125 -31q-56 -164 -199 -218q-51 -20 -109 -20q-108 -1 -164 68t-56 170l139 39q4 -41 28 -75t80 -34z" />
    <glyph glyph-name="Uring" unicode="&#x16e;" horiz-adv-x="1370" 
d="M856 1671q0 -70 76 -69q110 0 108 108q0 35 -17 53t-60 19q-107 0 -107 -111zM998 1872q82 0 144 -42t62 -130t-86 -141q-71 -46 -185 -47q-113 -1 -177 38q-64 40 -64 104t22 103q65 115 284 115zM129 340q0 66 14 131l160 752l-29 37h-88l37 174h578l-37 -174h-90
l-43 -37l-160 -756q-14 -77 -14 -127t44 -96q45 -47 125 -47q140 0 198 65q59 65 87 205l160 756l-29 37h-88l37 174h500l-37 -174h-90l-43 -37l-160 -752q-56 -256 -196 -375q-140 -118 -359 -117t-348 88t-129 273z" />
    <glyph glyph-name="uring" unicode="&#x16f;" horiz-adv-x="1206" 
d="M662 1323q0 -70 75 -70q109 0 109 109q0 70 -78 72q-106 0 -106 -111zM498 1306q0 64 21 103q65 115 283 115q82 0 144 -42t64 -108q1 -108 -78 -158q-78 -51 -192 -52q-115 -1 -179 38q-63 40 -63 104zM395 295q0 -84 92 -84q74 1 150 67q20 18 37 31l168 776h305
l-193 -880l31 -41h90l-35 -164h-200q-96 0 -133 15q-71 29 -60 106l4 29h-8q-137 -170 -311 -170q-123 0 -188 66t-64 181q0 47 12 101l117 546l-31 37h-90l39 174h211q108 0 142 -22t44 -59t-4 -105l-117 -543q-8 -32 -8 -61z" />
    <glyph glyph-name="Uhungarumlaut" unicode="&#x170;" horiz-adv-x="1370" 
d="M1024 1530l-39 76l291 239h57l90 -139l-358 -176h-41zM743 1530l-51 82l299 284h58l86 -120l-353 -246h-39zM129 340q0 66 14 131l160 752l-29 37h-88l37 174h578l-37 -174h-90l-43 -37l-160 -756q-14 -77 -14 -127t44 -96q45 -47 125 -47q140 0 198 65q59 65 87 205
l160 756l-29 37h-88l37 174h500l-37 -174h-90l-43 -37l-160 -752q-56 -256 -196 -375q-140 -118 -359 -117t-348 88t-129 273z" />
    <glyph glyph-name="uhungarumlaut" unicode="&#x171;" horiz-adv-x="1206" 
d="M395 295q0 -84 92 -84q74 1 150 67q20 18 37 31l168 776h305l-193 -880l31 -41h90l-35 -164h-200q-96 0 -133 15q-71 29 -60 106l4 29h-8q-137 -170 -311 -170q-123 0 -188 66t-64 181q0 47 12 101l117 546l-31 37h-90l39 174h211q108 0 142 -22t44 -59t-4 -105
l-117 -543q-8 -32 -8 -61zM813 1182l-39 75l291 240h57l90 -139l-358 -176h-41zM541 1182l-60 82l299 284h58l86 -121l-344 -245h-39z" />
    <glyph glyph-name="Uogonek" unicode="&#x172;" horiz-adv-x="1370" 
d="M551 -369q-213 0 -213 150q0 72 50 120t126 83q-180 16 -282.5 103t-102.5 253q0 66 14 131l160 752l-29 37h-88l37 174h578l-37 -174h-90l-43 -37l-160 -756q-14 -77 -14 -127t44.5 -96.5t124.5 -46.5q139 0 197.5 66t87.5 204l160 756l-29 37h-88l37 174h500l-37 -174
h-90l-43 -37l-160 -752q-46 -206 -131.5 -309.5t-218.5 -151.5q-187 -63 -221.5 -108t-34.5 -85q0 -75 86 -75q29 0 65.5 12.5t51.5 22.5l22 -86q-94 -60 -229 -60z" />
    <glyph glyph-name="uogonek" unicode="&#x173;" horiz-adv-x="1204" 
d="M741 -176q0 -82 80 -82q35 0 72 12.5t51 22.5l23 -86q-94 -60 -230 -60q-213 0 -213 150q0 80 57.5 136t143.5 91q-94 23 -80 113l4 29h-8q-137 -170 -311 -170q-123 0 -187.5 66.5t-64.5 180.5q0 47 12 101l117 546l-31 37h-90l39 174h211q109 0 142.5 -22.5t43.5 -59
t-4 -104.5l-117 -543q-8 -32 -8 -61q0 -84 92 -84q72 0 121 42t66 56l168 776h305l-193 -880l31 -41h90l-35 -164h-65q-232 -45 -232 -176z" />
    <glyph glyph-name="Wcircumflex" unicode="&#x174;" horiz-adv-x="1939" 
d="M901 1528l-41 69l344 306h96l216 -306l-72 -69h-33l-197 153l-258 -153h-55zM221 1229l-24 31h-72l39 174h538l-38 -174h-72l-39 -33l49 -725l445 932h251l58 -932l350 721l-27 37h-82l39 174h478l-39 -174h-66l-39 -33l-612 -1231h-277l-65 835l-410 -835h-278z" />
    <glyph glyph-name="wcircumflex" unicode="&#x175;" horiz-adv-x="1579" 
d="M645 1174l-41 69l344 305h96l216 -305l-72 -69h-33l-197 153l-258 -153h-55zM268 1085q120 0 163 -75q19 -33 26 -90l41 -510l325 675h215l43 -686l240 475l-25 37h-63l37 174h182q106 0 126 -54t-19 -128l-478 -907h-229l-47 594l-293 -594h-238l-106 883l-25 32h-73
l36 174h162z" />
    <glyph glyph-name="Ycircumflex" unicode="&#x176;" horiz-adv-x="1253" 
d="M223 0l39 174h88l43 37l68 319l-246 695l-27 35h-75l37 174h546l-37 -174h-65l-37 -31l152 -428l297 426l-25 33h-68l37 174h473l-37 -174h-75l-39 -33l-471 -629l-82 -389l26 -35h93l-39 -174h-576zM590 1528l-41 69l344 306h96l215 -306l-71 -69h-33l-197 153
l-258 -153h-55z" />
    <glyph glyph-name="ycircumflex" unicode="&#x177;" horiz-adv-x="1140" 
d="M303 1085q81 0 113 -21q66 -42 82 -149l75 -538l283 497l-25 37h-53l39 174h182q102 0 132 -54q29 -54 -15 -132l-600 -1046l25 -37h86l-31 -164h-506l31 164h110l45 37l70 122l-156 902l-30 34h-92l38 174h197zM410 1174l-41 69l344 305h96l215 -305l-72 -69h-32
l-197 153l-258 -153h-55z" />
    <glyph glyph-name="Ydieresis" unicode="&#x178;" horiz-adv-x="1253" 
d="M223 0l39 174h88l43 37l68 319l-246 695l-27 35h-75l37 174h546l-37 -174h-65l-37 -31l152 -428l297 426l-25 33h-68l37 174h473l-37 -174h-75l-39 -33l-471 -629l-82 -389l26 -35h93l-39 -174h-576zM913 1707q0 52 46 99q47 47 111 47q64 1 95 -33t31 -87t-48 -99
t-112 -45q-64 0 -93 33q-30 33 -30 85zM567 1707q0 52 46 99q47 47 111 47q64 1 95 -33t31 -87t-48 -99t-112 -45q-64 0 -93 33q-30 33 -30 85z" />
    <glyph glyph-name="Zacute" unicode="&#x179;" horiz-adv-x="1222" 
d="M-55 0l37 176l858 1047h-383l-41 -33l-37 -166h-195l88 410h1014l-37 -177l-848 -1044h439l39 33l34 166h195l-88 -412h-1075zM793 1530l-66 94l322 272h57l104 -180l-372 -186h-45z" />
    <glyph glyph-name="zacute" unicode="&#x17a;" horiz-adv-x="1034" 
d="M899 1548l105 -180l-373 -186h-45l-66 94l322 272h57zM-63 0l28 135l666 770h-273l-39 -33l-28 -139h-195l74 352h881l-29 -135l-664 -770h299l39 33l29 139h195l-74 -352h-909z" />
    <glyph glyph-name="Zdotaccent" unicode="&#x17b;" horiz-adv-x="1222" 
d="M653 1662q0 87 60 144q60 56 137 57q78 1 117 -41t39 -109t-60 -123t-139 -56q-80 0 -117 41t-37 87zM-55 0l37 176l858 1047h-383l-41 -33l-37 -166h-195l88 410h1014l-37 -177l-848 -1044h439l39 33l34 166h195l-88 -412h-1075z" />
    <glyph glyph-name="zdotaccent" unicode="&#x17c;" horiz-adv-x="1034" 
d="M-63 0l28 135l666 770h-273l-39 -33l-28 -139h-195l74 352h881l-29 -135l-664 -770h299l39 33l29 139h195l-74 -352h-909zM626 1186q-80 0 -116 41t-37 87q0 88 59 144t138 57q78 1 116 -41t39 -109q0 -67 -59 -123q-60 -56 -140 -56z" />
    <glyph glyph-name="Zcaron" unicode="&#x17d;" horiz-adv-x="1222" 
d="M-55 0l37 176l858 1047h-383l-41 -33l-37 -166h-195l88 410h1014l-37 -177l-848 -1044h439l39 33l34 166h195l-88 -412h-1075zM846 1530h-96l-215 305l71 70h33l197 -154l258 154h55l41 -70z" />
    <glyph glyph-name="zcaron" unicode="&#x17e;" horiz-adv-x="1034" 
d="M670 1182h-97l-215 305l72 69h33l196 -153l259 153h55l41 -69zM-63 0l28 135l666 770h-273l-39 -33l-28 -139h-195l74 352h881l-29 -135l-664 -770h299l39 33l29 139h195l-74 -352h-909z" />
    <glyph glyph-name="longs" unicode="&#x17f;" horiz-adv-x="669" 
d="M152.5 -309q-152.5 -60 -250.5 -60q-144 0 -221 23l49 229h174l-19 -84l21 -26h2q95 0 137 213l176 925h-125l35 170h88l45 37l6 25q65 251 209 312t235 61q115 0 230 -23l-51 -240h-174l20 95l-20 26h-2q-95 0 -137 -213l-226 -1157q-49 -253 -201.5 -313z" />
    <glyph glyph-name="florin" unicode="&#x192;" horiz-adv-x="991" 
d="M615.5 1421q106.5 95 299.5 95q119 0 246 -23l-74 -233h-174l29 88l-20 26h-2q-90 0 -156 -209l-76 -250h219l-33 -149h-235l-238 -766q-57 -182 -162 -275.5t-313 -93.5q-154 0 -231 23l74 233h174l-29 -88l20 -26h3q90 0 155 209l242 784h-180l32 149h197l70 232
q56 179 162.5 274z" />
    <glyph glyph-name="uni0218" unicode="&#x218;" horiz-adv-x="1128" 
d="M424 -119q70 0 105 -34q36 -34 36 -91t-47 -116l-174 -226l-96 60l67 96l-6 51q-49 30 -49 93q0 64 47 116t117 51zM1028 471q0 -347 -348 -458q-110 -33 -230 -33q-268 1 -454 88l76 364h196l-41 -186l31 -37q75 -17 167 -18q230 -2 270 128q24 80 1 125q-21 48 -94 91
q-39 23 -146 77t-169 115q-63 61 -91 123t-28 158q0 98 44 184t122 144q159 118 399 118q241 0 416 -80l-80 -352h-197l37 170l-28 35q-66 16 -167 16q-102 0 -174 -44t-71 -122q0 -78 43 -117t191 -115q149 -75 237 -164t88 -210z" />
    <glyph glyph-name="uni0219" unicode="&#x219;" horiz-adv-x="933" 
d="M309 -119q69 0 105 -34t37 -91q0 -57 -48 -116l-174 -226l-96 60l68 96l-6 51q-48 29 -49 93q-2 64 46 116t117 51zM532 676q287 -100 287 -296t-138 -299t-351 -101q-146 0 -262 43q-53 18 -97 43l64 305h176l-29 -156l27 -37q64 -16 142 -16t126 37q47 37 47 95
q0 57 -36 86t-157 68q-122 39 -177 117q-56 78 -56 165q-1 258 280 347q91 29 204 29q175 0 327 -59l-61 -297h-176l22 133l-24 32q-39 11 -106 11q-68 0 -128 -28t-59 -84q0 -56 34 -82t121 -56z" />
    <glyph glyph-name="uni021A" unicode="&#x21a;" horiz-adv-x="1208" 
d="M436 -119q70 0 106 -34t36 -91t-48 -116l-174 -226l-96 60l68 96l-6 51q-50 29 -50 111q0 46 47 98t117 51zM221 1434h1114l-88 -412h-188l31 162l-27 37h-168l-211 -1010l29 -37h116l-38 -174h-623l39 174h108l43 37l211 1010h-170l-43 -37l-30 -162h-193z" />
    <glyph glyph-name="uni021B" unicode="&#x21b;" horiz-adv-x="727" 
d="M252 -119q70 0 105 -34q36 -34 36 -91t-47 -116l-174 -226l-96 60l67 96l-6 51q-49 30 -49 93q0 64 47 116t117 51zM103 40q-52 60 -21 206l143 665h-125l35 170h90l43 37l160 254h199l-62 -291h226l-35 -170h-226l-151 -710l31 -37h196l-35 -164q-137 -20 -276 -20
t-192 60z" />
    <glyph glyph-name="uni0237" unicode="&#x237;" horiz-adv-x="604" 
d="M201 -266q-107 -103 -304 -103q-150 0 -227 23l49 237h175l-19 -92l21 -26h4q48 0 83.5 66.5t55.5 162.5l184 872l-28 37h-91l39 174h338q56 0 68 -23t6 -67l-207 -975q-40 -183 -147 -286z" />
    <glyph glyph-name="circumflex" unicode="&#x2c6;" 
d="M258 1174l-41 69l344 305h96l215 -305l-71 -69h-33l-197 153l-258 -153h-55z" />
    <glyph glyph-name="caron" unicode="&#x2c7;" 
d="M539 1182h-97l-215 305l72 69h33l196 -153l258 153h56l41 -69z" />
    <glyph glyph-name="uni02C9" unicode="&#x2c9;" 
d="M295 1446h528l-39 -180h-528z" />
    <glyph glyph-name="breve" unicode="&#x2d8;" 
d="M436 1485q12 -109 108 -109q56 0 96 31t60 70l125 -31q-55 -163 -152.5 -200.5t-155.5 -37.5q-109 0 -164.5 69.5t-55.5 168.5z" />
    <glyph glyph-name="dotaccent" unicode="&#x2d9;" horiz-adv-x="471" 
d="M348 1314q0 86 60 144t138 58q77 0 115.5 -42t38.5 -109t-59 -123t-139 -56t-117 41t-37 87z" />
    <glyph glyph-name="ring" unicode="&#x2da;" 
d="M537 1434q-107 0 -107 -111q0 -70 76 -70q108 0 108 109q0 72 -77 72zM572 1524q82 0 144 -42t62 -130t-81 -138.5t-192 -50.5t-175 39.5t-64 103.5t21.5 103t60.5 64.5t90.5 38t133.5 12.5z" />
    <glyph glyph-name="ogonek" unicode="&#x2db;" 
d="M174 -369q-213 0 -213 150q0 132 158.5 208t357.5 91l-14 -72q-198 -26 -241.5 -85.5t-43.5 -102.5q0 -78 86 -78q29 0 66 12.5t51 22.5l22 -86q-94 -60 -229 -60z" />
    <glyph glyph-name="tilde" unicode="&#x2dc;" 
d="M623.5 1408q37.5 -13 79.5 -13t53 28l14 68h125l-21 -92q-23 -102 -69.5 -149.5t-138.5 -47.5q-48 0 -143 37t-133 37t-54 -19l-19 -77h-129l19 84q27 119 71 167t125 48q41 0 112 -29t108.5 -42z" />
    <glyph glyph-name="hungarumlaut" unicode="&#x2dd;" 
d="M520 1182l-39 75l291 240h57l91 -139l-359 -176h-41zM248 1182l-60 82l299 284h58l86 -121l-344 -245h-39z" />
    <glyph glyph-name="uni0394" unicode="&#x394;" horiz-adv-x="1394" 
d="M174 176h707l-158 993zM-45 145l762 1293h291l231 -1297l-31 -141h-1284z" />
    <glyph glyph-name="uni03A9" unicode="&#x3a9;" horiz-adv-x="1617" 
d="M874 367q120 65 195 272t77 404q2 198 -184 198q-92 0 -148 -31q-199 -110 -250 -495q-9 -76 -9 -142q0 -158 88 -211l-78 -362h-516l-53 338l190 59l37 -145l31 -35h215l10 51q-256 98 -256 391q0 360 208 578q208 217 534 217q263 0 392 -119q128 -119 128 -309
q0 -267 -127 -475q-127 -209 -361 -283l-12 -51h217l43 35l98 145l166 -59l-196 -338h-516z" />
    <glyph glyph-name="uni03BC" unicode="&#x3bc;" horiz-adv-x="1273" 
 />
    <glyph glyph-name="pi" unicode="&#x3c0;" horiz-adv-x="1230" 
d="M817 874l-29 37h-221l-43 -37l-186 -874h-305l186 874l-29 37h-90l37 174h1157l-37 -174h-92l-43 -37l-186 -874h-305z" />
    <glyph glyph-name="Wgrave" unicode="&#x1e80;" horiz-adv-x="1939" 
d="M1147 1530l-295 186l182 180h47l205 -272l-104 -94h-35zM221 1229l-24 31h-72l39 174h538l-38 -174h-72l-39 -33l49 -725l445 932h251l58 -932l350 721l-27 37h-82l39 174h478l-39 -174h-66l-39 -33l-612 -1231h-277l-65 835l-410 -835h-278z" />
    <glyph glyph-name="wgrave" unicode="&#x1e81;" horiz-adv-x="1579" 
d="M268 1085q120 0 163 -75q19 -33 26 -90l41 -510l325 675h215l43 -686l240 475l-25 37h-63l37 174h182q106 0 126 -54t-19 -128l-478 -907h-229l-47 594l-293 -594h-238l-106 883l-25 32h-73l36 174h162zM618 1368l183 180h47l205 -272l-105 -94h-35z" />
    <glyph glyph-name="Wacute" unicode="&#x1e82;" horiz-adv-x="1939" 
d="M1184 1530l-66 94l322 272h57l105 -180l-373 -186h-45zM221 1229l-24 31h-72l39 174h538l-38 -174h-72l-39 -33l49 -725l445 932h251l58 -932l350 721l-27 37h-82l39 174h478l-39 -174h-66l-39 -33l-612 -1231h-277l-65 835l-410 -835h-278z" />
    <glyph glyph-name="wacute" unicode="&#x1e83;" horiz-adv-x="1579" 
d="M1223 1548l104 -180l-373 -186h-45l-65 94l321 272h58zM268 1085q120 0 163 -75q19 -33 26 -90l41 -510l325 675h215l43 -686l240 475l-25 37h-63l37 174h182q106 0 126 -54t-19 -128l-478 -907h-229l-47 594l-293 -594h-238l-106 883l-25 32h-73l36 174h162z" />
    <glyph glyph-name="Wdieresis" unicode="&#x1e84;" horiz-adv-x="1939" 
d="M221 1229l-24 31h-72l39 174h538l-38 -174h-72l-39 -33l49 -725l445 932h251l58 -932l350 721l-27 37h-82l39 174h478l-39 -174h-66l-39 -33l-612 -1231h-277l-65 835l-410 -835h-278zM1255 1707q1 52 47 99t110 47q64 1 95 -33t31 -87t-48 -99t-112 -45q-64 0 -93 33
q-30 33 -30 85zM909 1707q0 52 46 99q47 47 111 47q64 1 95 -33t31 -87t-48 -99t-112 -45q-64 0 -93 33q-30 33 -30 85z" />
    <glyph glyph-name="wdieresis" unicode="&#x1e85;" horiz-adv-x="1579" 
d="M1001 1359q1 52 47 99t110 47t95 -34q31 -35 31 -87t-48 -98t-112 -45q-64 0 -93 33q-30 33 -30 85zM655 1359q0 52 46 99q47 47 111 47t95 -34q31 -35 31 -87t-48 -98t-112 -45q-64 0 -93 33q-30 33 -30 85zM268 1085q120 0 163 -75q19 -33 26 -90l41 -510l325 675h215
l43 -686l240 475l-25 37h-63l37 174h182q106 0 126 -54t-19 -128l-478 -907h-229l-47 594l-293 -594h-238l-106 883l-25 32h-73l36 174h162z" />
    <glyph glyph-name="Ygrave" unicode="&#x1ef2;" horiz-adv-x="1253" 
d="M223 0l39 174h88l43 37l68 319l-246 695l-27 35h-75l37 174h546l-37 -174h-65l-37 -31l152 -428l297 426l-25 33h-68l37 174h473l-37 -174h-75l-39 -33l-471 -629l-82 -389l26 -35h93l-39 -174h-576zM805 1530l-295 186l182 180h47l205 -272l-104 -94h-35z" />
    <glyph glyph-name="ygrave" unicode="&#x1ef3;" horiz-adv-x="1140" 
d="M303 1085q81 0 113 -21q66 -42 82 -149l75 -538l283 497l-25 37h-53l39 174h182q102 0 132 -54q29 -54 -15 -132l-600 -1046l25 -37h86l-31 -164h-506l31 164h110l45 37l70 122l-156 902l-30 34h-92l38 174h197zM342 1368l182 180h47l205 -272l-104 -94h-35z" />
    <glyph glyph-name="endash" unicode="&#x2013;" horiz-adv-x="1159" 
d="M160 768h899l-47 -215h-899z" />
    <glyph glyph-name="emdash" unicode="&#x2014;" horiz-adv-x="1738" 
d="M160 768h1478l-47 -215h-1478z" />
    <glyph glyph-name="quoteleft" unicode="&#x2018;" horiz-adv-x="501" 
d="M455 1182q53 -35 53 -112t-54 -134t-134 -57t-122 40t-42 103t57 133l227 299l113 -70l-107 -147z" />
    <glyph glyph-name="quoteright" unicode="&#x2019;" horiz-adv-x="495" 
d="M276 1151q-53 35 -53 110t54 134t134 59q81 0 123 -40t41 -103t-57 -133l-227 -299l-113 69l107 148z" />
    <glyph glyph-name="quotesinglbase" unicode="&#x201a;" horiz-adv-x="520" 
d="M41 6q-53 35 -53 111t54 134t134 58t122 -40t42 -103t-57 -133l-228 -299l-112 69l106 148z" />
    <glyph glyph-name="quotedblleft" unicode="&#x201c;" horiz-adv-x="894" 
d="M455 1182q53 -35 53 -112t-54 -134t-134 -57t-122 40t-42 103t57 133l227 299l113 -70l-107 -147zM848 1182q53 -35 53 -112t-54 -134t-134 -57t-122 40t-42 103t57 133l228 299l112 -70l-106 -147z" />
    <glyph glyph-name="quotedblright" unicode="&#x201d;" horiz-adv-x="886" 
d="M276 1151q-53 35 -53 110t54 134t134 59q81 0 123 -40t41 -103t-57 -133l-227 -299l-113 69l107 148zM668 1151q-54 36 -54 111t54 133q54 59 135 59q80 0 122 -40t42 -103t-58 -133l-227 -299l-113 69l107 148z" />
    <glyph glyph-name="quotedblbase" unicode="&#x201e;" horiz-adv-x="911" 
d="M41 6q-53 35 -53 111t54 134t134 58t122 -40t42 -103t-57 -133l-228 -299l-112 69l106 148zM432 6q-53 35 -53 111t54 134t134 58t122 -40t42 -103t-57 -133l-228 -299l-112 69l106 148z" />
    <glyph glyph-name="dagger" unicode="&#x2020;" horiz-adv-x="960" 
d="M162 1100l231 -47h107l14 381h291l-154 -381h99l251 47l-51 -246l-239 49h-80l16 -207l-229 -696h-127l65 696l105 207h-86l-264 -49z" />
    <glyph glyph-name="daggerdbl" unicode="&#x2021;" horiz-adv-x="1028" 
d="M86 580l242 -50h86l-21 187l101 186h-86l-263 -49l52 246l231 -47h107l12 381h291l-152 -381h98l252 47l-51 -246l-242 49h-75l16 -186l-96 -187h76l262 50l-52 -246l-231 47h-98l-13 -381h-290l151 381h-106l-252 -47z" />
    <glyph glyph-name="bullet" unicode="&#x2022;" horiz-adv-x="782" 
d="M243 988q0 70 23 122q47 108 163 157q57 25 141 25t142 -64q58 -63 59 -146q0 -117 -89 -201t-230 -84q-98 0 -154 61q-55 61 -55 130z" />
    <glyph glyph-name="ellipsis" unicode="&#x2026;" horiz-adv-x="1398" 
d="M1221 158q1 -66 -59 -122t-140 -56t-117 41t-37 87t16 80q54 120 202 121q56 0 96 -42q39 -43 39 -109zM140 -20q-80 0 -118 41q-36 41 -36 87q0 86 60 144q60 57 137 57q79 0 117 -42q38 -43 38 -109t-59 -122t-139 -56zM582 -20q-80 0 -118 41q-36 41 -36 87
q0 86 60 144q60 57 137 57q79 0 117 -42q38 -43 38 -109t-59 -122t-139 -56z" />
    <glyph glyph-name="perthousand" unicode="&#x2030;" horiz-adv-x="2140" 
d="M520 1448q96 0 159 -64q62 -64 62 -172q0 -203 -98 -328q-98 -124 -246 -124q-117 0 -179 64t-62 170q0 306 202 418q66 36 162 36zM344 995q0 -100 59 -100q68 1 110 109t42 206t-59 99q-98 0 -142 -216q-10 -55 -10 -98zM1150 678q96 0 158 -64t62 -172
q0 -110 -26 -189q-51 -159 -180 -229q-62 -34 -138 -34q-117 0 -179 64q-63 64 -63 170t24 185t69 138t111 95t162 36zM973 225q0 -100 59 -100q68 1 110 109t42 206t-60 99q-97 0 -141 -216q-10 -55 -10 -98zM1809 678q97 0 159 -64t62 -172q0 -202 -99 -327t-245 -125
q-117 0 -180 64q-62 64 -62 170q0 307 203 418q66 36 162 36zM1632 225q0 -100 60 -100q67 1 109 109t42 206t-59 99q-98 0 -142 -216q-10 -55 -10 -98zM1198 1434h148l-1016 -1434h-148z" />
    <glyph glyph-name="guilsinglleft" unicode="&#x2039;" horiz-adv-x="630" 
d="M59 580l400 368h166l-328 -430l137 -424h-145l-252 381z" />
    <glyph glyph-name="guilsinglright" unicode="&#x203a;" horiz-adv-x="630" 
d="M530 463l-399 -369h-166l328 430l-137 424h145l252 -381z" />
    <glyph glyph-name="fraction" unicode="&#x2044;" horiz-adv-x="184" 
d="M549 1434h147l-1015 -1434h-148z" />
    <glyph glyph-name="zero.superior" unicode="&#x2070;" horiz-adv-x="667" 
d="M566 1714q96 0 158 -64t62 -172q0 -203 -98 -328q-98 -124 -246 -124q-117 0 -179 65t-62 170q1 306 203 417q66 36 162 36zM389 1262q0 -100 60 -101q67 1 109 109t42 206t-59 99q-98 0 -142 -216q-10 -54 -10 -97z" />
    <glyph glyph-name="four.superior" unicode="&#x2074;" horiz-adv-x="618" 
d="M453 1321l39 184l-170 -184h131zM172 1309l371 397h182l-82 -385h74l-25 -107h-74l-12 -63l12 -16h58l-21 -99h-350l21 99h69l21 16l12 63h-276z" />
    <glyph glyph-name="five.superior" unicode="&#x2075;" horiz-adv-x="587" 
d="M426 1458q248 0 248 -184q0 -89 -82 -168q-82 -80 -244 -80q-85 0 -139 23q-31 8 -53 22l37 170h122l-10 -53l19 -19q20 -8 62 -8t64 32q22 33 22 65q-1 61 -107 61h-144l80 381h436l-49 -225h-123l15 57l-17 18h-151l-19 -92h33z" />
    <glyph glyph-name="six.superior" unicode="&#x2076;" horiz-adv-x="610" 
d="M461 1323q-45 0 -80 -23q-6 -46 -6 -78t11 -52t49 -21q38 0 59 34q20 34 20 77q0 63 -53 63zM518 1446q182 0 182 -170q0 -105 -80 -178q-80 -72 -191 -72t-176 50t-65 167q0 59 21 139q45 179 195 277q79 51 173 51t168 -22l-36 -172h-107l10 53l-10 16q-16 4 -39 4
q-52 0 -92 -49t-68 -131q57 37 115 37z" />
    <glyph glyph-name="seven.superior" unicode="&#x2077;" horiz-adv-x="550" 
d="M743 1700l-18 -105l-324 -559h-204l360 514h-180l-23 -18l-12 -57h-125l49 225h477z" />
    <glyph glyph-name="eight.superior" unicode="&#x2078;" horiz-adv-x="610" 
d="M579 1518q2 75 -78 75q-79 0 -79 -57q0 -23 27 -42t67 -40l33 -16q29 39 30 80zM334 1214q0 -28 17 -50t63 -21q94 0 94 74q0 16 -14 31t-62 38l-55 27q-43 -38 -43 -99zM319 1348q-65 56 -65 146t73 153t188 63q116 0 167 -45t51 -103t-36 -100t-83 -67q82 -64 81 -149
q-1 -84 -73 -152t-210 -68t-190 47t-52 109q0 125 149 166z" />
    <glyph glyph-name="nine.superior" unicode="&#x2079;" horiz-adv-x="612" 
d="M467 1413q45 0 80 23q6 46 6 78t-11 52t-49 21q-39 0 -59 -34t-20 -76q0 -64 53 -64zM410 1290q-181 0 -183 170q0 107 80 178q80 72 192 72q111 0 176 -50t64 -167q0 -159 -89 -292q-115 -175 -324 -175q-71 0 -144 23l37 172h107l-11 -54l11 -16q16 -4 38 -4t59 19
q38 19 63 70q26 52 36 85q-48 -31 -112 -31z" />
    <glyph glyph-name="parenleft.superior" unicode="&#x207d;" horiz-adv-x="389" 
d="M354 1217q0 -131 86 -236l-47 -49q-205 132 -207 313q0 31 7 68l20 96q29 129 125 222t237 163l27 -49q-98 -72 -146 -155t-71 -181l-20 -96q-11 -69 -11 -96z" />
    <glyph glyph-name="parenright.superior" unicode="&#x207e;" horiz-adv-x="387" 
d="M516 1481q0 -31 -6 -68l-21 -96q-29 -129 -125 -222t-237 -163l-27 49q98 72 147 155q48 83 70 181l21 96q10 62 10 96q0 131 -86 236l47 49q207 -133 207 -313z" />
    <glyph glyph-name="zero.inferior" unicode="&#x2080;" horiz-adv-x="669" 
d="M291 412q97 0 159 -64t62 -172q0 -199 -97 -327q-101 -127 -247 -125q-117 0 -179 64q-63 64 -63 170q-1 197 96 325q96 129 269 129zM115 -41q0 -100 59 -100q67 0 114 118q35 91 37 193q1 102 -59 102q-98 0 -141 -216q-10 -54 -10 -97z" />
    <glyph glyph-name="one.inferior" unicode="&#x2081;" horiz-adv-x="475" 
d="M80 346q32 0 62 18t40 39h117l-119 -555l15 -16h77l-22 -98h-381l22 98h76l19 16l82 383l-13 17h-75l20 98h80z" />
    <glyph glyph-name="two.inferior" unicode="&#x2082;" horiz-adv-x="593" 
d="M442 244q0 -79 -52 -136t-168 -121q-115 -64 -123 -77t-13 -39h158l16 16l16 70h121l-49 -223h-479l27 121q15 79 59 123t138 98q93 53 123 81t30 61q0 34 -12 48t-44 14q-34 0 -57 -8l-18 -16l-15 -57h-125l35 163q112 44 199 45q86 1 125 -13q108 -36 108 -150z" />
    <glyph glyph-name="three.inferior" unicode="&#x2083;" horiz-adv-x="571" 
d="M426 254q0 -139 -137 -180v-6q88 -31 88 -122t-70 -156q-70 -66 -209 -66q-131 0 -223 38l35 166h125l-15 -59l15 -16q11 -11 59 -11t73 34q26 34 26 81q0 61 -58 61h-86l23 113h86q38 0 60 28t22 74q0 52 -60 54q-32 0 -47 -6l-20 -17l-15 -57h-123l35 166
q350 90 406 -61q10 -28 10 -58z" />
    <glyph glyph-name="four.inferior" unicode="&#x2084;" horiz-adv-x="620" 
d="M178 18l39 185l-170 -185h131zM-102 6l370 397h183l-82 -385h73l-24 -106h-74l-12 -64l12 -16h57l-20 -98h-350l20 98h70l20 16l13 64h-277z" />
    <glyph glyph-name="five.inferior" unicode="&#x2085;" horiz-adv-x="585" 
d="M150 156q249 0 247 -185q0 -91 -73 -160q-91 -89 -252 -87q-81 0 -140 22q-31 8 -53 23l37 170h123l-10 -54l18 -18q20 -8 62 -8q42 -1 64 31t22 65q0 61 -107 61h-143l80 381h436l-49 -225h-123l14 57l-16 19h-152l-18 -92h33z" />
    <glyph glyph-name="six.inferior" unicode="&#x2086;" horiz-adv-x="612" 
d="M186 20q-45 0 -80 -22q-6 -47 -6 -79t12 -52q12 -21 49 -21q38 0 58 34t21 77q-1 63 -54 63zM244 143q182 0 182 -170q0 -105 -80 -177t-191 -72q-112 0 -177 50t-64 167q0 160 89 291q115 174 325 176q65 0 143 -23l-37 -172h-106l10 53l-10 17q-16 4 -39 4
q-23 1 -49 -15q-69 -40 -111 -166q57 37 115 37z" />
    <glyph glyph-name="seven.inferior" unicode="&#x2087;" horiz-adv-x="550" 
d="M469 397l-18 -104l-324 -559h-205l361 514h-181l-22 -19l-12 -57h-125l49 225h477z" />
    <glyph glyph-name="eight.inferior" unicode="&#x2088;" horiz-adv-x="612" 
d="M305 227q0 62 -76 64q-47 1 -64 -17q-43 -44 9 -83q27 -19 68 -39l32 -17q31 41 31 92zM139 -160q96 0 94 74q0 16 -14 32t-61 38l-56 26q-41 -36 -42 -82q-2 -44 16 -66t63 -22zM45 45q-65 56 -65 145t72 153q72 63 188 64q117 1 168 -45t51 -103q0 -58 -36 -100
t-83 -67q80 -63 80 -148t-72 -153q-72 -67 -210 -67t-190 47t-52 99q0 115 105 161q26 10 44 14z" />
    <glyph glyph-name="nine.inferior" unicode="&#x2089;" horiz-adv-x="612" 
d="M193 111q45 0 79 22q13 100 -1 126q-15 25 -53 25t-58 -33q-20 -34 -21 -77q1 -63 54 -63zM135 -12q-182 0 -182 170q0 107 79 177q79 71 191 72q242 2 242 -217q-1 -59 -21 -139q-20 -81 -68 -153q-116 -174 -325 -174q-68 0 -143 22l37 172h106l-10 -53l10 -17
q16 -4 38 -4t59 20q57 30 100 154q-47 -30 -113 -30z" />
    <glyph glyph-name="parenleft.inferior" unicode="&#x208d;" horiz-adv-x="387" 
d="M-90 -57q0 31 6 67l21 96q29 129 124 223q96 93 238 163l27 -50q-98 -72 -146 -154t-71 -182l-21 -96q-10 -62 -10 -96q0 -131 86 -236l-47 -49q-92 59 -150 135q-57 76 -57 179z" />
    <glyph glyph-name="parenright.inferior" unicode="&#x208e;" horiz-adv-x="387" 
d="M74 207q0 131 -86 235l47 50q205 -132 207 -314q0 -31 -6 -67l-21 -97q-29 -129 -125 -222t-237 -163l-27 49q98 72 146 155t71 181l20 97q11 69 11 96z" />
    <glyph glyph-name="franc" unicode="&#x20a3;" horiz-adv-x="1282" 
d="M594 731l-21 -96h320l-33 -150h-319l-58 -274l27 -37h131l-39 -174h-614l39 174h88l43 37l57 274h-123l33 150h121l20 96h-125l33 150h125l72 342l-29 37h-88l39 174h1104l-86 -404h-183l35 160l-28 35h-435l-73 -344h315l-33 -150h-315z" />
    <glyph glyph-name="lira" unicode="&#x20a4;" horiz-adv-x="1257" 
d="M641 1412q98 42 251 42t288 -41q66 -18 116 -41l-67 -319h-187l35 147l-22 25q-79 26 -145 26q-127 0 -190.5 -60t-94.5 -220l-19 -90h271l-33 -150h-271l-20 -96h274l-32 -150h-273q-25 -99 -54.5 -157t-66.5 -111h457l41 35l39 180h180l-92 -432h-1059l33 150h88l43 36
l64 299h-123l32 150h123l21 96h-127l33 150h125l20 90q41 203 142.5 301t199.5 140z" />
    <glyph glyph-name="peseta" unicode="&#x20a7;" horiz-adv-x="2904" 
d="M713 713q129 0 209 78t79 245q0 94 -45 146t-153 51h-127l-111 -520h148zM846 1434q227 0 359 -96t132 -289q0 -267 -178 -402t-485 -135h-152l-63 -301l26 -37h115l-39 -174h-598l39 174h88l43 37l213 1012l-29 37h-88l39 174h578zM2488 676q287 -100 287 -296
t-138 -299t-351 -101q-144 0 -263 43q-53 18 -96 43l64 305h176l-29 -156l27 -37q64 -16 142 -16t126 37q47 37 47 95q0 57 -36 86t-157 68q-122 39 -178 117q-55 78 -55 165q0 259 280 347q91 29 204 29q175 0 327 -59l-61 -297h-176l22 133l-24 32q-38 11 -107 11
q-68 0 -127 -28t-59 -84q-1 -56 33 -82t122 -56zM1375 40q-52 60 -21 206l143 665h-125l35 170h90l43 37l160 254h198l-61 -291h225l-34 -170h-226l-151 -710l30 -37h197l-35 -164q-137 -20 -276 -20t-192 60z" />
    <glyph glyph-name="Euro" unicode="&#x20ac;" horiz-adv-x="1363" 
d="M221 518h-176l31 150h151q4 27 7.5 51t7.5 49h-148l31 150h156q92 262 301 399t501 137q178 0 324 -57l-72 -334h-186l31 145l-27 35q-46 8 -106 8q-145 0 -263 -80.5t-176 -252.5h361l-31 -150h-367q-4 -28 -10 -100h359l-31 -150h-334q4 -150 72.5 -236.5t226.5 -86.5
h38q38 0 62 4l45 37l33 155h187l-72 -342q-163 -69 -371 -69q-257 0 -406 145.5t-149 392.5z" />
    <glyph glyph-name="uni2113" unicode="&#x2113;" horiz-adv-x="952" 
d="M770 1237q0 66 -45 66q-80 0 -129 -236l-53 -248q227 270 227 418zM457 -20q-135 0 -215 39.5t-84 138.5v18q0 17 2 29l-109 -88l-92 141q119 104 258 229l129 615q38 186 152 282.5t249 96.5q134 0 206.5 -63.5t72.5 -187.5q0 -248 -557 -753l-45 -213q-2 -10 -2 -36
q0 -50 105 -50t206 45l25 -164q-87 -49 -178 -64t-123 -15z" />
    <glyph glyph-name="trademark" unicode="&#x2122;" horiz-adv-x="1839" 
d="M1247 901v-108h-315v108h61l17 17v391l-17 16h-61v109h297l135 -297l127 297h295v-109h-62l-16 -16v-391l16 -17h62v-108h-344v108h61l17 17v274l-95 -223h-163l-93 211v-262l17 -17h61zM272 1434h580v-228h-102v72l-17 16h-76v-376l15 -17h71v-108h-364v108h72l16 17
v376h-76l-16 -16v-72h-103v228z" />
    <glyph glyph-name="Omega" unicode="&#x2126;" horiz-adv-x="1617" 
d="M1147 1036q1 205 -185 205q-92 0 -148 -30.5t-119 -107.5t-101.5 -230.5t-38.5 -305.5t88 -205l-78 -362h-516l-53 338l190 59l37 -145l31 -35h215l10 51q-256 98 -256 391q0 363 208 579t534 216q266 0 393 -119t127 -309q0 -268 -128.5 -476.5t-359.5 -281.5l-12 -51
h217l43 35l98 145l166 -59l-196 -338h-516l77 367q120 65 196.5 275t76.5 394z" />
    <glyph glyph-name="estimated" unicode="&#x212e;" horiz-adv-x="1619" 
d="M119 714.5q0 153.5 58.5 288t158.5 233.5t233 155.5t281 56.5t277.5 -55.5t228 -150.5t160 -223t71.5 -271v-5l-65 -79h-1045l-18 -27v-354q68 -104 175 -160.5t236 -56.5q283 0 447 217h149q-232 -303 -596 -303q-314 0 -474 157.5t-218.5 290.5t-58.5 286.5zM852 1362
q-250 0 -393 -166v-420l18 -26h733l21 26v420q-63 78 -162.5 122t-216.5 44z" />
    <glyph glyph-name="uni2153" unicode="&#x2153;" horiz-adv-x="1271" 
d="M319 1382q33 0 63 18t40 40h117l-119 -555l14 -17h78l-23 -98h-380l22 98h76l18 17l82 383l-12 16h-76l21 98h79zM1073 1434h148l-1016 -1434h-148zM1171 520q0 -138 -137 -180v-6q88 -31 88 -121q0 -149 -150 -204q-52 -19 -134 -19q-133 0 -217 39l34 166h125l-14 -60
l14 -16q10 -10 58 -10q48 -1 74 33t26 81q0 61 -57 62h-86l22 112h86q37 0 60 28t22 75q0 53 -59 53q-35 0 -47 -6l-21 -17l-14 -57h-123l35 166q136 35 205 35q210 0 210 -154z" />
    <glyph glyph-name="uni2154" unicode="&#x2154;" horiz-adv-x="1351" 
d="M448 1444q84 0 123 -13q109 -36 109 -133t-54 -156q-54 -58 -168 -120q-115 -62 -122 -76q-8 -14 -12 -39h157l17 17l16 69h121l-49 -223h-480l27 121q15 80 59 123t138 97t124 82q30 27 30 61t-12 48q-11 14 -45 15q-34 0 -56 -8l-19 -17l-14 -57h-125l35 164
q116 45 200 45zM1153 1434h147l-1015 -1434h-148zM1251 520q0 -138 -137 -180v-6q88 -31 88 -121q0 -149 -150 -204q-52 -19 -134 -19q-131 0 -218 39l35 166h125l-14 -60l14 -16q10 -10 58 -10q48 -1 74 33t26 81q0 61 -57 62h-87l23 112h86q37 0 59 28t23 75q0 53 -59 53
q-33 0 -48 -6l-20 -17l-14 -57h-123l35 166q136 35 205 35q210 0 210 -154z" />
    <glyph glyph-name="uni2155" unicode="&#x2155;" horiz-adv-x="1273" 
d="M1071 1434h148l-1016 -1434h-148zM317 1382q33 0 63 18t40 40h117l-119 -555l14 -17h78l-23 -98h-381l23 98h76l18 17l82 383l-12 16h-76l21 98h79zM881 422q249 0 247 -184q0 -90 -82 -170t-243 -78q-82 0 -139 22q-31 8 -54 23l37 170h123l-10 -53l18 -19q20 -8 62 -8
t64 32q22 33 22 65q0 59 -107 61h-143l80 381h436l-49 -226h-123l14 58l-16 18h-152l-18 -92h33z" />
    <glyph glyph-name="uni2156" unicode="&#x2156;" horiz-adv-x="1353" 
d="M446 1444q84 0 123 -13q109 -36 109 -133t-54 -156q-54 -58 -168 -120q-115 -62 -122 -76q-8 -14 -12 -39h157l17 17l16 69h121l-49 -223h-480l27 121q15 80 59 123t138 97t124 82q30 27 30 61t-12 48q-11 14 -45 15q-34 0 -56 -8l-19 -17l-14 -57h-125l35 164
q116 45 200 45zM1151 1434h147l-1015 -1434h-148zM961 422q249 0 247 -184q0 -90 -82 -170t-243 -78q-81 0 -140 22q-31 8 -53 23l37 170h123l-10 -53l18 -19q20 -8 62 -8t64 32q22 33 22 65q0 59 -107 61h-143l80 381h436l-49 -226h-123l14 58l-16 18h-152l-18 -92h33z" />
    <glyph glyph-name="uni2157" unicode="&#x2157;" horiz-adv-x="1341" 
d="M1139 1434h147l-1016 -1434h-147zM948 422q248 0 248 -184q0 -91 -74 -161q-91 -89 -252 -87q-80 0 -139 22q-31 8 -53 23l37 170h123l-11 -53l19 -19q20 -8 62 -8t64 32q22 33 22 65t-27 46t-80 15h-144l80 381h437l-50 -226h-123l15 58l-17 18h-151l-19 -92h33z
M612 983q0 -149 -150 -204q-52 -19 -134 -19q-133 0 -217 39l34 166h125l-14 -60l14 -16q10 -10 58 -10q48 -1 74 33t26 81q0 61 -57 62h-86l22 112h86q37 0 60 28t22 75q0 53 -59 53q-35 0 -47 -6l-21 -17l-14 -57h-123l35 166q136 35 219 35q192 0 197 -154
q0 -137 -138 -180v-6q88 -31 88 -121z" />
    <glyph glyph-name="uni2158" unicode="&#x2158;" horiz-adv-x="1429" 
d="M426 1055l39 184l-170 -184h131zM145 1042l371 398h182l-82 -385h74l-24 -107h-74l-12 -63l12 -17h57l-20 -98h-350l20 98h70l20 17l12 63h-276zM1217 1434h147l-1016 -1434h-147zM1026 422q248 0 248 -184q0 -89 -83 -169t-243 -79q-82 0 -139 22q-31 8 -53 23l37 170
h122l-10 -53l19 -19q20 -8 62 -8t64 32q22 33 22 65q-1 59 -107 61h-144l80 381h436l-49 -226h-123l15 58l-17 18h-151l-19 -92h33z" />
    <glyph glyph-name="uni2159" unicode="&#x2159;" horiz-adv-x="1273" 
d="M889 287q-45 0 -80 -23q-6 -46 -6 -78t11 -52t49 -21q38 0 59 33q20 34 20 77q0 64 -53 64zM946 410q182 0 182 -170q0 -106 -79 -178t-191 -72t-177 50t-65 167q0 59 21 139q45 179 196 277q79 51 173 51t168 -23l-37 -172h-107l10 53l-10 17q-16 4 -38 4q-52 0 -93 -48
q-40 -48 -68 -132q57 37 115 37zM322 1382q32 0 62 18t40 40h117l-119 -555l14 -17h78l-22 -98h-381l22 98h76l18 17l82 383l-12 16h-76l21 98h80zM1075 1434h148l-1016 -1434h-148z" />
    <glyph glyph-name="uni215A" unicode="&#x215a;" horiz-adv-x="1337" 
d="M952 287q-45 0 -80 -23q-6 -46 -6 -78t12 -52t49 -21q38 -1 58 33t21 77q-1 64 -54 64zM1010 410q182 0 182 -170q0 -106 -80 -178t-191 -72q-112 0 -177 50t-64 167q0 159 89 292q115 175 325 175q70 0 143 -23l-37 -172h-106l10 53l-10 17q-16 4 -39 4t-49 -15
q-55 -31 -85 -100q-15 -33 -26 -65q57 37 115 37zM385 1192q248 0 248 -184q0 -89 -83 -169t-243 -79q-82 0 -139 22q-31 8 -53 23l37 170h122l-10 -53l19 -19q20 -8 62 -8t64 32q21 33 21 65q-1 59 -106 61h-144l80 381h436l-49 -226h-123l15 58l-17 18h-151l-19 -92h33z
M1139 1434h147l-1016 -1434h-147z" />
    <glyph glyph-name="uni215B" unicode="&#x215b;" horiz-adv-x="1292" 
d="M1077 1434h148l-1016 -1434h-148zM324 1382q32 0 62 18t40 40h117l-119 -555l14 -17h78l-22 -98h-381l22 98h76l18 17l82 383l-12 16h-76l21 98h80zM1030 483q0 74 -78 74t-80 -55q0 -25 27 -44t68 -40l32 -17q31 42 31 82zM864 106q96 0 94 74q0 16 -14 32t-61 38
l-56 26q-41 -36 -42 -82q-1 -44 17 -66t62 -22zM770 311q-65 56 -65 146t72 153q72 62 188 63q117 1 168 -45t51 -103q0 -58 -36 -100t-83 -67q80 -63 80 -148t-72 -153q-72 -67 -210 -67t-190 47t-52 99q0 115 105 161q26 10 44 14z" />
    <glyph glyph-name="uni215C" unicode="&#x215c;" horiz-adv-x="1359" 
d="M1145 1434h147l-1016 -1434h-147zM1098 483q0 74 -79 74t-79 -57q0 -23 27 -42t67 -40l33 -17q31 42 31 82zM852 178q0 -28 17 -50t63 -22q96 0 94 74q0 16 -14 32t-62 38l-55 26q-43 -38 -43 -98zM1251 525q0 -58 -36 -100t-82 -67q81 -63 80 -148t-73 -153
q-72 -67 -209 -67q-138 0 -191 47q-52 47 -52 99q0 142 150 175q-64 55 -65 145t71 153t189 64q116 1 167 -45t51 -103zM618 983q0 -149 -150 -204q-52 -19 -134 -19q-133 0 -217 39l35 166h124l-14 -60l14 -16q10 -10 58 -10q48 -1 75 33q26 34 25 81q0 61 -57 62h-86
l22 112h86q37 0 60 28t22 75q0 53 -59 53q-35 0 -47 -6l-21 -17l-14 -57h-123l35 166q136 35 219 35q192 0 197 -154q0 -137 -138 -180v-6q88 -31 88 -121z" />
    <glyph glyph-name="uni215D" unicode="&#x215d;" horiz-adv-x="1355" 
d="M387 1192q248 0 248 -184q0 -89 -83 -169t-243 -79q-82 0 -139 22q-31 8 -53 23l37 170h122l-10 -53l19 -19q20 -8 62 -8t64 32q21 33 21 65t-26 46q-27 14 -80 15h-144l80 381h436l-49 -226h-123l15 58l-17 18h-151l-19 -92h33zM1141 1434h147l-1016 -1434h-147z
M1093 481q2 76 -78 76q-79 0 -79 -57q0 -23 27 -42t67 -40l33 -17q29 38 30 80zM848 178q0 -28 17 -50t63 -22q94 0 94 74q0 16 -14 32t-62 38l-55 26q-43 -38 -43 -98zM684 136q0 142 150 175q-66 57 -66 147t71 149q74 65 190 66t167 -45t51 -103q0 -58 -36 -100t-83 -67
q82 -64 81 -149q-1 -84 -73 -152q-72 -67 -210 -67t-190 47t-52 99z" />
    <glyph glyph-name="uni215E" unicode="&#x215e;" horiz-adv-x="1314" 
d="M713 1434l-19 -105l-323 -559h-205l360 514h-180l-22 -18l-13 -58h-125l50 226h477zM1100 1434h147l-1016 -1434h-147zM1052 481q2 76 -78 76q-79 0 -79 -57q0 -23 27 -42t67 -40l33 -17q29 38 30 80zM807 178q0 -28 17 -50t63 -22q94 0 94 74q0 16 -14 32t-62 38l-55 26
q-43 -38 -43 -98zM643 136q0 142 150 175q-66 57 -66 147t71 149q74 65 190 66t167 -45t51 -103q0 -58 -36 -100t-83 -67q82 -64 81 -149q0 -84 -72 -152q-72 -67 -210 -67t-191 47q-52 47 -52 99z" />
    <glyph glyph-name="uni215F" unicode="&#x215f;" horiz-adv-x="743" 
d="M354 1382q33 0 63 18t40 40h116l-118 -555l14 -17h78l-23 -98h-381l23 98h76l18 17l82 383l-12 16h-76l20 98h80zM1108 1434h147l-1015 -1434h-148z" />
    <glyph glyph-name="partialdiff" unicode="&#x2202;" horiz-adv-x="1126" 
d="M1059 648q0 -142 -50.5 -272t-132 -218t-186 -133t-204.5 -45q-202 0 -324.5 112.5t-122.5 331.5q0 321 128 458.5t229.5 180.5t194.5 43t128 -23q-37 109 -94.5 183.5t-122.5 146.5l123 105q225 -124 329.5 -354t104.5 -516zM354 382q0 -93 29 -147.5t101 -54.5
t122.5 53.5t93.5 167.5t43 301q0 100 -28.5 151.5t-101.5 51.5t-123 -53t-79.5 -129t-43 -162t-13.5 -179z" />
    <glyph glyph-name="Delta" unicode="&#x2206;" horiz-adv-x="1366" 
d="M178 176h707l-158 993zM-41 145l762 1293h291l231 -1297l-31 -141h-1284z" />
    <glyph glyph-name="product" unicode="&#x220f;" horiz-adv-x="1497" 
d="M1577 1434l-37 -174h-92l-43 -37l-215 -1012l29 -37h92l-39 -174h-580l39 174h90l43 37l215 1012l-28 37h-332l-43 -37l-215 -1012l28 -37h93l-39 -174h-580l39 174h90l43 37l215 1012l-28 37h-91l37 174h1309z" />
    <glyph glyph-name="summation" unicode="&#x2211;" horiz-adv-x="1265" 
d="M242 1434h983l49 -353l-154 -28l-37 178l-30 35h-459l168 -473l-490 -584h605l43 35l73 157l146 -30l-152 -371h-1040l30 143l494 582l-260 569z" />
    <glyph glyph-name="minus" unicode="&#x2212;" horiz-adv-x="1163" 
d="M156 791h876v-195h-876v195z" />
    <glyph glyph-name="uni2215" unicode="&#x2215;" horiz-adv-x="841" 
d="M877 1434h147l-1016 -1434h-147z" />
    <glyph glyph-name="uni2219" unicode="&#x2219;" horiz-adv-x="532" 
d="M119 736q0 87 60 145q60 57 137 57q78 0 116 -42t39 -108q0 -66 -59 -123q-60 -57 -140 -57t-116 41t-37 87z" />
    <glyph glyph-name="radical" unicode="&#x221a;" horiz-adv-x="1161" 
d="M240 870l-172 -71l-23 116l432 195l195 -682l645 1546l119 -14l-869 -2091z" />
    <glyph glyph-name="infinity" unicode="&#x221e;" horiz-adv-x="1751" 
d="M309 678q0 -86 47 -132t141 -46t172.5 72.5t106.5 105.5q-167 178 -287 178q-86 0 -133 -46t-47 -132zM497 311q-108 0 -181.5 29t-123 79t-73 116.5t-23.5 182.5t107 221t278 105q170 0 268.5 -87t135.5 -123q97 97 186.5 153.5t196.5 56.5q108 0 180 -28.5t123 -78.5
t77.5 -116.5t26.5 -185t-101 -221.5t-289 -103q-189 0 -398 209q-95 -95 -188.5 -152t-201.5 -57zM1282 500q86 0 133 46t47 132t-47 132t-133 46q-131 0 -287 -178q167 -178 287 -178z" />
    <glyph glyph-name="integral" unicode="&#x222b;" horiz-adv-x="1196" 
d="M1227 1686q98 0 190 -25l-37 -152q-69 15 -145 15q-186 0 -250 -191l-422 -1243q-66 -193 -202 -282t-355 -89q-98 0 -190 25l37 152q69 -15 145 -15t144.5 40t107.5 153l420 1241q66 193 202 282t355 89z" />
    <glyph glyph-name="approxequal" unicode="&#x2248;" horiz-adv-x="1239" 
d="M876 522q32 0 52 21l112 112l111 -102q-55 -92 -142 -152.5t-192 -60.5t-203 56.5t-144 82t-78 25.5t-48 -17l-121 -127l-108 101q55 102 144 163.5t195 61.5t202 -56.5t142 -82t78 -25.5zM876 893q32 0 52 20l112 113l111 -102q-55 -92 -142 -152.5t-192 -60.5t-203 56
t-144 81.5t-78 25.5t-48 -16l-121 -127l-108 100q55 102 144 164t195 62t202 -56.5t142 -82t78 -25.5z" />
    <glyph glyph-name="notequal" unicode="&#x2260;" horiz-adv-x="1153" 
d="M141 963h496l61 135h117l-61 -135h264v-195h-350l-66 -143h410v-195h-496l-61 -137h-119l61 137h-262v195h350l64 143h-408v195z" />
    <glyph glyph-name="lessequal" unicode="&#x2264;" horiz-adv-x="1148" 
d="M123 739v174l876 306v-226l-538 -164l538 -174v-223zM123 373h876v-195h-876v195z" />
    <glyph glyph-name="greaterequal" unicode="&#x2265;" horiz-adv-x="1208" 
d="M180 657l539 164l-539 174v224l877 -308v-174l-877 -305v225zM174 178v195h877v-195h-877z" />
    <glyph glyph-name="lozenge" unicode="&#x25ca;" horiz-adv-x="1261" 
d="M514 59l467 654l-188 663l-469 -655zM319 -164l-249 860l626 906h291l250 -861l-627 -905h-291z" />
    <glyph glyph-name="sidebaring" unicode="&#xe000;" horiz-adv-x="6" 
d="M-51 1497h102v-4h-45v-57h45v-4h-45v-345h45v-4h-45v-1081h45v-4h-45v-344h45v-4h-102v4h51v344h-51v4h51v1081h-51v4h51v345h-51v4h51v57h-51v4z" />
    <glyph glyph-name="cent.denominator" unicode="&#xf629;" horiz-adv-x="518" 
d="M147 280q0 -56 27 -81l57 270q-84 -39 -84 -189zM244 178q66 0 108 21l23 -56q-51 -70 -158 -75l-18 -88h-70l18 92q-72 10 -121 55t-49 127q0 147 78 235t201 101l16 80h74l-18 -80q67 -5 123 -21l-39 -172h-97l13 64l-21 18h-2l-65 -301h4z" />
    <glyph glyph-name="dollar.denominator" unicode="&#xf62a;" horiz-adv-x="612" 
d="M297 176q0 29 -33 47l-24 -112q57 16 57 65zM195 496q0 -38 41 -56l24 117q-65 -18 -65 -61zM20 437q0 93 75 155.5t190 79.5l16 73h74l-17 -69q116 -6 189 -27l-39 -182h-115l17 72l-13 14q-14 5 -61 10l-31 -145h2q80 -20 128 -59t48 -125t-69.5 -155t-198.5 -85
l-18 -90h-74l18 86q-92 0 -209 26l41 193h115l-16 -82l12 -18q31 -7 80 -7l31 142q-82 20 -128.5 60t-46.5 133z" />
    <glyph glyph-name="hyphen.denominator" unicode="&#xf62b;" horiz-adv-x="378" 
d="M23 387h235l-29 -135h-235z" />
    <glyph glyph-name="parenleft.denominator" unicode="&#xf62c;" horiz-adv-x="389" 
d="M-33 209q0 31 6 67l21 97q29 129 125 222t237 163l27 -49q-98 -72 -146.5 -155t-70.5 -181l-21 -97q-10 -62 -10 -96q0 -131 86 -235l-47 -49q-207 133 -207 313z" />
    <glyph glyph-name="parenright.denominator" unicode="&#xf62d;" horiz-adv-x="387" 
d="M297 444q0 -31 -6 -67l-21 -96q-53 -234 -362 -385l-27 49q98 72 146.5 154.5t70.5 181.5l21 96q10 62 10 96q0 131 -86 236l47 49q207 -133 207 -314z" />
    <glyph glyph-name="cent.numerator" unicode="&#xf62e;" horiz-adv-x="518" 
d="M309 1050q0 -56 27 -81l57 270q-84 -39 -84 -189zM406 948q72 0 108 21l23 -56q-51 -70 -158 -75l-19 -88h-69l18 92q-72 10 -121 55t-49 127q0 145 83 241q74 82 196 95l16 80h74l-19 -80q72 -5 123 -21l-39 -172h-96l12 64l-20 18h-2l-66 -301h5z" />
    <glyph glyph-name="dollar.numerator" unicode="&#xf62f;" horiz-adv-x="612" 
d="M459 946q0 29 -33 47l-25 -112q58 17 58 65zM356 1266q0 -37 41 -56l25 117q-66 -18 -66 -61zM182 1207q0 93 75 155t189 80l17 74h74l-17 -70q112 -5 189 -27l-39 -182h-115l16 72l-12 14q-14 5 -61 10l-31 -145h2q80 -20 128 -60t48 -124q0 -86 -70 -155t-198 -85
l-19 -90h-73l18 86q-92 0 -209 26l41 193h115l-17 -82l13 -18q31 -7 80 -7l30 142q-82 20 -128 60t-46 133z" />
    <glyph glyph-name="hyphen.numerator" unicode="&#xf630;" horiz-adv-x="378" 
d="M184 1157h236l-29 -135h-235z" />
    <glyph glyph-name="parenleft.numerator" unicode="&#xf631;" horiz-adv-x="389" 
d="M129 979q0 31 6 68l21 96q29 129 125 222t237 163l27 -49q-99 -72 -147 -155t-70 -181l-21 -96q-10 -62 -10 -97q0 -131 86 -235l-47 -49q-207 133 -207 313z" />
    <glyph glyph-name="parenright.numerator" unicode="&#xf632;" horiz-adv-x="387" 
d="M291 1243q0 131 -86 236l47 49q205 -132 207 -314q0 -31 -6 -67l-21 -96q-53 -234 -362 -385l-27 49q98 73 146 155t71 181l21 96q10 62 10 96z" />
    <glyph glyph-name="zero.denominator" unicode="&#xf655;" horiz-adv-x="667" 
d="M567 442q0 -203 -98 -327.5t-246 -124.5q-117 0 -179 64t-62 170q0 200 95.5 327t254.5 127q111 0 173 -63t62 -173zM170 225q0 -100 59 -100q68 0 110 108.5t42 206.5t-59 99q-70 0 -111 -107t-41 -207z" />
    <glyph glyph-name="one.denominator" unicode="&#xf656;" horiz-adv-x="473" 
d="M135 612q33 0 62.5 17.5t40.5 40.5h116l-118 -555l14 -17h78l-23 -98h-381l23 98h76l18 17l82 383l-12 16h-76l20 98h80z" />
    <glyph glyph-name="two.denominator" unicode="&#xf657;" horiz-adv-x="593" 
d="M449.5 630q50.5 -44 50.5 -101q0 -56 -12.5 -89.5t-51.5 -77t-155 -108.5q-117 -64 -125.5 -78t-12.5 -39h158l16 17l17 69h121l-49 -223h-480l27 121q14 77 56 119t138 98q97 57 126.5 84.5t29.5 61.5t-11 48.5t-45 14.5t-57 -8l-18 -17l-14 -57h-125l35 164
q116 45 224 45q107 0 157.5 -44z" />
    <glyph glyph-name="three.denominator" unicode="&#xf658;" horiz-adv-x="573" 
d="M273 674q210 0 210 -154q0 -140 -137 -180v-6q88 -31 88 -121q0 -148 -101.5 -185.5t-183.5 -37.5q-130 0 -217 39l35 166h125l-14 -60l14 -16q10 -10 58 -10t74 33.5t26 80.5q0 61 -57 62h-87l23 112h86q37 0 59.5 28t22.5 75q0 53 -59 53q-33 0 -48 -6l-20 -17l-14 -57
h-123l35 166q136 35 205 35z" />
    <glyph glyph-name="four.denominator" unicode="&#xf659;" horiz-adv-x="618" 
d="M233 285l39 184l-170 -184h131zM-47 272l371 398h182l-82 -385h74l-25 -107h-74l-12 -63l12 -17h58l-21 -98h-350l20 98h70l21 17l12 63h-277z" />
    <glyph glyph-name="five.denominator" unicode="&#xf65a;" horiz-adv-x="585" 
d="M207 422q248 0 248 -184q0 -89 -81.5 -168.5t-244.5 -79.5q-82 0 -139 22q-31 8 -53 23l36 170h123l-10 -53l18 -19q20 -8 62 -8t64 31.5t22 64.5q0 62 -107 62h-143l80 381h436l-49 -226h-123l14 58l-16 18h-151l-19 -92h33z" />
    <glyph glyph-name="six.denominator" unicode="&#xf65b;" horiz-adv-x="612" 
d="M244 287q-45 0 -80 -23q-6 -46 -6 -78t11 -52.5t49 -20.5t58.5 33.5t20.5 76.5q0 64 -53 64zM301 410q182 0 182 -170q0 -108 -79.5 -179t-191.5 -71q-111 0 -176 50t-65 167q0 59 20.5 139t103.5 204t290 124q72 0 143 -23l-36 -172h-107l10 53l-10 17q-16 4 -39 4
q-50 0 -91.5 -49t-68.5 -131q57 37 115 37z" />
    <glyph glyph-name="seven.denominator" unicode="&#xf65c;" horiz-adv-x="550" 
d="M526 664l-18 -105l-324 -559h-204l360 514h-180l-23 -18l-12 -58h-125l49 226h477z" />
    <glyph glyph-name="eight.denominator" unicode="&#xf65d;" horiz-adv-x="612" 
d="M362 499q0 58 -75 58q-47 0 -64.5 -17.5t-17.5 -39.5t26.5 -42t67.5 -40l33 -17q30 40 30 98zM117 194q0 -44 17.5 -66t62.5 -22q94 0 94 74q0 33 -76 70l-55 26q-43 -38 -43 -82zM102 311q-65 56 -65 145t73 153.5t189 64.5q115 0 166 -45.5t51 -103.5t-36 -100t-83 -67
q80 -63 80 -148t-71.5 -152.5t-209.5 -67.5t-190.5 47t-52.5 99q0 85 47 124t102 51z" />
    <glyph glyph-name="nine.denominator" unicode="&#xf65e;" horiz-adv-x="612" 
d="M250 377q45 0 80 22q6 45 6 78t-11 53.5t-49 20.5t-58.5 -34t-20.5 -77q0 -63 53 -63zM193 254q-183 0 -183 170q0 107 80 178.5t192 71.5q240 0 240 -217q0 -59 -20.5 -139t-102 -204t-290.5 -124q-67 0 -144 22l37 172h107l-11 -53l11 -16q15 -4 37 -4q53 0 94.5 49.5
t64.5 124.5q-48 -31 -112 -31z" />
    <glyph glyph-name="comma.denominator" unicode="&#xf65f;" horiz-adv-x="309" 
d="M-49 79q0 40 28.5 73.5t73.5 33.5t67.5 -22.5t22.5 -56.5t-30 -74l-125 -164l-62 37l58 82l-4 30q-29 21 -29 61z" />
    <glyph glyph-name="period.denominator" unicode="&#xf660;" horiz-adv-x="305" 
d="M33 -10q-84 0 -84 89q0 40 30.5 74.5t74.5 34.5q85 0 85 -91q0 -40 -31.5 -73.5t-74.5 -33.5z" />
    <glyph glyph-name="zero.numerator" unicode="&#xf661;" horiz-adv-x="667" 
d="M508 1448q96 0 159 -64q62 -64 62 -172q0 -200 -98 -326t-246 -126q-117 0 -179 64t-62 170t23 185q24 79 69 138q44 59 110 95t162 36zM332 995q0 -100 59 -100q68 1 110 109t42 206t-60 99q-97 0 -141 -216q-10 -55 -10 -98z" />
    <glyph glyph-name="one.numerator" unicode="&#xf662;" horiz-adv-x="473" 
d="M297 1382q33 0 63 18t39 40h117l-119 -555l15 -17h77l-22 -98h-381l23 98h75l19 17l82 383l-13 16h-75l20 98h80z" />
    <glyph glyph-name="two.numerator" unicode="&#xf663;" horiz-adv-x="593" 
d="M430 1444q186 0 221 -98q39 -114 -43 -202q-55 -61 -168 -122t-122 -76q-9 -14 -13 -39h158l16 17l17 69h120l-49 -223h-479l27 121q15 81 58 123t138 96q95 55 125 83q30 27 29 61q0 34 -11 48t-45 15q-34 0 -57 -8l-18 -17l-15 -57h-124l34 164q117 45 201 45z" />
    <glyph glyph-name="three.numerator" unicode="&#xf664;" horiz-adv-x="573" 
d="M645 1290q0 -137 -137 -180v-6q88 -31 88 -123t-70 -156q-70 -65 -209 -65q-136 0 -223 39l35 166h125l-14 -60l14 -16q10 -10 58 -10q48 -1 74 33t26 81q0 61 -58 62h-86l23 112h86q37 0 59 28t23 75q0 53 -60 53q-32 0 -47 -6l-20 -17l-15 -57h-122l34 166
q136 35 205 35q211 0 211 -154z" />
    <glyph glyph-name="four.numerator" unicode="&#xf665;" horiz-adv-x="618" 
d="M395 1055l39 184l-170 -184h131zM115 1042l370 398h183l-82 -385h73l-24 -107h-74l-12 -63l12 -17h57l-20 -98h-350l20 98h70l20 17l13 63h-277z" />
    <glyph glyph-name="five.numerator" unicode="&#xf666;" horiz-adv-x="585" 
d="M369 1192q249 0 247 -184q0 -90 -82 -170t-243 -78q-82 0 -139 22q-31 8 -54 23l37 170h123l-10 -53l18 -19q20 -8 62 -8t64 32q22 33 22 65q0 59 -107 61h-143l80 381h436l-49 -226h-123l14 58l-16 18h-152l-18 -92h33z" />
    <glyph glyph-name="six.numerator" unicode="&#xf667;" horiz-adv-x="612" 
d="M406 1057q-45 0 -80 -23q-13 -100 2 -125q14 -26 52 -26q38 -1 58 33t21 77q0 64 -53 64zM463 1180q182 0 182 -170q0 -108 -80 -179t-191 -71t-176 50t-65 167q0 59 21 139q45 180 195 277q79 51 174 51t167 -23l-37 -172h-106l10 54l-10 16q-16 4 -39 4q-52 0 -92 -48
t-68 -132q57 37 115 37z" />
    <glyph glyph-name="seven.numerator" unicode="&#xf668;" horiz-adv-x="550" 
d="M688 1434l-18 -105l-324 -559h-205l361 514h-180l-23 -18l-12 -58h-125l49 226h477z" />
    <glyph glyph-name="eight.numerator" unicode="&#xf669;" horiz-adv-x="610" 
d="M522 1252q0 75 -78 75t-79 -57q1 -23 27 -42t67 -40l33 -17q30 40 30 81zM451 950q0 33 -76 70l-56 27q-41 -36 -42 -82q-1 -45 17 -67t62 -21q95 0 95 73zM262 1081q-65 56 -65 146t72 153q72 62 188 63q117 1 168 -45t51 -103q0 -58 -36 -100t-83 -67q80 -63 80 -148
t-72 -153q-72 -67 -210 -67t-190 47t-52 99q0 115 105 161q26 10 44 14z" />
    <glyph glyph-name="nine.numerator" unicode="&#xf66a;" horiz-adv-x="612" 
d="M410 1147q45 0 79 22q13 100 -1 126q-15 25 -53 25t-58 -33q-20 -34 -21 -77q1 -63 54 -63zM352 1024q-182 0 -182 170q0 107 79 177q79 71 192 72t177 -49t64 -167q0 -59 -20 -139t-68 -154q-117 -174 -326 -174q-68 0 -143 22l37 172h106l-10 -53l10 -16q16 -4 38 -4
t59 19q58 30 100 155q-48 -31 -113 -31z" />
    <glyph glyph-name="comma.numerator" unicode="&#xf66b;" horiz-adv-x="309" 
d="M113 849q0 40 28 74q29 33 74 33t68 -22q52 -51 -9 -131l-124 -164l-62 37l57 82l-4 30q-28 21 -28 61z" />
    <glyph glyph-name="period.numerator" unicode="&#xf66c;" horiz-adv-x="305" 
d="M194 760q-83 0 -83 89q0 40 30 75q31 34 75 34q85 -1 85 -91q0 -39 -32 -73t-75 -34z" />
    <glyph glyph-name="commaaccent" unicode="&#xf6c3;" horiz-adv-x="466" 
d="M226 -119q70 0 105.5 -33.5t35.5 -90.5t-48 -117l-174 -226l-96 60l68 96l-6 51q-50 30 -50 94q0 63 47.5 114.5t117.5 51.5z" />
    <glyph glyph-name="uniF8FF" unicode="&#xf8ff;" horiz-adv-x="2908" 
d="M123 10q0 -10 -10 -10h-23q-8 0 -8 10v62q0 10 8 10h23q10 0 10 -10v-62zM2570 854h96v23q0 37 -48 37t-48 -37v-23zM371 854h98v23q0 37 -49 37t-49 -37v-23zM2222 705q35 0 35 34v127q0 31 -35 31q-26 0 -76 -31v-129q48 -32 76 -32zM905 299q0 66 -100 66t-100 -66
v-74h200v74zM1118 102q0 -67 103 -67h12q10 0 10 -10v-15q0 -10 -10 -10h-19q-80 0 -107.5 25.5t-27.5 72.5v258h-51q-8 0 -8 11v14q0 8 8 10h51v84q0 10 8 10h23q8 0 8 -10v-84h96q8 0 9 -8v-16q0 -10 -9 -11h-96v-254zM425 399q64 0 91 -26.5t27 -67.5v-295q0 -10 -8 -10
h-23q-8 0 -8 10v287q0 63 -80 63q-47 0 -81 -17t-46 -30v-303q0 -10 -8 -10h-23q-10 0 -10 10v375q0 8 10 8h19q10 0 10 -8v-35q66 49 130 49zM664 301q0 98 141 98t141 -98v-100q0 -8 -8 -8h-233v-99q0 -67 100 -67t100 67v17q0 8 13 8h18q10 0 10 -8v-19q0 -98 -141 -98
t-141 98v209zM1540 997q23 0 23 -20v-55q0 -23 -23 -23h-63v-158q0 -37 49 -36h20q25 0 25 -23v-55q0 -23 -25 -23h-39q-92 0 -125.5 30t-33.5 93v172h-35q-23 0 -23 23v51q0 16 23 22l33 2h2v74q0 25 24 25h80q25 0 25 -25v-74h63zM1950 999q23 0 22 -16v-6l-172 -510
q-8 -23 -28 -23h-58q-23 0 -22 17v6l32 121l-133 389q-2 4 -2 8q0 14 25 14h82q12 0 16 -6t8 -16l45 -143q15 -54 15 -76q5 5 20 71l49 148q9 22 25 22h76zM2445 883q0 125 170 125t170 -125v-88q0 -23 -22 -23h-193v-47q0 -37 48 -37t48 37v2q0 23 25 23h66q23 0 22 -23v-6
q0 -57 -34.5 -92t-127 -35t-132.5 35t-40 92v162zM244 883q0 125 171 125t171 -125v-88q0 -23 -25 -23h-190v-47q0 -37 49 -37t49 37v2q0 23 23 23h65q25 0 25 -23v-6q0 -127 -128 -127t-169 35t-41 92v162zM2382 721q0 -127 -117 -127q-47 0 -74.5 15.5t-44.5 27.5v-170
q0 -23 -22 -23h-82q-23 0 -23 23v510q0 23 23 22h74q25 0 24 -22l2 -14q51 45 123 45q117 0 117 -123v-164zM844 897q-33 0 -64 -31v-239q0 -23 -20 -23h-84q-23 0 -23 23v350q0 23 23 22h78q23 0 22 -22v-12q55 43 120 43t103 -54q16 14 47 34t84.5 20t85 -32t31.5 -79
v-270q0 -23 -24 -23h-78q-27 0 -27 23v237q0 18 -5 25.5t-36 7.5t-65 -31v-239q0 -23 -23 -23h-78q-25 0 -24 23v237q0 18 -5 25.5t-38 7.5z" />
    <glyph glyph-name="f_f" unicode="&#xfb00;" horiz-adv-x="1425" 
d="M-94 -227q58 0 91 61t50 152l172 925h-125l35 170h88l45 37l4 25q39 260 273 344q80 29 164 29q97 0 235 -23l-51 -240h-174l20 95l-20 26h-2q-58 0 -90 -64q-26 -49 -48 -149l-14 -80h225l-34 -170h-226l-168 -907q-47 -262 -275 -344q-81 -29 -202 -29t-201 23l50 229
h174l-19 -84l21 -26h2zM627 -227q58 0 91 61t50 152l172 925h-125l35 170h88l45 37l4 25q39 260 273 344q80 29 164 29q97 0 235 -23l-51 -240h-174l20 95l-20 26h-2q-80 0 -118 -133q-11 -39 -20 -80l-14 -80h225l-35 -170h-225l-168 -907q-47 -262 -275 -344
q-81 -29 -202 -29t-201 23l50 229h174l-19 -84l21 -26h2z" />
    <glyph glyph-name="f_f_i" unicode="&#xfb03;" horiz-adv-x="2066" 
d="M1860 1198q-148 0 -148 146q0 72 50 127t138 55t126 -37t38 -109t-49 -128q-49 -54 -155 -54zM1907 1085q79 0 76 -59q-1 -16 -3 -31l-170 -794l31 -37h90l-35 -164h-210q-107 0 -141 22q-68 43 -42 164l146 688l-29 37h-90l39 174h338zM-94 -227q58 0 91 61t50 152
l172 925h-125l35 170h88l45 37l4 25q39 260 273 344q80 29 164 29q97 0 235 -23l-51 -240h-174l20 95l-20 26h-2q-58 0 -90 -64q-26 -49 -48 -149l-14 -80h225l-34 -170h-226l-168 -907q-47 -262 -275 -344q-81 -29 -202 -29t-201 23l50 229h174l-19 -84l21 -26h2zM627 -227
q58 0 91 61t50 152l172 925h-125l35 170h88l45 37l4 25q39 260 273 344q80 29 164 29q97 0 235 -23l-51 -240h-174l20 95l-20 26h-2q-80 0 -118 -133q-11 -39 -20 -80l-14 -80h225l-35 -170h-225l-168 -907q-47 -262 -275 -344q-81 -29 -202 -29t-201 23l50 229h174l-19 -84
l21 -26h2z" />
    <glyph glyph-name="f_f_l" unicode="&#xfb04;" horiz-adv-x="2103" 
d="M2032 1495q59 0 70 -29t5 -61l-256 -1204l31 -37h90l-37 -164h-211q-110 0 -142 22q-65 45 -40 164l234 1098l-29 37h-90l37 174h338zM-94 -227q58 0 91 61t50 152l172 925h-125l35 170h88l45 37l4 25q39 260 273 344q80 29 164 29q97 0 235 -23l-51 -240h-174l20 95
l-20 26h-2q-58 0 -90 -64q-26 -49 -48 -149l-14 -80h225l-34 -170h-226l-168 -907q-47 -262 -275 -344q-81 -29 -202 -29t-201 23l50 229h174l-19 -84l21 -26h2zM627 -227q58 0 91 61t50 152l172 925h-125l35 170h88l45 37l4 25q39 260 273 344q80 29 164 29q97 0 235 -23
l-51 -240h-174l20 95l-20 26h-2q-80 0 -118 -133q-11 -39 -20 -80l-14 -80h225l-35 -170h-225l-168 -907q-47 -262 -275 -344q-81 -29 -202 -29t-201 23l50 229h174l-19 -84l21 -26h2z" />
    <glyph glyph-name="longs_t" unicode="&#xfb05;" horiz-adv-x="1378" 
d="M81 -337q-81 -32 -202 -32t-198 23l49 229h174l-19 -84l21 -26h2q95 0 137 213l176 925h-125l35 170h88l45 37l6 25q65 251 275 340q78 33 169 33q115 0 230 -23l-51 -240h-174l20 95l-20 26h-2q-95 0 -137 -213l-226 -1157q-49 -253 -273 -341zM755 40q-52 60 -22 206
l144 665h-125l34 170h91l43 37l159 254h199l-61 -291h225l-35 -170h-225l-152 -710l31 -37h196l-34 -164q-385 -56 -468 40z" />
    <glyph glyph-name="zero.tab" unicode="&#xff10;" horiz-adv-x="1228" 
d="M897 991q0 256 -156 254q-118 0 -213 -151q-105 -175 -144 -503q-9 -85 -9 -177q1 -92 35 -158q34 -68 110 -68t128 42q100 81 158 248t75 307q16 141 16 206zM528 -20q-237 0 -359 149t-122 377q0 348 172 635q119 195 311 274q98 41 220 41t211 -42q266 -124 266 -514
q0 -136 -43 -302q-93 -359 -348 -530q-132 -88 -308 -88z" />
    <glyph glyph-name="one.tab" unicode="&#xff11;" horiz-adv-x="1228" 
d="M545 1333q104 0 177 35t99 86h164l-266 -1243l26 -37h230l-37 -174h-850l37 174h225l43 37l195 905l-29 37h-209l37 180h158z" />
    <glyph glyph-name="two.tab" unicode="&#xff12;" horiz-adv-x="1228" 
d="M840 1085q0 152 -189 152q-74 0 -151 -25l-41 -32l-35 -152h-199l74 328q221 98 442 98t332 -105t111 -243q0 -174 -133 -307q-98 -99 -370 -251q-108 -60 -158 -93q-98 -65 -123 -116q-13 -28 -21 -65l-6 -24h430l43 35l35 164h186l-92 -449h-977l53 264q28 146 117 238
q90 92 306 216q216 123 269 173q97 91 97 194z" />
    <glyph glyph-name="three.tab" unicode="&#xff13;" horiz-adv-x="1228" 
d="M753 1454q97 0 180 -29q160 -56 212 -179q25 -58 24 -118q0 -166 -92 -265t-246 -128v-8q225 -79 225 -261q1 -205 -134 -339q-156 -152 -443 -152q-161 1 -279 33t-175 58l69 335h195l-35 -163l20 -29q78 -31 161 -31q216 0 272 179q16 54 16 127q0 155 -164 155h-149
l41 190h147q104 0 171 67t67 187q0 76 -30 109q-54 59 -141 59t-157 -30l-35 -29l-39 -164h-190l71 336q12 6 50 20q185 70 388 70z" />
    <glyph glyph-name="four.tab" unicode="&#xff14;" horiz-adv-x="1228" 
d="M647 582l115 532l-492 -532h377zM35 582l815 872h307l-186 -872h166l-37 -189h-166l-41 -182l29 -37h131l-39 -174h-676l39 174h149l43 37l39 182h-610z" />
    <glyph glyph-name="five.tab" unicode="&#xff15;" horiz-adv-x="1228" 
d="M584 872q348 0 454 -201q39 -73 39 -171q0 -212 -147 -357q-169 -164 -473 -166q-163 0 -310 48q-68 20 -118 47l71 329h199l-33 -147l27 -35q70 -27 153 -27q148 1 221 78q74 77 74 186t-61 151t-176 42h-307l165 785h832l-86 -416h-190l26 129l-31 35h-372l-68 -310
h111z" />
    <glyph glyph-name="six.tab" unicode="&#xff16;" horiz-adv-x="1228" 
d="M811 496q0 82 -40 130t-115 48q-152 0 -255 -107q-6 -78 -6 -177q0 -98 39 -156t140 -58t169 82q68 81 68 238zM86 467q0 319 175 615q133 226 366 322q121 50 256 50q209 0 331 -43l-69 -344h-199l33 154l-29 34q-108 27 -216 -26q-137 -67 -229 -258q-44 -92 -71 -209
q140 112 299 111q158 -1 274 -92t115 -263q0 -252 -170 -396t-393 -143t-348 119t-125 369z" />
    <glyph glyph-name="seven.tab" unicode="&#xff17;" horiz-adv-x="1228" 
d="M1274 1434l-37 -168l-700 -1266h-351l789 1184h-483l-41 -35l-33 -139h-189l90 424h955z" />
    <glyph glyph-name="eight.tab" unicode="&#xff18;" horiz-adv-x="1228" 
d="M913 1102q0 74 -47 116t-139 42q-91 0 -149 -48t-58 -120t36 -108q70 -71 196 -128l34 -16q127 106 127 262zM768 377q0 69 -41 123t-147 94l-97 41q-67 -53 -96 -93q-66 -92 -68 -198q0 -35 11 -65q34 -105 194 -105q114 0 179 67t65 136zM369 709q-142 115 -142 303
t154 315t377 127q222 0 335 -101q89 -82 89 -208q0 -200 -158 -321q-47 -36 -102 -60q163 -115 163 -297q0 -221 -165 -355t-414 -132q-454 0 -459 335q0 169 118 278q85 78 204 116z" />
    <glyph glyph-name="nine.tab" unicode="&#xff19;" horiz-adv-x="1228" 
d="M463 938q0 -82 39 -130t114 -48q156 0 252 106q26 252 -30 334q-39 57 -142 57t-168 -81t-65 -238zM713 1456q223 0 347 -119t124 -370q0 -190 -73 -401q-139 -401 -467 -536q-122 -50 -264 -50t-235 22q-49 8 -86 23l70 344h195l-31 -154l29 -37q30 -6 65 -6
q160 0 279 134t172 368q-134 -111 -295 -111t-278 91t-115 266q0 248 170 392t393 144z" />
    <glyph glyph-name="grave.case" horiz-adv-x="835" 
d="M664 1530l-295 186l182 180h47l205 -272l-105 -94h-34z" />
    <glyph glyph-name="dieresis.case" horiz-adv-x="684" 
d="M596 1707q0 52 46 99t110 47t95.5 -33.5t31.5 -86.5t-48.5 -98.5t-111.5 -45.5t-93 33t-30 85zM250 1707q0 52 46 99t110 47t95 -33.5t31 -86.5t-48 -98.5t-112 -45.5t-93 33t-29 85z" />
    <glyph glyph-name="macron.case" 
d="M369 1794h528l-39 -180h-528z" />
    <glyph glyph-name="acute.case" horiz-adv-x="839" 
d="M473 1530l-65 94l321 272h57l105 -180l-373 -186h-45z" />
    <glyph glyph-name="circumflex.case" 
d="M313 1528l-41 69l344 306h97l215 -306l-72 -69h-33l-196 153l-258 -153h-56z" />
    <glyph glyph-name="caron.case" 
d="M592 1530h-96l-215 305l71 70h33l197 -154l258 154h55l41 -70z" />
    <glyph glyph-name="breve.case" 
d="M612 1556q-109 0 -165 69.5t-56 168.5l139 39q4 -41 28 -75t80 -34t96 31t61 70l125 -31q-55 -162 -152.5 -200t-155.5 -38z" />
    <glyph glyph-name="dotaccent.case" horiz-adv-x="471" 
d="M297 1662q0 86 60 144t138 58q77 0 115.5 -42t38.5 -109t-59.5 -123t-139.5 -56t-116.5 41t-36.5 87z" />
    <glyph glyph-name="ring.case" 
d="M651 1782q-106 0 -106 -111q0 -70 76 -69q108 0 108 108q0 72 -78 72zM686 1872q82 0 144.5 -42t62.5 -130t-81 -138.5t-192 -50.5q-112 0 -175.5 39.5t-63.5 103.5t21.5 103t60.5 64.5t90 38t133 12.5z" />
    <glyph glyph-name="tilde.case" horiz-adv-x="804" 
d="M741 1550q-49 0 -141 37t-131 37t-57 -18l-19 -78h-129l19 84q27 119 70.5 167t125.5 48q41 0 112 -29t108.5 -42t81.5 -13t50 29l15 67h125l-21 -92q-23 -102 -69.5 -149.5t-139.5 -47.5z" />
    <glyph glyph-name="hungarumlaut.case" 
d="M614 1530l-39 76l291 239h58l90 -139l-359 -176h-41zM334 1530l-51 82l299 284h57l86 -120l-352 -246h-39z" />
    <glyph glyph-name="caron.salt" horiz-adv-x="663" 
d="M324 1192l86 405h223l-27 -124l-98 -281h-184z" />
    <glyph glyph-name="commaaccent.salt" horiz-adv-x="466" 
d="M340 1186q-70 0 -105.5 33.5t-35.5 91.5t47 116l174 226l96 -60l-67 -96l6 -51q49 -30 49 -93q0 -64 -47 -115.5t-117 -51.5z" />
    </font>
</defs>
</svg>
