<?xml version="1.0" encoding="UTF-8"?>
<svg xmlns="http://www.w3.org/2000/svg" xmlns:xlink="http://www.w3.org/1999/xlink" version="1.2" >
<font id="CO RgIt">
<font-face  font-family="CO" units-per-em="1000" ascent="1000" descent="-300" font-style="normal" font-weight="400" font-stretch="normal" cap-height="700" x-height="526" underline-position="-109" underline-thickness="73" />
<missing-glyph  horiz-adv-x="883" d="M79 349 Q79 424 107.5 490 Q136 556 185 604.5 Q234 653 300 681.5 Q366 710 441 710 Q516 710 582 681.5 Q648 653 696.5 604.5 Q745 556 773.5 490 Q802 424 802 349 Q802 274 773.5 209 Q745 144 695.5 95 Q646 46 580.5 18 Q515 -10 440 -10 Q365 -10 299 18 Q233 46 184.5 95 Q136 144 107.5 209 Q79 274 79 349 Z M128 349 Q128 284 152.5 227.5 Q177 171 219 128.5 Q261 86 318 61.5 Q375 37 440 37 Q505 37 562 61.5 Q619 86 661.5 128.5 Q704 171 728.5 227.5 Q753 284 753 349 Q753 414 728.5 471.5 Q704 529 662 571.5 Q620 614 563 638.5 Q506 663 441 663 Q376 663 319 638.5 Q262 614 219.5 571.5 Q177 529 152.5 471.5 Q128 414 128 349 Z M321 509 Q338 520 358 529 Q375 537 398 543.5 Q421 550 447 550 Q484 550 509 541 Q534 532 550 517 Q566 502 573 483.5 Q580 465 580 446 Q580 408 563 383.5 Q546 359 505 339 Q476 325 466 315.5 Q456 306 456 292 L456 279 L446 236 L416 236 L404 279 L404 292 Q404 321 420 337.5 Q436 354 468 370 Q500 387 509.5 405 Q519 423 519 443 Q519 469 501.5 489.5 Q484 510 441 510 Q418 510 399.5 503.5 Q381 497 368 491 L359 482 L359 429 L321 429 L321 509 Z M431 115 Q414 115 403.5 126 Q393 137 393 152 Q393 168 403.5 178.5 Q414 189 431 189 Q448 189 459 178.5 Q470 168 470 152 Q470 137 459 126 Q448 115 431 115 Z " />
<glyph glyph-name="NULL" d="" />
<glyph glyph-name="nonmarkingreturn" unicode="&#xd;" d="" />
<glyph glyph-name="space" unicode="&#x20;" horiz-adv-x="236" d="" />
<glyph glyph-name="exclam" unicode="&#x21;" horiz-adv-x="241" d="M7 39 Q7 65 27.5 85 Q48 105 79 105 Q99 105 113 90.5 Q127 76 127 57 Q127 31 106.5 10.5 Q86 -10 54 -10 Q34 -10 20.5 4.5 Q7 19 7 39 Z M76 189 L65 225 L109 493 L153 700 L258 700 L213 493 L144 225 L119 189 L76 189 Z " />
<glyph glyph-name="quotedbl" unicode="&#x22;" horiz-adv-x="345" d="M107 461 L127 614 L146 700 L225 700 L206 614 L162 461 L107 461 Z M249 461 L268 614 L287 700 L367 700 L348 614 L303 461 L249 461 Z " />
<glyph glyph-name="numbersign" unicode="&#x23;" horiz-adv-x="537" d="M459 158 L348 158 L296 0 L238 0 L290 158 L164 158 L112 0 L54 0 L106 158 L23 158 L23 207 L122 207 L159 321 L63 321 L63 370 L175 370 L227 526 L286 526 L234 370 L359 370 L411 526 L470 526 L418 370 L499 370 L499 321 L402 321 L364 207 L459 207 L459 158 Z M180 207 L306 207 L343 321 L218 321 L180 207 Z " />
<glyph glyph-name="dollar" unicode="&#x24;" horiz-adv-x="553" d="M488 226 Q488 171 469 129.5 Q450 88 416 58.5 Q382 29 335.5 12.5 Q289 -4 235 -8 L215 -102 L173 -102 L192 -10 Q147 -10 112 -6 Q77 -2 52 3 Q23 9 0 17 L32 171 L90 171 L69 74 L82 59 Q100 54 131.5 50.5 Q163 47 205 47 L262 318 Q179 348 140 391 Q101 434 101 500 Q101 547 119 584.5 Q137 622 169 648 Q201 674 246 689.5 Q291 705 345 709 L362 787 L404 787 L387 710 Q425 709 455.5 706 Q486 703 509 698 Q535 693 557 687 L525 537 L469 537 L488 628 L476 643 Q458 647 433 650 Q408 653 375 653 L321 400 Q360 385 391 369 Q422 353 443.5 333 Q465 313 476.5 287 Q488 261 488 226 Z M395 196 Q395 237 373.5 260.5 Q352 284 301 304 L247 49 Q319 58 357 97.5 Q395 137 395 196 Z M190 527 Q190 506 194.5 490.5 Q199 475 209.5 462 Q220 449 238 438 Q256 427 283 415 L333 651 Q266 643 228 612.5 Q190 582 190 527 Z " />
<glyph glyph-name="percent" unicode="&#x25;" horiz-adv-x="693" d="M136 477 Q136 414 187 414 Q212 414 231 431.5 Q250 449 263 476.5 Q276 504 282 537 Q288 570 288 600 Q288 661 237 661 Q212 661 193 644 Q174 627 161.5 600 Q149 573 142.5 540.5 Q136 508 136 477 Z M346 595 Q346 548 334.5 507 Q323 466 302 436 Q281 406 250 388.5 Q219 371 180 371 Q133 371 105 399 Q77 427 77 481 Q77 527 88 568 Q99 609 120 639.5 Q141 670 172 687.5 Q203 705 243 705 Q289 705 317.5 677 Q346 649 346 595 Z M426 101 Q426 38 477 38 Q502 38 521 55.5 Q540 73 553 100.5 Q566 128 572 161 Q578 194 578 224 Q578 285 527 285 Q502 285 483 268 Q464 251 451.5 224 Q439 197 432.5 164.5 Q426 132 426 101 Z M636 219 Q636 172 624.5 131 Q613 90 592 60 Q571 30 540 12.5 Q509 -5 470 -5 Q423 -5 395 23 Q367 51 367 105 Q367 151 378 192 Q389 233 410 263.5 Q431 294 462 311.5 Q493 329 533 329 Q579 329 607.5 301 Q636 273 636 219 Z M587 700 L640 700 L127 0 L74 0 L587 700 Z " />
<glyph glyph-name="ampersand" unicode="&#x26;" horiz-adv-x="709" d="M681 340 L621 340 L605 325 Q585 283 558 235.5 Q531 188 495 143 L543 66 L560 52 L632 52 L621 0 L516 0 Q486 0 471.5 13.5 Q457 27 446 43 L426 75 Q380 37 324 13.5 Q268 -10 201 -10 Q150 -10 114 4 Q78 18 55 40.5 Q32 63 21.5 91.5 Q11 120 11 150 Q11 211 38 251 Q65 291 102 315.5 Q139 340 178.5 352.5 Q218 365 242 371 L239 376 Q228 394 220.5 413.5 Q213 433 208.5 451.5 Q204 470 202 486 Q200 502 200 513 Q200 556 214 592 Q228 628 253.5 654 Q279 680 316 695 Q353 710 399 710 Q438 710 466 700.5 Q494 691 512 674.5 Q530 658 538.5 637 Q547 616 547 593 Q547 549 530 516.5 Q513 484 485.5 458.5 Q458 433 423 413.5 Q388 394 351 378 L464 194 Q488 223 509 257 Q530 291 549 328 Q556 343 562.5 354.5 Q569 366 576.5 374 Q584 382 594.5 386.5 Q605 391 621 391 L692 391 L681 340 Z M236 52 Q278 52 318.5 70.5 Q359 89 397 121 L262 338 Q245 332 218.5 320.5 Q192 309 167 289 Q142 269 123.5 239.5 Q105 210 105 167 Q105 144 113 123.5 Q121 103 137 87 Q153 71 178 61.5 Q203 52 236 52 Z M285 539 Q285 519 292.5 489.5 Q300 460 319 430 L332 409 Q357 421 383 437 Q409 453 431 474 Q453 495 467 523 Q481 551 481 587 Q481 622 460 642.5 Q439 663 398 663 Q344 663 314.5 627 Q285 591 285 539 Z " />
<glyph glyph-name="quotesingle" unicode="&#x27;" horiz-adv-x="205" d="M107 461 L127 614 L146 700 L227 700 L208 614 L163 461 L107 461 Z " />
<glyph glyph-name="parenleft" unicode="&#x28;" horiz-adv-x="330" d="M203 -113 Q167 -86 136 -55 Q105 -24 82.5 11.5 Q60 47 47.5 86.5 Q35 126 35 171 Q35 188 37 204.5 Q39 221 42 238 L80 443 Q93 511 122 562.5 Q151 614 192 655 Q233 696 284 729.5 Q335 763 391 796 L407 769 Q362 737 322.5 702 Q283 667 252 627.5 Q221 588 199 542.5 Q177 497 167 443 L127 238 Q123 217 120.5 197 Q118 177 118 157 Q118 83 148 24 Q178 -35 229 -86 L203 -113 Z " />
<glyph glyph-name="parenright" unicode="&#x29;" horiz-adv-x="329" d="M147 796 Q183 769 214 738 Q245 707 267.5 671.5 Q290 636 303 596.5 Q316 557 316 512 Q316 496 314.5 479 Q313 462 309 445 L265 240 Q251 172 221.5 120.5 Q192 69 151.5 28 Q111 -13 61 -46.5 Q11 -80 -46 -113 L-62 -86 Q30 -21 93.5 56 Q157 133 180 240 L223 445 Q232 488 232 527 Q232 600 202.5 659 Q173 718 122 769 L147 796 Z " />
<glyph glyph-name="asterisk" unicode="&#x2a;" horiz-adv-x="450" d="M291 547 L371 605 L423 631 L453 571 L402 545 L299 514 L373 443 L408 397 L354 357 L319 403 L272 492 L224 403 L189 357 L137 397 L171 443 L245 514 L142 545 L91 571 L121 631 L173 605 L253 547 L239 643 L239 700 L306 700 L306 643 L291 547 Z " />
<glyph glyph-name="plus" unicode="&#x2b;" horiz-adv-x="494" d="M53 366 L224 366 L224 538 L285 538 L285 366 L456 366 L456 307 L285 307 L285 135 L224 135 L224 307 L53 307 L53 366 Z " />
<glyph glyph-name="comma" unicode="&#x2c;" horiz-adv-x="228" d="M5 36 Q5 60 21.5 80.5 Q38 101 68 101 Q92 101 106.5 87.5 Q121 74 121 54 Q121 38 113.5 26 Q106 14 98 3 L7 -118 L-29 -97 L26 -22 L23 -2 Q5 13 5 36 Z " />
<glyph glyph-name="hyphen" unicode="&#x2d;" horiz-adv-x="368" d="M72 331 L308 331 L294 267 L58 267 L72 331 Z " />
<glyph glyph-name="period" unicode="&#x2e;" horiz-adv-x="227" d="M4 36 Q4 61 22 81 Q40 101 72 101 Q94 101 107 87 Q120 73 120 54 Q120 28 101 9 Q82 -10 51 -10 Q30 -10 17 3.5 Q4 17 4 36 Z " />
<glyph glyph-name="slash" unicode="&#x2f;" horiz-adv-x="436" d="M-62 -102 L451 787 L515 787 L2 -102 L-62 -102 Z " />
<glyph glyph-name="zero" unicode="0" horiz-adv-x="637" d="M275 -10 Q219 -10 177 8 Q135 26 107 58.5 Q79 91 65.5 135.5 Q52 180 52 234 Q52 285 60.5 340 Q69 395 86 448 Q103 501 129.5 549 Q156 597 193 633 Q230 669 277 690 Q324 711 383 711 Q440 711 481.5 693 Q523 675 551 643 Q579 611 592.5 565.5 Q606 520 606 466 Q606 415 597.5 360.5 Q589 306 571.5 253 Q554 200 527.5 152.5 Q501 105 464 68.5 Q427 32 380 11 Q333 -10 275 -10 Z M277 52 Q319 52 352.5 73 Q386 94 411.5 129 Q437 164 455.5 209 Q474 254 486 301.5 Q498 349 503.5 396.5 Q509 444 509 483 Q509 562 478 605 Q447 648 380 648 Q338 648 304.5 627 Q271 606 245.5 571 Q220 536 201.5 491 Q183 446 171 398.5 Q159 351 153.5 303.5 Q148 256 148 217 Q148 137 178.5 94.5 Q209 52 277 52 Z " />
<glyph glyph-name="one" unicode="1" horiz-adv-x="390" d="M207 662 Q242 662 264 675 Q286 688 296 710 L346 710 L209 66 L219 52 L325 52 L314 0 L-18 0 L-8 52 L97 52 L115 66 L227 595 L215 609 L112 609 L122 662 L207 662 Z " />
<glyph glyph-name="two" unicode="2" horiz-adv-x="567" d="M139 659 Q140 659 158 667 Q176 675 206 684.5 Q236 694 275 702 Q314 710 358 710 Q412 710 449.5 697.5 Q487 685 510 664 Q533 643 543.5 616.5 Q554 590 554 563 Q554 519 540 484.5 Q526 450 496 419 Q466 388 418 357 Q370 326 302 289 Q251 262 217.5 241.5 Q184 221 163 202.5 Q142 184 131 165.5 Q120 147 114 125 L102 77 L393 77 L411 90 L429 176 L488 176 L452 0 L-7 0 L20 127 Q27 159 41 185.5 Q55 212 82 237.5 Q109 263 151.5 289.5 Q194 316 256 348 Q307 374 344.5 397 Q382 420 406.5 443.5 Q431 467 442.5 493.5 Q454 520 454 553 Q454 595 426 620 Q398 645 332 645 Q294 645 263 636.5 Q232 628 209 620 L189 603 L171 515 L109 515 L139 659 Z " />
<glyph glyph-name="three" unicode="3" horiz-adv-x="557" d="M143 668 Q144 668 160.5 675 Q177 682 204.5 689.5 Q232 697 267.5 703.5 Q303 710 342 710 Q397 710 435 697 Q473 684 496.5 662.5 Q520 641 530.5 614 Q541 587 541 559 Q541 470 494.5 421.5 Q448 373 374 360 L374 357 Q422 343 452.5 312 Q483 281 483 224 Q483 180 467 138 Q451 96 417.5 63 Q384 30 331 9.5 Q278 -11 203 -11 Q158 -11 120.5 -4.5 Q83 2 56 10 Q24 19 -1 31 L30 174 L88 174 L69 86 L79 72 Q99 64 127.5 57.5 Q156 51 195 51 Q244 51 280 65.5 Q316 80 339 104.5 Q362 129 373 161 Q384 193 384 228 Q384 287 352 309 Q320 331 266 331 L194 331 L207 389 L277 389 Q311 389 341 397 Q371 405 393.5 423.5 Q416 442 429.5 472 Q443 502 443 545 Q443 565 437 584 Q431 603 416.5 617.5 Q402 632 378.5 640.5 Q355 649 319 649 Q285 649 256 642 Q227 635 207 628 L189 614 L170 525 L113 525 L143 668 Z " />
<glyph glyph-name="four" unicode="4" horiz-adv-x="580" d="M16 260 L443 710 L533 710 L437 260 L532 260 L521 201 L425 201 L396 66 L408 52 L489 52 L477 0 L187 0 L199 52 L285 52 L302 66 L331 201 L4 201 L16 260 Z M343 260 L417 606 L91 260 L343 260 Z " />
<glyph glyph-name="five" unicode="5" horiz-adv-x="554" d="M218 623 L171 413 L275 413 Q321 413 360.5 403.5 Q400 394 429 373.5 Q458 353 475 320 Q492 287 492 240 Q492 195 475.5 150 Q459 105 423.5 69.5 Q388 34 333 11.5 Q278 -11 202 -11 Q157 -11 120.5 -4 Q84 3 57 11 Q25 21 0 33 L31 174 L90 174 L72 91 L85 76 Q103 68 132.5 61 Q162 54 203 54 Q254 54 290 69.5 Q326 85 349.5 110 Q373 135 384 167 Q395 199 395 232 Q395 265 384.5 286 Q374 307 354.5 320 Q335 333 308.5 338 Q282 343 251 343 L87 343 L163 700 L556 700 L522 535 L464 535 L479 609 L468 623 L218 623 Z " />
<glyph glyph-name="six" unicode="6" horiz-adv-x="585" d="M426 651 Q369 651 322.5 628.5 Q276 606 241 565 Q206 524 182.5 467 Q159 410 149 341 Q164 354 184 368.5 Q204 383 229 395 Q254 407 283 414.5 Q312 422 345 422 Q383 422 416.5 412 Q450 402 475 381 Q500 360 514.5 328.5 Q529 297 529 255 Q529 191 506.5 141.5 Q484 92 446 58.5 Q408 25 359 7.5 Q310 -10 258 -10 Q160 -10 105.5 48 Q51 106 51 230 Q51 282 60 337.5 Q69 393 88 446.5 Q107 500 137 547.5 Q167 595 209.5 631.5 Q252 668 307.5 689 Q363 710 433 710 Q488 710 525 700 Q562 690 573 683 L542 538 L483 538 L502 624 L489 639 Q463 651 426 651 Z M437 249 Q437 303 407.5 332 Q378 361 324 361 Q295 361 268 353 Q241 345 217 332.5 Q193 320 173.5 304 Q154 288 141 273 Q139 259 139 244 L139 215 Q139 130 169.5 90 Q200 50 266 50 Q300 50 331 62.5 Q362 75 385.5 100 Q409 125 423 162.5 Q437 200 437 249 Z " />
<glyph glyph-name="seven" unicode="7" horiz-adv-x="500" d="M563 700 L551 649 L176 0 L71 0 L472 626 L171 626 L155 612 L138 534 L80 534 L115 700 L563 700 Z " />
<glyph glyph-name="eight" unicode="8" horiz-adv-x="588" d="M565 570 Q565 532 551.5 502 Q538 472 515.5 448 Q493 424 463.5 406.5 Q434 389 401 376 Q454 348 485 309 Q516 270 516 213 Q516 160 495 118.5 Q474 77 437 48.5 Q400 20 349.5 5 Q299 -10 240 -10 Q177 -10 134.5 3.5 Q92 17 67 38.5 Q42 60 31.5 88 Q21 116 21 145 Q21 199 41.5 236 Q62 273 91.5 298 Q121 323 154.5 336.5 Q188 350 214 358 Q172 381 145 415.5 Q118 450 118 503 Q118 549 136.5 587 Q155 625 188.5 652.5 Q222 680 268 695 Q314 710 369 710 Q425 710 462.5 697 Q500 684 523 664 Q546 644 555.5 619 Q565 594 565 570 Z M268 333 Q253 327 225 315 Q197 303 170 282 Q143 261 123 230 Q103 199 103 155 Q103 135 110.5 116 Q118 97 134.5 82.5 Q151 68 178.5 59 Q206 50 245 50 Q285 50 317.5 61 Q350 72 373 91.5 Q396 111 408.5 137.5 Q421 164 421 196 Q421 222 412 241 Q403 260 386.5 275 Q370 290 346.5 301.5 Q323 313 293 324 L268 333 Z M205 527 Q205 485 241 455 Q277 425 329 405 L345 399 Q371 409 396.5 423.5 Q422 438 442 457.5 Q462 477 474 501.5 Q486 526 486 557 Q486 576 478.5 593 Q471 610 456 623 Q441 636 417.5 643.5 Q394 651 361 651 Q290 651 247.5 616.5 Q205 582 205 527 Z " />
<glyph glyph-name="nine" unicode="9" horiz-adv-x="585" d="M180 49 Q237 49 283 71.5 Q329 94 364 135 Q399 176 422.5 233.5 Q446 291 457 360 Q442 346 421.5 331.5 Q401 317 376.5 305 Q352 293 322.5 285.5 Q293 278 260 278 Q222 278 188.5 288 Q155 298 130.5 319 Q106 340 91.5 371.5 Q77 403 77 445 Q77 509 99.5 558.5 Q122 608 160 642 Q198 676 246.5 693.5 Q295 711 348 711 Q445 711 500 653 Q555 595 555 471 Q555 420 546 365 Q537 310 518 256.5 Q499 203 469 154.5 Q439 106 396.5 69.5 Q354 33 298.5 11.5 Q243 -10 173 -10 Q119 -10 81.5 0 Q44 10 33 17 L63 162 L122 162 L104 76 L117 61 Q130 56 145 52.5 Q160 49 180 49 Z M169 452 Q169 398 198.5 369 Q228 340 282 340 Q310 340 337 348 Q364 356 388 368.5 Q412 381 431.5 396.5 Q451 412 465 428 Q466 442 466.5 456.5 Q467 471 467 486 Q467 571 436 611 Q405 651 339 651 Q306 651 275 638.5 Q244 626 220.5 601 Q197 576 183 538.5 Q169 501 169 452 Z " />
<glyph glyph-name="colon" unicode="&#x3a;" horiz-adv-x="246" d="M11 36 Q11 61 29 81 Q47 101 78 101 Q101 101 114 87 Q127 73 127 54 Q127 28 108 9 Q89 -10 58 -10 Q36 -10 23.5 3.5 Q11 17 11 36 Z M102 471 Q102 497 120.5 516.5 Q139 536 170 536 Q193 536 206 522 Q219 508 219 489 Q219 463 199.5 444.5 Q180 426 150 426 Q127 426 114.5 439 Q102 452 102 471 Z " />
<glyph glyph-name="semicolon" unicode="&#x3b;" horiz-adv-x="253" d="M15 36 Q15 60 32 80.5 Q49 101 80 101 Q103 101 117 87.5 Q131 74 131 54 Q131 38 124 26 Q117 14 109 3 L18 -118 L-18 -97 L37 -22 L34 -2 Q15 13 15 36 Z M108 471 Q108 497 126.5 516.5 Q145 536 176 536 Q198 536 211 522 Q224 508 224 489 Q224 463 205 444.5 Q186 426 155 426 Q133 426 120.5 439 Q108 452 108 471 Z " />
<glyph glyph-name="less" unicode="&#x3c;" horiz-adv-x="540" d="M49 316 L49 360 L463 535 L463 471 L141 338 L463 203 L463 139 L49 316 Z " />
<glyph glyph-name="equal" unicode="&#x3d;" horiz-adv-x="584" d="M97 441 L499 441 L499 382 L97 382 L97 441 Z M93 283 L496 283 L496 224 L93 224 L93 283 Z " />
<glyph glyph-name="greater" unicode="&#x3e;" horiz-adv-x="526" d="M78 203 L400 338 L78 471 L78 535 L493 360 L493 316 L78 139 L78 203 Z " />
<glyph glyph-name="question" unicode="&#x3f;" horiz-adv-x="488" d="M109 656 Q137 671 170 683 Q199 693 236 701.5 Q273 710 317 710 Q368 710 404 698 Q440 686 463.5 666.5 Q487 647 497.5 622 Q508 597 508 570 Q508 532 499 502 Q490 472 470 447.5 Q450 423 419 402.5 Q388 382 345 363 Q294 340 273.5 322.5 Q253 305 248 281 L244 259 L211 189 L168 189 L162 259 L167 286 Q171 310 181.5 327.5 Q192 345 208 359 Q224 373 246.5 385 Q269 397 297 411 Q356 440 382.5 472.5 Q409 505 409 558 Q409 576 402.5 592.5 Q396 609 382 621 Q368 633 344.5 640.5 Q321 648 288 648 Q248 648 219.5 639.5 Q191 631 180 626 L157 608 L139 523 L81 523 L109 656 Z M99 39 Q99 64 118 84.5 Q137 105 169 105 Q191 105 205 91 Q219 77 219 57 Q219 31 199.5 10.5 Q180 -10 148 -10 Q127 -10 113 4.5 Q99 19 99 39 Z " />
<glyph glyph-name="at" unicode="&#x40;" horiz-adv-x="847" d="M648 -51 Q606 -70 551.5 -82.5 Q497 -95 431 -95 Q407 -95 369.5 -91 Q332 -87 289.5 -74.5 Q247 -62 204.5 -38.5 Q162 -15 128 25 Q94 65 72.5 123 Q51 181 51 263 Q51 359 82 441 Q113 523 169 583 Q225 643 303.5 676.5 Q382 710 478 710 Q563 710 627 682.5 Q691 655 734 609 Q777 563 798.5 503 Q820 443 820 378 Q820 299 799.5 244.5 Q779 190 747 156.5 Q715 123 677 108.5 Q639 94 604 94 Q509 94 485 163 Q476 152 463 140.5 Q450 129 434 120 Q418 111 401 105.5 Q384 100 367 100 Q307 100 269 139 Q231 178 231 266 Q231 332 249.5 381.5 Q268 431 297 464 Q326 497 360.5 513 Q395 529 427 529 Q459 529 485.5 514.5 Q512 500 526 482 L537 509 Q542 517 546.5 519.5 Q551 522 562 522 L607 522 L557 253 Q554 236 554 219 Q554 204 557.5 190.5 Q561 177 569 166.5 Q577 156 591 149.5 Q605 143 626 143 Q649 143 673.5 156 Q698 169 718 197.5 Q738 226 751 270.5 Q764 315 764 378 Q764 435 746 486.5 Q728 538 692 577.5 Q656 617 602.5 640.5 Q549 664 478 664 Q395 664 327 634 Q259 604 210 550.5 Q161 497 134.5 423.5 Q108 350 108 263 Q108 192 126.5 141 Q145 90 175 55 Q205 20 242 -0.5 Q279 -21 315 -32 Q351 -43 383.5 -46 Q416 -49 436 -49 Q499 -49 548 -39.5 Q597 -30 638 -15 L648 -51 Z M391 159 Q411 159 435 170.5 Q459 182 479 198 Q478 203 478 208 L478 219 Q478 230 479 241 Q480 252 482 264 L514 441 Q502 455 481 462.5 Q460 470 440 470 Q413 470 389 452.5 Q365 435 347.5 406 Q330 377 320 339.5 Q310 302 310 262 Q310 208 332 183.5 Q354 159 391 159 Z " />
<glyph glyph-name="A" unicode="A" horiz-adv-x="660" d="M429 204 L172 204 L97 64 L107 52 L171 52 L160 0 L-69 0 L-59 52 L3 52 L21 66 L370 702 L459 702 L542 64 L554 52 L615 52 L604 0 L361 0 L371 52 L433 52 L446 64 L429 204 Z M203 263 L422 263 L383 598 L203 263 Z " />
<glyph glyph-name="B" unicode="B" horiz-adv-x="655" d="M-8 52 L57 52 L74 66 L195 634 L183 648 L118 648 L130 700 L416 700 Q517 700 572 663.5 Q627 627 627 550 Q627 476 587 430.5 Q547 385 475 365 L475 363 Q529 347 558.5 314 Q588 281 588 222 Q588 167 568 125.5 Q548 84 510.5 56 Q473 28 419 14 Q365 0 298 0 L-19 0 L-8 52 Z M238 390 L347 390 Q439 390 484.5 430.5 Q530 471 530 542 Q530 642 397 642 L292 642 L238 390 Z M167 58 L304 58 Q400 58 445 104 Q490 150 490 229 Q490 283 457.5 307.5 Q425 332 362 332 L226 332 L167 58 Z " />
<glyph glyph-name="C" unicode="C" horiz-adv-x="580" d="M479 24 Q446 10 402.5 0 Q359 -10 299 -10 Q240 -10 194 7.5 Q148 25 116.5 57.5 Q85 90 68.5 135.5 Q52 181 52 238 Q52 350 79.5 437.5 Q107 525 159 585.5 Q211 646 284.5 678 Q358 710 451 710 Q512 710 554.5 700.5 Q597 691 609 683 L577 531 L517 531 L536 620 L527 633 Q510 640 490 643.5 Q470 647 444 647 Q379 647 325.5 622 Q272 597 233.5 547.5 Q195 498 173.5 422.5 Q152 347 152 247 Q152 156 193.5 105.5 Q235 55 321 55 Q348 55 370.5 58.5 Q393 62 414 69 L430 82 L450 175 L510 175 L479 24 Z " />
<glyph glyph-name="D" unicode="D" horiz-adv-x="699" d="M-8 52 L57 52 L74 66 L195 634 L183 648 L118 648 L130 700 L409 700 Q468 700 516 684 Q564 668 597.5 636.5 Q631 605 649 559 Q667 513 667 452 Q667 345 640.5 261 Q614 177 564 119 Q514 61 442 30.5 Q370 0 280 0 L-19 0 L-8 52 Z M169 61 L294 61 Q353 61 403 86.5 Q453 112 489 161.5 Q525 211 545.5 283.5 Q566 356 566 451 Q566 639 397 639 L292 639 L169 61 Z " />
<glyph glyph-name="E" unicode="E" horiz-adv-x="614" d="M292 641 L239 386 L417 386 L433 400 L447 466 L500 466 L454 251 L402 251 L416 317 L405 330 L226 330 L169 59 L446 59 L463 73 L482 161 L539 161 L504 0 L-19 0 L-8 52 L58 52 L75 66 L195 634 L183 648 L118 648 L130 700 L643 700 L608 540 L551 540 L569 628 L558 641 L292 641 Z " />
<glyph glyph-name="F" unicode="F" horiz-adv-x="602" d="M291 639 L235 374 L426 374 L442 387 L456 451 L509 451 L463 237 L410 237 L423 301 L413 313 L221 313 L170 66 L180 52 L261 52 L250 0 L-19 0 L-8 52 L57 52 L74 66 L195 634 L183 648 L118 648 L130 700 L654 700 L619 540 L564 540 L582 626 L570 639 L291 639 Z " />
<glyph glyph-name="G" unicode="G" horiz-adv-x="637" d="M487 24 Q454 10 410 0 Q366 -10 306 -10 Q183 -10 117.5 57.5 Q52 125 52 239 Q52 353 80.5 440.5 Q109 528 160.5 588 Q212 648 284.5 679 Q357 710 446 710 Q515 710 562 700.5 Q609 691 623 683 L591 531 L531 531 L550 620 L541 631 Q521 639 498 643.5 Q475 648 444 648 Q377 648 323 623 Q269 598 231 548 Q193 498 172.5 423 Q152 348 152 247 Q152 155 195 103 Q238 51 323 51 Q346 51 370.5 54.5 Q395 58 411 65 L456 277 L444 291 L386 291 L398 343 L617 343 L605 291 L556 291 L540 277 L487 24 Z " />
<glyph glyph-name="H" unicode="H" horiz-adv-x="729" d="M516 327 L224 327 L169 66 L180 52 L245 52 L234 0 L-20 0 L-8 52 L57 52 L74 66 L195 634 L183 648 L118 648 L130 700 L383 700 L372 648 L306 648 L290 634 L238 389 L530 389 L580 634 L570 648 L505 648 L516 700 L770 700 L759 648 L693 648 L676 634 L556 66 L567 52 L632 52 L621 0 L367 0 L379 52 L445 52 L461 66 L516 327 Z " />
<glyph glyph-name="I" unicode="I" horiz-adv-x="343" d="M195 634 L183 648 L118 648 L130 700 L384 700 L372 648 L306 648 L290 634 L170 66 L180 52 L246 52 L235 0 L-19 0 L-8 52 L57 52 L74 66 L195 634 Z " />
<glyph glyph-name="J" unicode="J" horiz-adv-x="516" d="M379 634 L368 648 L303 648 L315 700 L568 700 L556 648 L491 648 L474 634 L380 190 Q360 93 299.5 41.5 Q239 -10 138 -10 Q97 -10 68.5 -3.5 Q40 3 20.5 11.5 Q1 20 -10.5 28.5 Q-22 37 -27 41 L2 175 L65 175 L46 83 L54 70 Q85 50 129 50 Q195 50 232 83 Q269 116 283 182 L379 634 Z " />
<glyph glyph-name="K" unicode="K" horiz-adv-x="689" d="M235 0 L-19 0 L-8 52 L57 52 L74 66 L195 634 L183 648 L118 648 L130 700 L384 700 L372 648 L306 648 L290 634 L237 386 L332 386 L581 639 L576 648 L518 648 L530 700 L751 700 L739 648 L682 648 L666 639 L405 378 L552 62 L562 52 L623 52 L612 0 L366 0 L376 52 L442 52 L449 59 L328 330 L225 330 L170 65 L180 52 L245 52 L235 0 Z " />
<glyph glyph-name="L" unicode="L" horiz-adv-x="565" d="M169 62 L419 62 L437 76 L457 169 L513 169 L477 0 L-19 0 L-8 52 L57 52 L74 66 L195 634 L183 648 L118 648 L130 700 L384 700 L372 648 L306 648 L290 634 L169 62 Z " />
<glyph glyph-name="M" unicode="M" horiz-adv-x="821" d="M662 551 L414 229 L355 229 L248 543 L147 66 L157 52 L223 52 L213 0 L-20 0 L-9 52 L57 52 L74 66 L195 634 L183 648 L119 648 L130 700 L289 700 L410 322 L692 700 L862 700 L850 648 L785 648 L767 634 L647 66 L658 52 L724 52 L713 0 L466 0 L476 52 L541 52 L558 66 L662 551 Z " />
<glyph glyph-name="N" unicode="N" horiz-adv-x="715" d="M480 -2 L248 554 L144 66 L155 52 L221 52 L210 0 L-20 0 L-10 52 L55 52 L73 66 L194 634 L182 648 L117 648 L129 700 L282 700 L500 169 L599 634 L589 648 L523 648 L535 700 L765 700 L753 648 L688 648 L670 634 L536 -2 L480 -2 Z " />
<glyph glyph-name="O" unicode="O" horiz-adv-x="669" d="M404 710 Q463 710 507 691.5 Q551 673 580.5 639.5 Q610 606 625 560.5 Q640 515 640 461 Q640 411 631 356.5 Q622 302 603.5 249.5 Q585 197 557 150 Q529 103 489.5 67.5 Q450 32 400 11 Q350 -10 288 -10 Q228 -10 183.5 8.5 Q139 27 109.5 60 Q80 93 65 138.5 Q50 184 50 238 Q50 289 58.5 344 Q67 399 85.5 451.5 Q104 504 132.5 551 Q161 598 200.5 633.5 Q240 669 290.5 689.5 Q341 710 404 710 Z M399 645 Q354 645 318 624.5 Q282 604 254 570.5 Q226 537 206 493 Q186 449 173.5 402 Q161 355 155 308.5 Q149 262 149 222 Q149 141 182 98 Q215 55 291 55 Q336 55 372 75.5 Q408 96 435.5 129.5 Q463 163 483 207 Q503 251 515.5 298 Q528 345 534 391.5 Q540 438 540 477 Q540 558 507 601.5 Q474 645 399 645 Z " />
<glyph glyph-name="P" unicode="P" horiz-adv-x="639" d="M195 634 L183 648 L118 648 L130 700 L427 700 Q532 700 590 656.5 Q648 613 648 521 Q648 457 627 409 Q606 361 567 329 Q528 297 472 281 Q416 265 346 265 L211 265 L170 66 L180 52 L258 52 L247 0 L-19 0 L-8 52 L57 52 L74 66 L195 634 Z M291 640 L224 326 L357 326 Q448 326 499.5 373.5 Q551 421 551 518 Q551 580 518 610 Q485 640 413 640 L291 640 Z " />
<glyph glyph-name="Q" unicode="Q" horiz-adv-x="668" d="M404 710 Q463 710 507 691.5 Q551 673 580.5 639.5 Q610 606 625 560.5 Q640 515 640 461 Q640 395 624.5 322.5 Q609 250 576.5 185.5 Q544 121 494 71.5 Q444 22 374 2 L433 -79 L456 -90 L517 -90 L507 -142 L406 -142 Q380 -142 365 -134 Q350 -126 341 -112 L274 -10 Q218 -8 176 11.5 Q134 31 106 64 Q78 97 64 141.5 Q50 186 50 238 Q50 289 58.5 344 Q67 399 85.5 451.5 Q104 504 132.5 551 Q161 598 200.5 633.5 Q240 669 290.5 689.5 Q341 710 404 710 Z M399 645 Q354 645 318 624.5 Q282 604 254 570.5 Q226 537 206 493 Q186 449 173.5 402 Q161 355 155 308.5 Q149 262 149 222 Q149 141 182 98 Q215 55 291 55 Q336 55 372 75.5 Q408 96 435.5 129.5 Q463 163 483 207 Q503 251 515.5 298 Q528 345 534 391.5 Q540 438 540 477 Q540 558 507 601.5 Q474 645 399 645 Z " />
<glyph glyph-name="R" unicode="R" horiz-adv-x="674" d="M291 640 L232 361 L354 361 Q444 361 492.5 405.5 Q541 450 541 536 Q541 588 510.5 614 Q480 640 413 640 L291 640 Z M239 0 L-19 0 L-8 52 L57 52 L74 66 L195 634 L183 648 L118 648 L130 700 L429 700 Q530 700 585.5 661 Q641 622 641 541 Q641 491 624 453.5 Q607 416 579 390 Q551 364 514 349 Q477 334 437 330 L437 329 Q469 323 489 301 Q509 279 516 228 L536 65 L550 52 L601 52 L589 0 L481 0 Q458 0 449 12 Q440 24 438 41 L416 227 Q413 254 405 269 Q397 284 386.5 291 Q376 298 363.5 299.5 Q351 301 337 301 L219 301 L170 65 L180 52 L250 52 L239 0 Z " />
<glyph glyph-name="S" unicode="S" horiz-adv-x="556" d="M492 214 Q492 161 471 119 Q450 77 411.5 48.5 Q373 20 319 5 Q265 -10 198 -10 Q152 -10 115 -5.5 Q78 -1 52 4 Q21 10 -2 19 L32 180 L95 180 L73 80 L86 63 Q104 58 133 54.5 Q162 51 205 51 Q299 51 348.5 91 Q398 131 398 194 Q398 239 367.5 267 Q337 295 269 319 Q185 350 143.5 392 Q102 434 102 500 Q102 552 122 591.5 Q142 631 178.5 657.5 Q215 684 266 697 Q317 710 379 710 Q420 710 453 706 Q486 702 510 697 Q538 692 561 685 L527 531 L466 531 L485 625 L472 640 Q454 644 429.5 647 Q405 650 373 650 Q289 650 241 618 Q193 586 193 526 Q193 504 199.5 487 Q206 470 221 455 Q236 440 261 426 Q286 412 324 396 Q407 361 449.5 320 Q492 279 492 214 Z " />
<glyph glyph-name="T" unicode="T" horiz-adv-x="566" d="M113 700 L621 700 L586 538 L528 538 L546 625 L535 639 L400 639 L280 66 L290 52 L364 52 L352 0 L86 0 L97 52 L168 52 L185 66 L305 639 L171 639 L153 625 L136 538 L78 538 L113 700 Z " />
<glyph glyph-name="U" unicode="U" horiz-adv-x="690" d="M572 634 L560 648 L495 648 L507 700 L743 700 L732 648 L666 648 L650 634 L565 235 Q538 106 470.5 48.5 Q403 -9 303 -9 Q201 -9 146.5 32 Q92 73 92 161 Q92 178 93.5 196.5 Q95 215 100 235 L184 634 L173 648 L108 648 L120 700 L374 700 L362 648 L296 648 L279 634 L195 234 Q190 215 188.5 198 Q187 181 187 166 Q187 109 217.5 81 Q248 53 313 53 Q385 53 426 97.5 Q467 142 487 234 L572 634 Z " />
<glyph glyph-name="V" unicode="V" horiz-adv-x="641" d="M139 634 L127 648 L72 648 L83 700 L328 700 L316 648 L250 648 L237 636 L290 107 L563 635 L555 648 L486 648 L498 700 L725 700 L713 648 L658 648 L641 634 L300 -2 L215 -2 L139 634 Z " />
<glyph glyph-name="W" unicode="W" horiz-adv-x="943" d="M143 635 L132 648 L73 648 L85 700 L327 700 L315 648 L252 648 L239 636 L263 128 L532 700 L600 700 L625 125 L867 635 L858 648 L793 648 L804 700 L1026 700 L1014 648 L956 648 L940 635 L631 -2 L550 -2 L517 514 L269 -2 L188 -2 L143 635 Z " />
<glyph glyph-name="X" unicode="X" horiz-adv-x="655" d="M-51 0 L-40 52 L19 52 L33 60 L294 356 L172 636 L160 648 L97 648 L109 700 L363 700 L351 648 L285 648 L275 639 L362 425 L552 640 L547 648 L484 648 L496 700 L717 700 L705 648 L648 648 L631 638 L388 370 L518 61 L528 52 L591 52 L580 0 L329 0 L339 52 L405 52 L415 61 L320 297 L116 60 L123 52 L181 52 L169 0 L-51 0 Z " />
<glyph glyph-name="Y" unicode="Y" horiz-adv-x="615" d="M121 0 L132 52 L197 52 L215 66 L259 282 L137 636 L124 648 L72 648 L84 700 L319 700 L308 648 L244 648 L232 636 L328 352 L538 635 L529 648 L466 648 L478 700 L694 700 L682 648 L631 648 L617 638 L359 298 L310 65 L320 52 L386 52 L375 0 L121 0 Z " />
<glyph glyph-name="Z" unicode="Z" horiz-adv-x="583" d="M-23 0 L-12 53 L481 640 L202 640 L184 625 L166 540 L105 540 L139 700 L610 700 L599 646 L109 61 L414 61 L431 76 L450 161 L510 161 L476 0 L-23 0 Z " />
<glyph glyph-name="bracketleft" unicode="&#x5b;" horiz-adv-x="299" d="M-17 -102 L172 786 L371 786 L361 740 L246 740 L77 -57 L192 -57 L182 -102 L-17 -102 Z " />
<glyph glyph-name="backslash" unicode="&#x5c;" horiz-adv-x="422" d="M125 787 L182 787 L314 -102 L257 -102 L125 787 Z " />
<glyph glyph-name="bracketright" unicode="&#x5d;" horiz-adv-x="299" d="M333.999 785.994 L145.01 -101.952 L-53.9774 -101.952 L-43.978 -55.9548 L71.015 -55.9548 L240.005 740.997 L125.012 740.997 L135.011 785.994 L333.999 785.994 Z " />
<glyph glyph-name="asciicircum" unicode="&#x5e;" horiz-adv-x="432" d="M347 383 L239 633 L135 383 L73 383 L209 700 L270 700 L410 383 L347 383 Z " />
<glyph glyph-name="underscore" unicode="&#x5f;" horiz-adv-x="482" d="M-81 -80 L401 -80 L390 -130 L-92 -130 L-81 -80 Z " />
<glyph glyph-name="grave" unicode="&#x60;" horiz-adv-x="352" d="M227 697 L280 747 L296 747 L379 609 L348 582 L336 582 L227 697 Z " />
<glyph glyph-name="a" unicode="a" horiz-adv-x="570" d="M28 180 Q28 258 50.5 323.5 Q73 389 110.5 436.5 Q148 484 196.5 510 Q245 536 298 536 Q345 536 376 519.5 Q407 503 426 482 L438 511 Q443 519 448 522.5 Q453 526 464 526 L522 526 L422 64 L435 49 L500 49 L489 0 L399 0 Q384 0 371 2 Q358 4 349 9.5 Q340 15 336 25.5 Q332 36 335 54 L341 83 L339 83 Q308 45 266.5 17.5 Q225 -10 180 -10 Q111 -10 69.5 38 Q28 86 28 180 Z M210 60 Q240 60 280 84.5 Q320 109 353 150 L409 422 Q395 442 370 458.5 Q345 475 306 475 Q267 475 233 450 Q199 425 174 384.5 Q149 344 134.5 291 Q120 238 120 183 Q120 115 143.5 87.5 Q167 60 210 60 Z " />
<glyph glyph-name="b" unicode="b" horiz-adv-x="570" d="M30 49 L47 64 L174 664 L164 678 L98 678 L110 730 L236 730 Q262 730 267.5 718.5 Q273 707 269 690 L218 445 Q248 482 288.5 509 Q329 536 374 536 Q443 536 484.5 486 Q526 436 526 341 Q526 264 503.5 199.5 Q481 135 443.5 88.5 Q406 42 357.5 16 Q309 -10 256 -10 Q209 -10 178.5 6.5 Q148 23 129 43 L126 43 L125 38 Q121 21 110.5 10.5 Q100 0 77 0 L-47 0 L-36 49 L30 49 Z M344 466 Q313 466 274 441.5 Q235 417 202 377 L144 103 Q159 83 184 67 Q209 51 248 51 Q287 51 321 75.5 Q355 100 380 140 Q405 180 419.5 231.5 Q434 283 434 338 Q434 408 411 437 Q388 466 344 466 Z " />
<glyph glyph-name="c" unicode="c" horiz-adv-x="467" d="M389 63 Q356 27 311 8.5 Q266 -10 214 -10 Q176 -10 142 1.5 Q108 13 83 37 Q58 61 43.5 98 Q29 135 29 185 Q29 271 53 336.5 Q77 402 118 446.5 Q159 491 213 513.5 Q267 536 327 536 Q379 536 415 527 Q451 518 462 513 L433 378 L376 378 L392 456 L383 468 Q370 472 354.5 474.5 Q339 477 321 477 Q274 477 237 455 Q200 433 174.5 395 Q149 357 135 307 Q121 257 121 200 Q121 124 154.5 87.5 Q188 51 243 51 Q278 51 312.5 65.5 Q347 80 371 99 L389 63 Z " />
<glyph glyph-name="d" unicode="d" horiz-adv-x="569" d="M494 25 Q492 20 491.5 16 Q491 12 490 8 Q489 4 489 0 L399 0 Q384 0 371 2 Q358 4 349 9.5 Q340 15 336 25.5 Q332 36 335 54 L341 83 L339 83 Q308 45 266.5 17.5 Q225 -10 180 -10 Q111 -10 69.5 38 Q28 86 28 180 Q28 258 50.5 323.5 Q73 389 110.5 436.5 Q148 484 196.5 510 Q245 536 298 536 Q344 536 374.5 520 Q405 504 424 484 L463 663 L451 678 L386 678 L398 730 L524 730 Q550 730 555.5 718.5 Q561 707 557 690 L423 64 L435 49 L500 49 L494 25 Z M120 183 Q120 115 143.5 87.5 Q167 60 210 60 Q240 60 280 84 Q320 108 353 149 L410 421 Q396 442 371 458.5 Q346 475 306 475 Q267 475 233 450 Q199 425 174 384.5 Q149 344 134.5 291 Q120 238 120 183 Z " />
<glyph glyph-name="e" unicode="e" horiz-adv-x="488" d="M221 -10 Q181 -10 146 1.5 Q111 13 85.5 37 Q60 61 45 98 Q30 135 30 186 Q30 271 53.5 336 Q77 401 116 445.5 Q155 490 206 513 Q257 536 312 536 Q344 536 372 528 Q400 520 421 504 Q442 488 454 464.5 Q466 441 466 410 Q466 373 449 345 Q432 317 404 296 Q376 275 340 261 Q304 247 266 237.5 Q228 228 190 222.5 Q152 217 121 213 L121 192 Q121 121 154.5 85.5 Q188 50 250 50 Q285 50 318 62.5 Q351 75 382 97 L402 60 Q370 31 325.5 10.5 Q281 -10 221 -10 Z M304 479 Q274 479 245.5 466.5 Q217 454 192.5 427.5 Q168 401 150.5 360 Q133 319 126 263 Q160 267 204 273.5 Q248 280 287.5 294 Q327 308 354.5 333.5 Q382 359 382 402 Q382 440 359 459.5 Q336 479 304 479 Z " />
<glyph glyph-name="f" unicode="f" horiz-adv-x="324" d="M-127 -72 L-72 -72 L-82 -120 L-71 -133 Q-66 -134 -61 -134.5 Q-56 -135 -51 -135 Q-15 -135 5.5 -99 Q26 -63 37 -7 L130 474 L50 474 L59 524 L125 524 L142 538 L147 562 Q164 648 211 694 Q258 740 347 740 Q384 740 407.5 736 Q431 732 439 730 L419 629 L364 629 L375 681 L364 693 Q358 694 351.5 694.5 Q345 695 339 695 Q297 695 274.5 663.5 Q252 632 238 567 L228 524 L358 524 L348 474 L218 474 L127 -2 Q119 -43 104.5 -75.5 Q90 -108 67.5 -131.5 Q45 -155 14 -167.5 Q-17 -180 -59 -180 Q-96 -180 -118 -176 Q-140 -172 -147 -170 L-127 -72 Z " />
<glyph glyph-name="g" unicode="g" horiz-adv-x="535" d="M63 343 Q63 390 81 426 Q99 462 129.5 486.5 Q160 511 200 523.5 Q240 536 283 536 Q303 536 322 533.5 Q341 531 359 526 L544 526 L533 474 L445 474 L440 470 Q462 437 462 392 Q462 345 443.5 308.5 Q425 272 394.5 247 Q364 222 324 209.5 Q284 197 241 197 Q219 197 199.5 199.5 Q180 202 161 209 Q139 198 126 185 Q113 172 113 155 Q113 121 171 121 L307 121 Q374 121 415 92.5 Q456 64 456 -1 Q456 -45 433.5 -78.5 Q411 -112 372 -134.5 Q333 -157 279.5 -168.5 Q226 -180 165 -180 Q121 -180 85.5 -174 Q50 -168 24.5 -155 Q-1 -142 -15 -121 Q-29 -100 -29 -69 Q-29 -45 -19 -26.5 Q-9 -8 6.5 6 Q22 20 41 30 Q60 40 77 47 Q28 65 28 118 Q28 154 51 181.5 Q74 209 118 228 Q93 246 78 275 Q63 304 63 343 Z M147 348 Q147 297 173.5 272 Q200 247 245 247 Q273 247 297.5 256.5 Q322 266 340 284 Q358 302 368.5 328 Q379 354 379 386 Q379 439 352.5 462.5 Q326 486 278 486 Q251 486 227 476 Q203 466 185 448 Q167 430 157 404.5 Q147 379 147 348 Z M126 37 Q115 32 103 24 Q91 16 80.5 4.5 Q70 -7 63 -21.5 Q56 -36 56 -54 Q56 -94 85 -111.5 Q114 -129 174 -129 Q263 -129 317 -102 Q371 -75 371 -26 Q371 8 350 22.5 Q329 37 279 37 L126 37 Z " />
<glyph glyph-name="h" unicode="h" horiz-adv-x="566" d="M221 730 Q247 730 252.5 719 Q258 708 254 691 L201 444 Q232 480 276 508 Q320 536 377 536 Q437 536 468 502.5 Q499 469 499 415 Q499 392 493 365 L429 64 L440 49 L506 49 L495 0 L400 0 Q365 0 348 13 Q331 26 340 67 L403 362 Q408 385 408 400 Q408 430 395 447.5 Q382 465 342 465 Q304 465 261 440.5 Q218 416 187 376 L107 0 L17 0 L159 664 L149 678 L82 678 L94 730 L221 730 Z " />
<glyph glyph-name="i" unicode="i" horiz-adv-x="286" d="M131 459 L121 474 L54 474 L66 526 L193 526 Q220 526 225.5 515 Q231 504 227 484 L137 64 L149 49 L214 49 L204 0 L109 0 Q74 0 57 12.5 Q40 25 49 67 L131 459 Z M156 665 Q156 694 172.5 712 Q189 730 222 730 Q245 730 257.5 718 Q270 706 270 687 Q270 658 253.5 640.5 Q237 623 204 623 Q181 623 168.5 635.5 Q156 648 156 665 Z " />
<glyph glyph-name="j" unicode="j" horiz-adv-x="270" d="M195 526 Q221 526 227 515 Q233 504 228 484 L125 0 Q116 -44 101.5 -77.5 Q87 -111 64 -134 Q41 -157 8.5 -168.5 Q-24 -180 -70 -180 Q-103 -180 -122.5 -177 Q-142 -174 -147 -173 L-126 -71 L-72 -71 L-83 -121 L-73 -134 L-63 -134 Q-23 -134 -0.5 -99.5 Q22 -65 35 -4 L134 459 L123 474 L56 474 L68 526 L195 526 Z M157 665 Q157 694 173.5 712 Q190 730 224 730 Q247 730 259 718 Q271 706 271 687 Q271 658 254.5 640.5 Q238 623 205 623 Q182 623 169.5 635.5 Q157 648 157 665 Z " />
<glyph glyph-name="k" unicode="k" horiz-adv-x="565" d="M318 309 L433 61 L446 49 L502 49 L493 0 L409 0 Q376 0 360.5 14.5 Q345 29 332 60 L241 266 L163 266 L107 0 L17 0 L159 664 L149 678 L82 678 L94 730 L221 730 Q247 730 252.5 719 Q258 708 254 691 L173 313 L245 313 L427 468 L424 474 L370 474 L381 526 L592 526 L580 474 L521 474 L502 462 L318 309 Z " />
<glyph glyph-name="l" unicode="l" horiz-adv-x="271" d="M161 664 L151 678 L84 678 L96 730 L223 730 Q249 730 254 719 Q259 708 255 691 L121 64 L133 49 L198 49 L188 0 L93 0 Q60 0 42.5 12.5 Q25 25 33 66 L161 664 Z " />
<glyph glyph-name="m" unicode="m" horiz-adv-x="876" d="M33 0 L131 459 L120 474 L53 474 L65 526 L191 526 Q217 526 222 515 Q227 504 223 486 L214 443 L215 443 Q246 479 289 507.5 Q332 536 385 536 Q441 536 471.5 507 Q502 478 507 431 Q523 451 542.5 470 Q562 489 584.5 503.5 Q607 518 632.5 527 Q658 536 686 536 Q747 536 778 502 Q809 468 809 415 Q809 404 807 393 Q805 382 803 370 L737 64 L749 49 L814 49 L804 0 L709 0 Q674 0 657 12.5 Q640 25 649 67 L713 362 Q715 373 716 382.5 Q717 392 717 400 Q717 428 705 446.5 Q693 465 652 465 Q617 465 575.5 440.5 Q534 416 503 378 Q503 376 502.5 374 Q502 372 502 370 L423 0 L333 0 L411 362 Q416 385 416 400 Q416 428 403.5 446.5 Q391 465 350 465 Q317 465 276.5 441 Q236 417 204 379 L123 0 L33 0 Z " />
<glyph glyph-name="n" unicode="n" horiz-adv-x="581" d="M33 0 L131 459 L120 474 L53 474 L65 526 L191 526 Q217 526 222 515 Q227 504 223 486 L214 443 L216 443 Q247 479 291.5 507.5 Q336 536 393 536 Q453 536 484 502.5 Q515 469 515 415 Q515 392 509 365 L444 64 L455 49 L521 49 L511 0 L416 0 Q381 0 364 12.5 Q347 25 356 67 L419 362 Q424 385 424 400 Q424 430 410.5 447.5 Q397 465 358 465 Q339 465 318 458.5 Q297 452 277 440 Q257 428 238 412 Q219 396 203 377 L123 0 L33 0 Z " />
<glyph glyph-name="o" unicode="o" horiz-adv-x="546" d="M123 193 Q123 119 147.5 83.5 Q172 48 229 48 Q268 48 301 72.5 Q334 97 358 137.5 Q382 178 395 231 Q408 284 408 341 Q408 409 383.5 443 Q359 477 303 477 Q263 477 230 453 Q197 429 173 389.5 Q149 350 136 298.5 Q123 247 123 193 Z M31 195 Q31 279 54.5 343 Q78 407 116 450 Q154 493 203.5 514.5 Q253 536 306 536 Q348 536 383.5 523.5 Q419 511 445 486 Q471 461 485.5 423.5 Q500 386 500 335 Q500 250 476.5 185.5 Q453 121 414 77.5 Q375 34 325.5 12 Q276 -10 225 -10 Q183 -10 147.5 3 Q112 16 86 41.5 Q60 67 45.5 105.5 Q31 144 31 195 Z " />
<glyph glyph-name="p" unicode="p" horiz-adv-x="568" d="M-84 -170 L-74 -121 L-7 -121 L10 -106 L129 460 L119 474 L52 474 L64 526 L189 526 Q215 526 220 515 Q225 504 222 486 L213 446 L215 446 Q245 482 285.5 509 Q326 536 371 536 Q440 536 481.5 486 Q523 436 523 341 Q523 264 500.5 199.5 Q478 135 441 88.5 Q404 42 355 16 Q306 -10 254 -10 Q209 -10 179 4.5 Q149 19 130 39 L99 -106 L110 -121 L178 -121 L168 -170 L-84 -170 Z M341 466 Q311 466 272.5 442 Q234 418 202 380 L142 101 Q157 81 182 66 Q207 51 245 51 Q285 51 319 75.5 Q353 100 378 140 Q403 180 417 231.5 Q431 283 431 338 Q431 408 408 437 Q385 466 341 466 Z " />
<glyph glyph-name="q" unicode="q" horiz-adv-x="568" d="M523 474 L507 459 L386 -106 L397 -121 L463 -121 L453 -170 L201 -170 L211 -121 L281 -121 L298 -106 L337 80 Q306 43 265.5 16.5 Q225 -10 180 -10 Q111 -10 69.5 38 Q28 86 28 180 Q28 258 50.5 323.5 Q73 389 110.5 436.5 Q148 484 196.5 510 Q245 536 298 536 Q345 536 375.5 519.5 Q406 503 425 483 L427 483 L428 487 Q432 504 442.5 515 Q453 526 477 526 L600 526 L589 474 L523 474 Z M210 60 Q240 60 279.5 84.5 Q319 109 351 148 L409 422 Q395 442 370 458.5 Q345 475 306 475 Q267 475 233 450 Q199 425 174 384.5 Q149 344 134.5 291 Q120 238 120 183 Q120 115 143.5 87.5 Q167 60 210 60 Z " />
<glyph glyph-name="r" unicode="r" horiz-adv-x="399" d="M131 459 L120 474 L53 474 L65 526 L191 526 Q217 526 222 514.5 Q227 503 222 485 L212 438 L216 438 Q227 451 244 468 Q261 485 283 500 Q305 515 332 525.5 Q359 536 390 536 Q404 536 413 534.5 Q422 533 425 533 L390 368 L335 368 L352 445 L340 459 Q297 454 260.5 428 Q224 402 201 369 L123 0 L33 0 L131 459 Z " />
<glyph glyph-name="s" unicode="s" horiz-adv-x="452" d="M383 161 Q383 120 365.5 88.5 Q348 57 316.5 35 Q285 13 242 1.5 Q199 -10 149 -10 Q111 -10 81.5 -6.5 Q52 -3 32 2 Q8 7 -9 14 L17 139 L75 139 L60 65 L70 53 Q84 49 103.5 46 Q123 43 153 43 Q222 43 259.5 70.5 Q297 98 297 143 Q297 176 273 196.5 Q249 217 191 237 Q156 249 132 264 Q108 279 93.5 297 Q79 315 72.5 335 Q66 355 66 375 Q66 448 123.5 492 Q181 536 288 536 Q319 536 344.5 533 Q370 530 390 527 Q412 523 431 518 L405 394 L348 394 L362 465 L353 476 Q340 479 324 481.5 Q308 484 284 484 Q224 484 186.5 461.5 Q149 439 149 397 Q149 365 169.5 345.5 Q190 326 243 307 Q314 281 348.5 247.5 Q383 214 383 161 Z " />
<glyph glyph-name="t" unicode="t" horiz-adv-x="311" d="M216 474 L128 64 L140 49 L251 49 L240 0 Q214 -2 190 -3 Q170 -5 147.5 -5.5 Q125 -6 111 -6 Q68 -6 50.5 14 Q33 34 43 81 L127 474 L64 474 L74 524 L123 524 L140 538 L198 670 L257 670 L226 524 L332 524 L322 474 L216 474 Z " />
<glyph glyph-name="u" unicode="u" horiz-adv-x="577" d="M406 0 Q391 0 378 2 Q365 4 356 9.5 Q347 15 343.5 26 Q340 37 343 55 L349 83 L346 83 Q315 47 272 18.5 Q229 -10 175 -10 Q115 -10 84 23 Q53 56 53 110 Q53 134 59 161 L123 459 L111 474 L46 474 L57 526 L152 526 Q186 526 203.5 512.5 Q221 499 212 459 L148 163 Q146 153 145 143.5 Q144 134 144 125 Q144 98 157.5 79.5 Q171 61 209 61 Q247 61 287.5 86 Q328 111 360 150 L440 526 L529 526 L431 65 L442 49 L508 49 L502 25 Q500 20 499.5 16 Q499 12 498 8 L496 0 L406 0 Z " />
<glyph glyph-name="v" unicode="v" horiz-adv-x="535" d="M111 460 L99 474 L40 474 L52 526 L129 526 Q142 526 154 524 Q166 522 176 516 Q186 510 193 498 Q200 486 203 466 L254 109 L449 459 L440 474 L380 474 L392 526 L481 526 Q519 526 526.5 506 Q534 486 520 462 L253 -1 L186 -1 L111 460 Z " />
<glyph glyph-name="w" unicode="w" horiz-adv-x="782" d="M112 461 L102 474 L40 474 L52 526 L127 526 Q140 526 152.5 524 Q165 522 175 516 Q185 510 192 498 Q199 486 201 466 L232 124 L433 526 L496 526 L528 123 L701 459 L692 474 L632 474 L643 526 L732 526 Q770 526 776.5 506.5 Q783 487 769 462 L525 -1 L460 -1 L427 380 L233 -1 L166 -1 L112 461 Z " />
<glyph glyph-name="x" unicode="x" horiz-adv-x="579" d="M159 0 L-50 0 L-38 49 L13 49 L26 58 L235 267 L136 460 L122 474 L55 474 L67 526 L160 526 Q192 526 206.5 512 Q221 498 235 469 L303 326 L449 467 L444 474 L388 474 L400 526 L606 526 L594 474 L539 474 L524 464 L328 281 L439 62 L452 49 L516 49 L507 0 L415 0 Q382 0 367 14 Q352 28 339 57 L261 218 L105 57 L110 49 L171 49 L159 0 Z " />
<glyph glyph-name="y" unicode="y" horiz-adv-x="542" d="M134 526 Q147 526 159 524 Q171 522 180.5 516 Q190 510 197 498 Q204 486 207 466 L258 107 L459 459 L450 474 L393 474 L404 526 L490 526 Q525 526 534 506.5 Q543 487 529 462 L204 -106 L214 -121 L279 -121 L269 -170 L40 -170 L49 -121 L119 -121 L138 -106 L192 -11 L117 460 L106 474 L40 474 L52 526 L134 526 Z " />
<glyph glyph-name="z" unicode="z" horiz-adv-x="506" d="M-25 0 L-15 42 L376 474 L156 474 L140 460 L123 381 L63 381 L94 526 L503 526 L495 483 L107 53 L340 53 L356 66 L373 146 L433 146 L402 0 L-25 0 Z " />
<glyph glyph-name="braceleft" unicode="&#x7b;" horiz-adv-x="345" d="M230 -104 Q214 -106 200.5 -106.5 Q187 -107 174 -107 Q112 -107 78.5 -81 Q45 -55 45 4 Q45 27 51 59 L86 228 Q90 246 92 259 Q94 272 94 283 Q94 305 82 313.5 Q70 322 39 325 L50 373 Q73 375 87.5 380 Q102 385 111 395.5 Q120 406 126 423.5 Q132 441 138 470 L172 624 Q181 667 196 698.5 Q211 730 234 750.5 Q257 771 289 780.5 Q321 790 365 790 Q378 790 391.5 789.5 Q405 789 419 787 L411 750 Q404 751 391 750.5 Q378 750 373 750 Q331 748 302.5 724 Q274 700 261 640 L229 494 Q220 452 211 426 Q202 400 190.5 385 Q179 370 163 362.5 Q147 355 124 350 L124 348 Q152 340 165 325 Q178 310 178 278 Q178 264 175.5 245.5 Q173 227 167 204 L133 43 Q131 31 129.5 20.5 Q128 10 128 2 Q128 -35 147 -50 Q166 -65 199 -67 Q204 -67 217 -67.5 Q230 -68 238 -67 L230 -104 Z " />
<glyph glyph-name="bar" unicode="&#x7c;" horiz-adv-x="266" d="M113 -102 L113 787 L171 787 L171 -102 L113 -102 Z " />
<glyph glyph-name="braceright" unicode="&#x7d;" horiz-adv-x="345" d="M132.014 786.994 Q148.013 788.994 161.512 789.493 Q175.011 789.993 188.011 789.993 Q250.007 789.993 283.505 763.995 Q317.003 737.997 317.003 679 Q317.003 656.002 311.003 624.004 L276.005 455.014 Q272.005 437.015 270.006 424.016 Q268.006 411.017 268.006 400.017 Q268.006 378.019 280.005 369.519 Q292.004 361.02 323.002 358.02 L312.003 310.023 Q289.004 308.023 274.505 303.023 Q260.006 298.023 251.007 287.524 Q242.007 277.025 236.008 259.526 Q230.008 242.027 224.008 213.029 L190.01 59.0381 Q181.011 16.0407 166.012 -15.4574 Q151.013 -46.9554 128.014 -67.4542 Q105.016 -87.9529 73.0176 -97.4524 Q41.0196 -106.952 -2.97772 -106.952 Q-15.9769 -106.952 -29.4761 -106.452 Q-42.9753 -105.952 -56.9744 -103.952 L-48.9749 -66.9542 Q-41.9753 -67.9542 -28.9761 -67.4542 Q-15.9769 -66.9542 -10.9772 -66.9542 Q31.0202 -64.9543 59.5185 -40.9558 Q88.0167 -16.9573 101.016 43.0391 L133.014 189.03 Q142.013 231.028 151.013 257.026 Q160.012 283.024 171.512 298.023 Q183.011 313.023 199.01 320.522 Q215.009 328.022 238.008 333.021 L238.008 335.021 Q210.009 343.021 197.01 358.02 Q184.011 373.019 184.011 405.017 Q184.011 419.016 186.511 437.515 Q189.011 456.014 195.01 479.012 L229.008 640.003 Q231.008 652.002 232.508 662.501 Q234.008 673.001 234.008 681 Q234.008 717.998 215.009 732.997 Q196.01 747.996 163.012 749.996 Q158.012 749.996 145.013 750.496 Q132.014 750.996 124.015 749.996 L132.014 786.994 Z " />
<glyph glyph-name="asciitilde" unicode="&#x7e;" horiz-adv-x="616" d="M65 293 Q93 340 128.5 367 Q164 394 206 394 Q240 394 270 382 Q300 370 327.5 355.5 Q355 341 380.5 329 Q406 317 430 317 Q450 317 465 325 L527 389 Q530 387 533 384 L538 379 Q541 376 545 374 Q553 367 562 359 Q533 312 496.5 285.5 Q460 259 418 259 Q385 259 355.5 271 Q326 283 298.5 298 Q271 313 245.5 325 Q220 337 196 337 Q179 337 161 328 L99 264 L65 293 Z " />
<glyph glyph-name="uni00A0" unicode="&#xa0;" horiz-adv-x="236" d="" />
<glyph glyph-name="exclamdown" unicode="&#xa1;" horiz-adv-x="232" d="M213 487.002 Q213 461.004 192.502 441.005 Q172.003 421.006 141.005 421.006 Q121.006 421.006 107.007 435.506 Q93.0078 450.005 93.0078 469.003 Q93.0078 495.002 113.507 515.501 Q134.005 535.999 166.003 535.999 Q186.002 535.999 199.501 521.5 Q213 507.001 213 487.002 Z M144.005 337.012 L155.004 301.014 L111.007 33.0301 L67.0093 -173.957 L-37.9843 -173.957 L7.013 33.0301 L76.0088 301.014 L101.007 337.012 L144.005 337.012 Z " />
<glyph glyph-name="cent" unicode="&#xa2;" horiz-adv-x="489" d="M411 140 Q382 111 341 95.5 Q300 80 254 79 L235 -10 L193 -10 L212 81 Q178 85 148.5 99 Q119 113 97.5 137 Q76 161 64 195 Q52 229 52 274 Q52 355 74 417 Q96 479 133.5 523 Q171 567 221 591.5 Q271 616 327 622 L346 710 L388 710 L370 624 Q418 622 451 614 Q484 606 495 601 L466 469 L409 469 L426 547 L416 558 Q405 562 390 564.5 Q375 567 358 568 L266 138 L274 138 Q307 138 340.5 150 Q374 162 394 176 L411 140 Z M142 290 Q142 170 226 144 L315 564 Q273 556 241 531 Q209 506 187 469.5 Q165 433 153.5 387 Q142 341 142 290 Z " />
<glyph glyph-name="sterling" unicode="&#xa3;" horiz-adv-x="598" d="M-7 48 L53 48 L71 62 L126 322 L51 322 L61 369 L136 369 L163 497 Q172 542 193 580.5 Q214 619 246 648 Q278 677 322 693.5 Q366 710 422 710 Q466 710 500.5 705 Q535 700 561 694 Q590 687 614 679 L583 539 L527 539 L546 623 L535 635 L499 643 Q472 649 430 649 Q359 649 317 613.5 Q275 578 258 497 L230 369 L396 369 L385 322 L220 322 L190 182 Q183 148 171 114 Q159 80 149 66 L423 66 L439 80 L458 171 L514 171 L478 0 L-18 0 L-7 48 Z " />
<glyph glyph-name="currency" unicode="&#xa4;" horiz-adv-x="521" d="M110 525 L192 441 Q224 462 262 462 Q281 462 298.5 456.5 Q316 451 332 441 L415 525 L459 481 L376 398 Q386 382 391.5 364.5 Q397 347 397 327 Q397 289 376 257 L459 175 L415 131 L332 213 Q299 194 262 194 Q223 194 191 214 L109 131 L65 175 L147 258 Q139 272 134 289.5 Q129 307 129 327 Q129 365 148 397 L66 481 L110 525 Z M181 327 Q181 310 187.5 294.5 Q194 279 205.5 267.5 Q217 256 231.5 249.5 Q246 243 263 243 Q279 243 294 249.5 Q309 256 320 267.5 Q331 279 337.5 294.5 Q344 310 344 327 Q344 345 337.5 360.5 Q331 376 320 387.5 Q309 399 294 405.5 Q279 412 263 412 Q246 412 231.5 405.5 Q217 399 205.5 387.5 Q194 376 187.5 360.5 Q181 345 181 327 Z " />
<glyph glyph-name="yen" unicode="&#xa5;" horiz-adv-x="670" d="M119 351 L264 351 L166 636 L154 648 L101 648 L113 700 L348 700 L337 648 L273 648 L261 636 L357 352 L567 635 L559 648 L495 648 L507 700 L723 700 L712 648 L660 648 L646 638 L428 351 L562 351 L553 303 L392 303 L388 298 L374 233 L537 233 L527 185 L364 185 L339 65 L349 52 L415 52 L404 0 L150 0 L161 52 L226 52 L244 66 L268 185 L85 185 L94 233 L278 233 L288 282 L280 303 L110 303 L119 351 Z " />
<glyph glyph-name="brokenbar" unicode="&#xa6;" horiz-adv-x="274" d="M117 -102 L117 273 L175 273 L175 -102 L117 -102 Z M117 413 L117 787 L175 787 L175 413 L117 413 Z " />
<glyph glyph-name="section" unicode="&#xa7;" horiz-adv-x="552" d="M494 282 Q494 219 462 180 Q430 141 378 120 Q426 79 426 13 Q426 -33 406 -69 Q386 -105 350 -129.5 Q314 -154 265 -167 Q216 -180 158 -180 Q118 -180 84.5 -177 Q51 -174 27 -169 Q-1 -165 -24 -158 L9 -9 L62 -9 L42 -101 L52 -115 Q71 -119 100.5 -122 Q130 -125 163 -125 Q246 -125 293.5 -94 Q341 -63 341 -6 Q341 12 335 26.5 Q329 41 314.5 54 Q300 67 275 78.5 Q250 90 213 102 Q172 115 140.5 127.5 Q109 140 87 156.5 Q65 173 53.5 195 Q42 217 42 249 Q42 312 73.5 350 Q105 388 157 410 Q132 431 121 457 Q110 483 110 518 Q110 563 130 599 Q150 635 186 659.5 Q222 684 271 697 Q320 710 378 710 Q418 710 451.5 706.5 Q485 703 509 699 Q537 694 560 688 L527 539 L474 539 L494 631 L483 645 Q465 649 435.5 652 Q406 655 373 655 Q290 655 242.5 624 Q195 593 195 536 Q195 518 201 503.5 Q207 489 221.5 476.5 Q236 464 260.5 452.5 Q285 441 322 429 Q363 416 395 403.5 Q427 391 449 374.5 Q471 358 482.5 336 Q494 314 494 282 Z M278 351 Q248 360 224 370.5 Q200 381 181 392 Q152 373 135 347.5 Q118 322 118 286 Q118 265 126 250.5 Q134 236 150.5 224 Q167 212 193.5 201.5 Q220 191 257 179 Q287 169 311 159 Q335 149 354 138 Q383 157 400.5 183 Q418 209 418 244 Q418 265 410 280 Q402 295 385 307 Q368 319 341.5 329 Q315 339 278 351 Z " />
<glyph glyph-name="dieresis" unicode="&#xa8;" horiz-adv-x="327" d="M160 651 Q160 671 175.5 687.5 Q191 704 217 704 Q234 704 244.5 692.5 Q255 681 255 666 Q255 644 239 629 Q223 614 199 614 Q181 614 170.5 625 Q160 636 160 651 Z M297 651 Q297 671 313 687.5 Q329 704 354 704 Q371 704 381.5 692.5 Q392 681 392 666 Q392 644 376.5 629 Q361 614 336 614 Q318 614 307.5 625 Q297 636 297 651 Z " />
<glyph glyph-name="copyright" unicode="&#xa9;" horiz-adv-x="829" d="M65 349 Q65 423 93 488.5 Q121 554 170 603 Q219 652 284 680.5 Q349 709 424 709 Q498 709 563.5 680.5 Q629 652 678 603 Q727 554 755.5 488.5 Q784 423 784 349 Q784 274 755.5 209 Q727 144 678 95 Q629 46 563.5 18 Q498 -10 424 -10 Q349 -10 284 18 Q219 46 170 95 Q121 144 93 209 Q65 274 65 349 Z M569 149 Q545 136 513.5 127.5 Q482 119 434 119 Q333 119 277 177 Q221 235 221 352 Q221 462 279.5 520.5 Q338 579 442 579 Q487 579 519 571.5 Q551 564 563 556 L563 438 L518 438 L518 507 L509 516 Q495 522 478.5 526 Q462 530 442 530 Q371 529 335.5 485.5 Q300 442 300 357 Q300 170 445 170 Q484 170 514 182 L524 193 L524 264 L569 264 L569 149 Z M104 349 Q104 282 129 223 Q154 164 197.5 120.5 Q241 77 299.5 51.5 Q358 26 424 26 Q490 26 548 51.5 Q606 77 649.5 120.5 Q693 164 718.5 223 Q744 282 744 349 Q744 416 718.5 475 Q693 534 649.5 578 Q606 622 548 647.5 Q490 673 424 673 Q358 673 299.5 647.5 Q241 622 197.5 578 Q154 534 129 475 Q104 416 104 349 Z " />
<glyph glyph-name="ordfeminine" unicode="&#xaa;" horiz-adv-x="415" d="M322 386 Q305 386 291 392 Q277 398 279 418 L282 440 L281 440 Q266 417 242 398.5 Q218 380 187 380 Q144 380 119.5 411 Q95 442 95 496 Q95 540 106.5 579 Q118 618 139 647 Q160 676 189.5 693 Q219 710 254 710 Q280 710 300.5 698.5 Q321 687 331 672 L342 694 Q345 700 348.5 702 Q352 704 360 704 L405 704 L347 432 L355 422 L391 422 L383 386 L322 386 Z M218 435 Q236 435 255.5 449.5 Q275 464 290 484 L322 633 Q313 644 300 650.5 Q287 657 270 657 Q247 657 228 645.5 Q209 634 195.5 614 Q182 594 174 566.5 Q166 539 166 508 Q166 474 179 454.5 Q192 435 218 435 Z " />
<glyph glyph-name="guillemotleft" unicode="&#xab;" horiz-adv-x="497" d="M35.015 273.014 L235.003 463.003 L288 463.003 L105.011 252.016 L196.005 46.0283 L150.008 46.0283 L28.0154 238.017 L35.015 273.014 Z M231.015 273.014 L431.003 463.003 L484 463.003 L301.011 252.016 L392.005 46.0283 L346.008 46.0283 L224.015 238.017 L231.015 273.014 Z " />
<glyph glyph-name="logicalnot" unicode="&#xac;" horiz-adv-x="574" d="M80 366 L483 366 L483 153 L424 153 L424 307 L80 307 L80 366 Z " />
<glyph glyph-name="uni00AD" unicode="&#xad;" horiz-adv-x="368" d="M72 331 L308 331 L294 267 L58 267 L72 331 Z " />
<glyph glyph-name="registered" unicode="&#xae;" horiz-adv-x="685" d="M82 421 Q82 481 104.5 533.5 Q127 586 166 625 Q205 664 257 687 Q309 710 368 710 Q428 710 480 687 Q532 664 571 625 Q610 586 632.5 533.5 Q655 481 655 421 Q655 361 632.5 308.5 Q610 256 571 217 Q532 178 480 155 Q428 132 368 132 Q309 132 257 155 Q205 178 166 217 Q127 256 104.5 308.5 Q82 361 82 421 Z M117 421 Q117 368 136.5 321 Q156 274 190.5 239 Q225 204 270.5 183.5 Q316 163 369 163 Q421 163 467 183.5 Q513 204 547 239.5 Q581 275 601 321.5 Q621 368 621 421 Q621 474 601 521 Q581 568 547 603.5 Q513 639 467 659.5 Q421 680 369 680 Q316 680 270.5 659.5 Q225 639 190.5 603.5 Q156 568 136.5 521 Q117 474 117 421 Z M255 300 L261 306 L261 538 L255 543 L225 543 L225 579 L377 579 Q434 579 465 558 Q496 537 496 492 Q496 455 474 436 Q452 417 426 412 L426 411 Q440 406 448.5 396.5 Q457 387 465 368 L489 306 L497 300 L520 300 L520 264 L458 264 Q446 264 440.5 269.5 Q435 275 433 283 L407 360 Q401 382 391.5 387 Q382 392 370 392 L318 392 L318 306 L323 300 L356 300 L356 264 L225 264 L225 300 L255 300 Z M318 537 L318 434 L376 434 Q408 434 422.5 447 Q437 460 437 486 Q437 512 422.5 524.5 Q408 537 376 537 L318 537 Z " />
<glyph glyph-name="macron" unicode="&#xaf;" horiz-adv-x="384" d="M186 681 L436 681 L424 626 L175 626 L186 681 Z " />
<glyph glyph-name="degree" unicode="&#xb0;" horiz-adv-x="394" d="M99 559 Q99 590 111 617.5 Q123 645 143.5 665.5 Q164 686 191 698 Q218 710 249 710 Q280 710 307.5 698 Q335 686 355.5 665.5 Q376 645 388 617.5 Q400 590 400 559 Q400 528 388 501 Q376 474 355.5 453.5 Q335 433 307.5 421 Q280 409 249 409 Q218 409 191 421 Q164 433 143.5 453.5 Q123 474 111 501 Q99 528 99 559 Z M151 559 Q151 538 159 520 Q167 502 180.5 488.5 Q194 475 211.5 467 Q229 459 249 459 Q269 459 286.5 467 Q304 475 317.5 488.5 Q331 502 339 520 Q347 538 347 559 Q347 580 339 598 Q331 616 317.5 630 Q304 644 286.5 652 Q269 660 249 660 Q229 660 211.5 652 Q194 644 180.5 630 Q167 616 159 598 Q151 580 151 559 Z " />
<glyph glyph-name="plusminus" unicode="&#xb1;" horiz-adv-x="557" d="M72 428 L244 428 L244 586 L302 586 L302 428 L474 428 L474 370 L302 370 L302 211 L244 211 L244 370 L72 370 L72 428 Z M70 145 L473 145 L473 87 L70 87 L70 145 Z " />
<glyph glyph-name="twosuperior" unicode="&#xb2;" horiz-adv-x="290" d="M145 812 Q160 818 178 823 Q193 828 213 831.5 Q233 835 256 835 Q307 835 327.5 814 Q348 793 348 766 Q348 745 342 729 Q336 713 321.5 698.5 Q307 684 284.5 669.5 Q262 655 229 637 Q208 625 193.5 616.5 Q179 608 170 601.5 Q161 595 156 588.5 Q151 582 149 573 L145 551 L267 551 L273 558 L283 596 L321 596 L302 506 L77 506 L89 568 Q92 584 99.5 596.5 Q107 609 120.5 620.5 Q134 632 154 644 Q174 656 203 672 Q248 697 267.5 714.5 Q287 732 287 760 Q287 774 277 784.5 Q267 795 241 795 Q224 795 210 791 Q196 787 187 784 L178 776 L171 741 L131 741 L145 812 Z " />
<glyph glyph-name="threesuperior" unicode="&#xb3;" horiz-adv-x="283" d="M95 591 L135 591 L127 556 L134 549 Q139 547 150 543.5 Q161 540 178 540 Q220 540 238.5 562 Q257 584 257 614 Q257 637 243 646 Q229 655 209 655 L170 655 L178 692 L215 692 Q244 692 264 706 Q284 720 284 756 Q284 772 272 784 Q260 796 233 796 Q218 796 207 793.5 Q196 791 188 788 L180 781 L171 747 L132 747 L148 817 Q162 822 179 826 Q193 829 211 832 Q229 835 249 835 Q300 835 320.5 813 Q341 791 341 764 Q341 726 322 703.5 Q303 681 268 673 L268 670 Q289 664 302 650 Q315 636 315 611 Q315 590 307.5 570.5 Q300 551 284 535.5 Q268 520 242.5 510.5 Q217 501 181 501 Q159 501 141 503.5 Q123 506 109 510 Q93 514 79 520 L95 591 Z " />
<glyph glyph-name="acute" unicode="&#xb4;" horiz-adv-x="352" d="M371 747 L402 697 L245 582 L229 582 L210 609 L351 747 L371 747 Z " />
<glyph glyph-name="paragraph" unicode="&#xb6;" horiz-adv-x="614" d="M438 700 L253 -170 L204 -170 L293 250 Q187 251 126.5 299 Q66 347 66 443 Q66 510 88.5 559 Q111 608 152.5 639 Q194 670 252.5 685 Q311 700 382 700 L438 700 Z M580 634 L410 -170 L360 -170 L545 700 L656 700 L644 648 L598 648 L580 634 Z " />
<glyph glyph-name="periodcentered" unicode="&#xb7;" horiz-adv-x="241" d="M75 363 Q75 388 93 408 Q111 428 143 428 Q165 428 178 414 Q191 400 191 381 Q191 355 172 336 Q153 317 122 317 Q101 317 88 330.5 Q75 344 75 363 Z " />
<glyph glyph-name="cedilla" unicode="&#xb8;" horiz-adv-x="392" d="M108 -50 L168 11 L217 9 L169 -41 Q207 -43 230 -57 Q253 -71 253 -99 Q253 -122 242 -137.5 Q231 -153 213.5 -162.5 Q196 -172 174 -176 Q152 -180 130 -180 Q101 -180 76.5 -173 Q52 -166 38 -156 L57 -124 Q66 -130 86.5 -137 Q107 -144 130 -144 Q153 -144 171 -136 Q189 -128 189 -106 Q189 -87 166 -77 Q143 -67 105 -63 L108 -50 Z " />
<glyph glyph-name="onesuperior" unicode="&#xb9;" horiz-adv-x="212" d="M184 810 Q198 810 208.5 818 Q219 826 223 834 L257 834 L195 545 L199 539 L248 539 L242 506 L75 506 L81 539 L129 539 L136 545 L186 772 L180 779 L133 779 L140 810 L184 810 Z " />
<glyph glyph-name="ordmasculine" unicode="&#xba;" horiz-adv-x="380" d="M386 586 Q386 535 371.5 496 Q357 457 333.5 431.5 Q310 406 279.5 393 Q249 380 216 380 Q164 380 129.5 410 Q95 440 95 503 Q95 554 109.5 593 Q124 632 147.5 658 Q171 684 201.5 697 Q232 710 265 710 Q316 710 351 679.5 Q386 649 386 586 Z M318 599 Q318 630 305.5 647 Q293 664 264 664 Q239 664 220 647.5 Q201 631 188.5 606 Q176 581 169.5 550.5 Q163 520 163 492 Q163 461 176 444 Q189 427 218 427 Q242 427 261 443 Q280 459 292.5 484 Q305 509 311.5 539.5 Q318 570 318 599 Z " />
<glyph glyph-name="guillemotright" unicode="&#xbb;" horiz-adv-x="497" d="M246 236 L46 46 L-7 46 L176 257 L85 463 L131 463 L253 271 L246 236 Z M442 236 L242 46 L189 46 L372 257 L281 463 L327 463 L449 271 L442 236 Z " />
<glyph glyph-name="onequarter" unicode="&#xbc;" horiz-adv-x="608" d="M288 123 L485 328 L540 328 L497 126 L540 126 L532 92 L488 92 L476 40 L482 33 L519 33 L513 0 L365 0 L372 33 L412 33 L420 40 L431 92 L280 92 L288 123 Z M440 126 L469 262 L336 126 L440 126 Z M171 680 Q185 680 195.5 688 Q206 696 210 704 L244 704 L182 415 L186 409 L235 409 L229 376 L62 376 L68 409 L116 409 L123 415 L173 642 L167 649 L120 649 L127 680 L171 680 Z M538 700 L591 700 L78 0 L25 0 L538 700 Z " />
<glyph glyph-name="onehalf" unicode="&#xbd;" horiz-adv-x="629" d="M372 306 Q387 312 405 317 Q420 322 440 325.5 Q460 329 483 329 Q534 329 554.5 308 Q575 287 575 260 Q575 239 569 223 Q563 207 548.5 192.5 Q534 178 511.5 163.5 Q489 149 456 131 Q435 119 420.5 110.5 Q406 102 397 95.5 Q388 89 383 82.5 Q378 76 376 67 L372 45 L494 45 L500 52 L510 90 L548 90 L529 0 L304 0 L316 62 Q319 78 326.5 90.5 Q334 103 347.5 114.5 Q361 126 381 138 Q401 150 430 166 Q475 191 494.5 208.5 Q514 226 514 254 Q514 268 504 278.5 Q494 289 468 289 Q451 289 437 285 Q423 281 414 278 L405 270 L398 235 L358 235 L372 306 Z M171 680 Q185 680 195.5 688 Q206 696 210 704 L244 704 L182 415 L186 409 L235 409 L229 376 L62 376 L68 409 L116 409 L123 415 L173 642 L167 649 L120 649 L127 680 L171 680 Z M538 700 L591 700 L78 0 L25 0 L538 700 Z " />
<glyph glyph-name="threequarters" unicode="&#xbe;" horiz-adv-x="640" d="M320 123 L517 328 L572 328 L529 126 L572 126 L564 92 L520 92 L508 40 L514 33 L551 33 L545 0 L397 0 L404 33 L444 33 L452 40 L463 92 L312 92 L320 123 Z M472 126 L501 262 L368 126 L472 126 Z M570 700 L623 700 L110 0 L57 0 L570 700 Z M78 461 L118 461 L110 426 L117 419 Q122 417 133 413.5 Q144 410 161 410 Q203 410 221.5 432 Q240 454 240 484 Q240 507 226 516 Q212 525 192 525 L153 525 L161 562 L198 562 Q227 562 247 576 Q267 590 267 626 Q267 642 255 654 Q243 666 216 666 Q201 666 190 663.5 Q179 661 171 658 L163 651 L154 617 L115 617 L131 687 Q145 692 162 696 Q176 699 194 702 Q212 705 232 705 Q283 705 303.5 683 Q324 661 324 634 Q324 596 305 573.5 Q286 551 251 543 L251 540 Q272 534 285 520 Q298 506 298 481 Q298 460 290.5 440.5 Q283 421 267 405.5 Q251 390 225.5 380.5 Q200 371 164 371 Q142 371 124 373.5 Q106 376 92 380 Q76 384 62 390 L78 461 Z " />
<glyph glyph-name="questiondown" unicode="&#xbf;" horiz-adv-x="482" d="M361.007 -125.96 Q333.008 -140.959 300.01 -152.958 Q271.012 -162.958 234.014 -171.457 Q197.017 -179.957 153.019 -179.957 Q102.022 -179.957 66.0247 -167.957 Q30.0269 -155.958 6.52829 -136.459 Q-16.9703 -116.961 -27.4696 -91.962 Q-37.969 -66.9636 -37.969 -39.9652 Q-37.969 -1.96753 -28.9695 28.0306 Q-19.9701 58.0288 0.0286865 82.5273 Q20.0275 107.026 51.0256 127.525 Q82.0237 148.023 125.021 167.022 Q176.018 190.021 196.517 207.52 Q217.015 225.019 222.015 249.017 L226.015 271.016 L259.013 341.012 L302.01 341.012 L308.01 271.016 L303.01 244.017 Q299.01 220.019 288.511 202.52 Q278.012 185.021 262.013 171.022 Q246.014 157.023 223.515 145.023 Q201.016 133.024 173.018 119.025 Q114.022 90.0269 87.5233 57.5288 Q61.025 25.0308 61.025 -27.9659 Q61.025 -45.9648 67.5246 -62.4638 Q74.0242 -78.9628 88.0233 -90.9621 Q102.022 -102.961 125.521 -110.461 Q149.02 -117.96 182.018 -117.96 Q222.015 -117.96 250.513 -109.461 Q279.012 -100.961 290.011 -95.9618 L313.01 -77.9629 L331.008 7.03192 L389.005 7.03192 L361.007 -125.96 Z M371.006 491.002 Q371.006 466.004 352.007 445.505 Q333.008 425.006 301.01 425.006 Q279.012 425.006 265.013 439.006 Q251.013 453.005 251.013 473.003 Q251.013 499.002 270.512 519.501 Q290.011 539.999 322.009 539.999 Q343.008 539.999 357.007 525.5 Q371.006 511.001 371.006 491.002 Z " />
<glyph glyph-name="Agrave" unicode="&#xc0;" horiz-adv-x="660" d="M429 204 L172 204 L97 64 L107 52 L171 52 L160 0 L-69 0 L-59 52 L3 52 L21 66 L370 702 L459 702 L542 64 L554 52 L615 52 L604 0 L361 0 L371 52 L433 52 L446 64 L429 204 Z M203 263 L422 263 L383 598 L203 263 Z M405 756 L297 871 L350 922 L365 922 L449 783 L418 756 L405 756 Z " />
<glyph glyph-name="Aacute" unicode="&#xc1;" horiz-adv-x="660" d="M429 204 L172 204 L97 64 L107 52 L171 52 L160 0 L-69 0 L-59 52 L3 52 L21 66 L370 702 L459 702 L542 64 L554 52 L615 52 L604 0 L361 0 L371 52 L433 52 L446 64 L429 204 Z M203 263 L422 263 L383 598 L203 263 Z M417 756 L398 783 L539 922 L559 922 L590 871 L433 756 L417 756 Z " />
<glyph glyph-name="Acircumflex" unicode="&#xc2;" horiz-adv-x="660" d="M429 204 L172 204 L97 64 L107 52 L171 52 L160 0 L-69 0 L-59 52 L3 52 L21 66 L370 702 L459 702 L542 64 L554 52 L615 52 L604 0 L361 0 L371 52 L433 52 L446 64 L429 204 Z M203 263 L422 263 L383 598 L203 263 Z M298 756 L285 776 L433 924 L467 924 L553 776 L530 756 L519 756 L438 855 L317 756 L298 756 Z " />
<glyph glyph-name="Atilde" unicode="&#xc3;" horiz-adv-x="660" d="M429 204 L172 204 L97 64 L107 52 L171 52 L160 0 L-69 0 L-59 52 L3 52 L21 66 L370 702 L459 702 L542 64 L554 52 L615 52 L604 0 L361 0 L371 52 L433 52 L446 64 L429 204 Z M203 263 L422 263 L383 598 L203 263 Z M603 896 L594 858 Q586 819 564.5 798 Q543 777 503 777 Q482 777 463.5 785 Q445 793 427 803 Q409 813 391.5 821 Q374 829 356 829 Q336 829 325 820 Q314 811 312 801 L304 767 L262 767 L270 803 Q280 847 302 868.5 Q324 890 363 890 Q383 890 401 881.5 Q419 873 437 862.5 Q455 852 473.5 843.5 Q492 835 513 835 Q534 835 544 845 Q554 855 556 865 L562 896 L603 896 Z " />
<glyph glyph-name="Adieresis" unicode="&#xc4;" horiz-adv-x="660" d="M429 204 L172 204 L97 64 L107 52 L171 52 L160 0 L-69 0 L-59 52 L3 52 L21 66 L370 702 L459 702 L542 64 L554 52 L615 52 L604 0 L361 0 L371 52 L433 52 L446 64 L429 204 Z M203 263 L422 263 L383 598 L203 263 Z M316 826 Q316 846 331.5 862 Q347 878 373 878 Q390 878 400.5 866.5 Q411 855 411 840 Q411 819 395 804 Q379 789 355 789 Q336 789 326 800 Q316 811 316 826 Z M453 826 Q453 846 468.5 862 Q484 878 510 878 Q527 878 537.5 866.5 Q548 855 548 840 Q548 819 532.5 804 Q517 789 492 789 Q474 789 463.5 800 Q453 811 453 826 Z " />
<glyph glyph-name="Aring" unicode="&#xc5;" horiz-adv-x="660" d="M429 204 L172 204 L97 64 L107 52 L171 52 L160 0 L-69 0 L-59 52 L3 52 L21 66 L370 702 L459 702 L542 64 L554 52 L615 52 L604 0 L361 0 L371 52 L433 52 L446 64 L429 204 Z M203 263 L422 263 L383 598 L203 263 Z M449 914 Q492 914 518.5 895.5 Q545 877 545 842 Q545 818 534.5 800 Q524 782 507 770 Q490 758 467 752.5 Q444 747 419 747 Q377 747 349.5 764.5 Q322 782 322 817 Q322 842 332 860.5 Q342 879 359.5 891 Q377 903 400 908.5 Q423 914 449 914 Z M373 820 Q373 778 423 778 Q455 778 475 794.5 Q495 811 495 841 Q495 884 444 884 Q412 884 392.5 867 Q373 850 373 820 Z " />
<glyph glyph-name="AE" unicode="&#xc6;" horiz-adv-x="970" d="M-1 52 L15 64 L511 700 L999 700 L964 540 L908 540 L925 628 L914 641 L646 641 L594 386 L774 386 L790 400 L804 466 L857 466 L811 251 L758 251 L771 317 L760 330 L580 330 L524 59 L801 59 L819 73 L838 161 L895 161 L860 0 L337 0 L348 52 L413 52 L430 66 L459 204 L208 204 L97 60 L103 52 L169 52 L158 0 L-72 0 L-61 52 L-1 52 Z M541 638 L251 263 L472 263 L552 638 L541 638 Z " />
<glyph glyph-name="Ccedilla" unicode="&#xc7;" horiz-adv-x="580" d="M479 24 Q446 10 402.5 0 Q359 -10 299 -10 Q240 -10 194 7.5 Q148 25 116.5 57.5 Q85 90 68.5 135.5 Q52 181 52 238 Q52 350 79.5 437.5 Q107 525 159 585.5 Q211 646 284.5 678 Q358 710 451 710 Q512 710 554.5 700.5 Q597 691 609 683 L577 531 L517 531 L536 620 L527 633 Q510 640 490 643.5 Q470 647 444 647 Q379 647 325.5 622 Q272 597 233.5 547.5 Q195 498 173.5 422.5 Q152 347 152 247 Q152 156 193.5 105.5 Q235 55 321 55 Q348 55 370.5 58.5 Q393 62 414 69 L430 82 L450 175 L510 175 L479 24 Z M204 -50 L264 11 L313 9 L265 -41 Q303 -43 326 -57 Q349 -71 349 -99 Q349 -122 338 -137.5 Q327 -153 309.5 -162.5 Q292 -172 270 -176 Q248 -180 226 -180 Q197 -180 172.5 -173 Q148 -166 134 -156 L153 -124 Q162 -130 182.5 -137 Q203 -144 226 -144 Q249 -144 267 -136 Q285 -128 285 -106 Q285 -87 262 -77 Q239 -67 201 -63 L204 -50 Z " />
<glyph glyph-name="Egrave" unicode="&#xc8;" horiz-adv-x="614" d="M414 756 L306 871 L359 922 L374 922 L458 783 L427 756 L414 756 Z M292 641 L239 386 L417 386 L433 400 L447 466 L500 466 L454 251 L402 251 L416 317 L405 330 L226 330 L169 59 L446 59 L463 73 L482 161 L539 161 L504 0 L-19 0 L-8 52 L58 52 L75 66 L195 634 L183 648 L118 648 L130 700 L643 700 L608 540 L551 540 L569 628 L558 641 L292 641 Z " />
<glyph glyph-name="Eacute" unicode="&#xc9;" horiz-adv-x="614" d="M292 641 L239 386 L417 386 L433 400 L447 466 L500 466 L454 251 L402 251 L416 317 L405 330 L226 330 L169 59 L446 59 L463 73 L482 161 L539 161 L504 0 L-19 0 L-8 52 L58 52 L75 66 L195 634 L183 648 L118 648 L130 700 L643 700 L608 540 L551 540 L569 628 L558 641 L292 641 Z M427 756 L408 783 L549 922 L569 922 L600 871 L443 756 L427 756 Z " />
<glyph glyph-name="Ecircumflex" unicode="&#xca;" horiz-adv-x="614" d="M308 756 L295 776 L443 924 L477 924 L563 776 L540 756 L529 756 L448 855 L327 756 L308 756 Z M292 641 L239 386 L417 386 L433 400 L447 466 L500 466 L454 251 L402 251 L416 317 L405 330 L226 330 L169 59 L446 59 L463 73 L482 161 L539 161 L504 0 L-19 0 L-8 52 L58 52 L75 66 L195 634 L183 648 L118 648 L130 700 L643 700 L608 540 L551 540 L569 628 L558 641 L292 641 Z " />
<glyph glyph-name="Edieresis" unicode="&#xcb;" horiz-adv-x="614" d="M292 641 L239 386 L417 386 L433 400 L447 466 L500 466 L454 251 L402 251 L416 317 L405 330 L226 330 L169 59 L446 59 L463 73 L482 161 L539 161 L504 0 L-19 0 L-8 52 L58 52 L75 66 L195 634 L183 648 L118 648 L130 700 L643 700 L608 540 L551 540 L569 628 L558 641 L292 641 Z M326 826 Q326 846 341.5 862 Q357 878 383 878 Q400 878 410.5 866.5 Q421 855 421 840 Q421 819 405 804 Q389 789 365 789 Q346 789 336 800 Q326 811 326 826 Z M463 826 Q463 846 478.5 862 Q494 878 520 878 Q537 878 547.5 866.5 Q558 855 558 840 Q558 819 542.5 804 Q527 789 502 789 Q484 789 473.5 800 Q463 811 463 826 Z " />
<glyph glyph-name="Igrave" unicode="&#xcc;" horiz-adv-x="343" d="M195 634 L183 648 L118 648 L130 700 L384 700 L372 648 L306 648 L290 634 L170 66 L180 52 L246 52 L235 0 L-19 0 L-8 52 L57 52 L74 66 L195 634 Z M260 756 L152 871 L205 922 L220 922 L304 783 L273 756 L260 756 Z " />
<glyph glyph-name="Iacute" unicode="&#xcd;" horiz-adv-x="343" d="M195 634 L183 648 L118 648 L130 700 L384 700 L372 648 L306 648 L290 634 L170 66 L180 52 L246 52 L235 0 L-19 0 L-8 52 L57 52 L74 66 L195 634 Z M272 756 L253 783 L394 922 L414 922 L445 871 L288 756 L272 756 Z " />
<glyph glyph-name="Icircumflex" unicode="&#xce;" horiz-adv-x="343" d="M195 634 L183 648 L118 648 L130 700 L384 700 L372 648 L306 648 L290 634 L170 66 L180 52 L246 52 L235 0 L-19 0 L-8 52 L57 52 L74 66 L195 634 Z M153 756 L140 776 L288 924 L322 924 L408 776 L385 756 L374 756 L293 855 L172 756 L153 756 Z " />
<glyph glyph-name="Idieresis" unicode="&#xcf;" horiz-adv-x="343" d="M195 634 L183 648 L118 648 L130 700 L384 700 L372 648 L306 648 L290 634 L170 66 L180 52 L246 52 L235 0 L-19 0 L-8 52 L57 52 L74 66 L195 634 Z M171 826 Q171 846 186.5 862 Q202 878 228 878 Q245 878 255.5 866.5 Q266 855 266 840 Q266 819 250 804 Q234 789 210 789 Q191 789 181 800 Q171 811 171 826 Z M308 826 Q308 846 323.5 862 Q339 878 365 878 Q382 878 392.5 866.5 Q403 855 403 840 Q403 819 387.5 804 Q372 789 347 789 Q329 789 318.5 800 Q308 811 308 826 Z " />
<glyph glyph-name="Eth" unicode="&#xd0;" horiz-adv-x="700" d="M58 381 L142 381 L196 634 L184 648 L119 648 L131 700 L410 700 Q469 700 517 684 Q565 668 598.5 636.5 Q632 605 650 559 Q668 513 668 452 Q668 345 641.5 261 Q615 177 565 119 Q515 61 443 30.5 Q371 0 281 0 L-18 0 L-7 52 L58 52 L75 66 L132 334 L46 334 L58 381 Z M238 381 L405 381 L393 334 L227 334 L170 61 L295 61 Q354 61 404 86.5 Q454 112 490 161.5 Q526 211 546.5 283.5 Q567 356 567 451 Q567 639 398 639 L293 639 L238 381 Z " />
<glyph glyph-name="Ntilde" unicode="&#xd1;" horiz-adv-x="715" d="M629 896 L620 858 Q612 819 590.5 798 Q569 777 529 777 Q508 777 489.5 785 Q471 793 453 803 Q435 813 417.5 821 Q400 829 382 829 Q362 829 351 820 Q340 811 338 801 L330 767 L288 767 L296 803 Q306 847 328 868.5 Q350 890 389 890 Q409 890 427 881.5 Q445 873 463 862.5 Q481 852 499.5 843.5 Q518 835 539 835 Q560 835 570 845 Q580 855 582 865 L588 896 L629 896 Z M480 -2 L248 554 L144 66 L155 52 L221 52 L210 0 L-20 0 L-10 52 L55 52 L73 66 L194 634 L182 648 L117 648 L129 700 L282 700 L500 169 L599 634 L589 648 L523 648 L535 700 L765 700 L753 648 L688 648 L670 634 L536 -2 L480 -2 Z " />
<glyph glyph-name="Ograve" unicode="&#xd2;" horiz-adv-x="669" d="M433 756 L325 871 L378 922 L393 922 L477 783 L446 756 L433 756 Z M404 710 Q463 710 507 691.5 Q551 673 580.5 639.5 Q610 606 625 560.5 Q640 515 640 461 Q640 411 631 356.5 Q622 302 603.5 249.5 Q585 197 557 150 Q529 103 489.5 67.5 Q450 32 400 11 Q350 -10 288 -10 Q228 -10 183.5 8.5 Q139 27 109.5 60 Q80 93 65 138.5 Q50 184 50 238 Q50 289 58.5 344 Q67 399 85.5 451.5 Q104 504 132.5 551 Q161 598 200.5 633.5 Q240 669 290.5 689.5 Q341 710 404 710 Z M399 645 Q354 645 318 624.5 Q282 604 254 570.5 Q226 537 206 493 Q186 449 173.5 402 Q161 355 155 308.5 Q149 262 149 222 Q149 141 182 98 Q215 55 291 55 Q336 55 372 75.5 Q408 96 435.5 129.5 Q463 163 483 207 Q503 251 515.5 298 Q528 345 534 391.5 Q540 438 540 477 Q540 558 507 601.5 Q474 645 399 645 Z " />
<glyph glyph-name="Oacute" unicode="&#xd3;" horiz-adv-x="669" d="M445 756 L426 783 L567 922 L587 922 L618 871 L461 756 L445 756 Z M404 710 Q463 710 507 691.5 Q551 673 580.5 639.5 Q610 606 625 560.5 Q640 515 640 461 Q640 411 631 356.5 Q622 302 603.5 249.5 Q585 197 557 150 Q529 103 489.5 67.5 Q450 32 400 11 Q350 -10 288 -10 Q228 -10 183.5 8.5 Q139 27 109.5 60 Q80 93 65 138.5 Q50 184 50 238 Q50 289 58.5 344 Q67 399 85.5 451.5 Q104 504 132.5 551 Q161 598 200.5 633.5 Q240 669 290.5 689.5 Q341 710 404 710 Z M399 645 Q354 645 318 624.5 Q282 604 254 570.5 Q226 537 206 493 Q186 449 173.5 402 Q161 355 155 308.5 Q149 262 149 222 Q149 141 182 98 Q215 55 291 55 Q336 55 372 75.5 Q408 96 435.5 129.5 Q463 163 483 207 Q503 251 515.5 298 Q528 345 534 391.5 Q540 438 540 477 Q540 558 507 601.5 Q474 645 399 645 Z " />
<glyph glyph-name="Ocircumflex" unicode="&#xd4;" horiz-adv-x="669" d="M326 756 L313 776 L461 924 L495 924 L581 776 L558 756 L547 756 L466 855 L345 756 L326 756 Z M404 710 Q463 710 507 691.5 Q551 673 580.5 639.5 Q610 606 625 560.5 Q640 515 640 461 Q640 411 631 356.5 Q622 302 603.5 249.5 Q585 197 557 150 Q529 103 489.5 67.5 Q450 32 400 11 Q350 -10 288 -10 Q228 -10 183.5 8.5 Q139 27 109.5 60 Q80 93 65 138.5 Q50 184 50 238 Q50 289 58.5 344 Q67 399 85.5 451.5 Q104 504 132.5 551 Q161 598 200.5 633.5 Q240 669 290.5 689.5 Q341 710 404 710 Z M399 645 Q354 645 318 624.5 Q282 604 254 570.5 Q226 537 206 493 Q186 449 173.5 402 Q161 355 155 308.5 Q149 262 149 222 Q149 141 182 98 Q215 55 291 55 Q336 55 372 75.5 Q408 96 435.5 129.5 Q463 163 483 207 Q503 251 515.5 298 Q528 345 534 391.5 Q540 438 540 477 Q540 558 507 601.5 Q474 645 399 645 Z " />
<glyph glyph-name="Otilde" unicode="&#xd5;" horiz-adv-x="669" d="M404 710 Q463 710 507 691.5 Q551 673 580.5 639.5 Q610 606 625 560.5 Q640 515 640 461 Q640 411 631 356.5 Q622 302 603.5 249.5 Q585 197 557 150 Q529 103 489.5 67.5 Q450 32 400 11 Q350 -10 288 -10 Q228 -10 183.5 8.5 Q139 27 109.5 60 Q80 93 65 138.5 Q50 184 50 238 Q50 289 58.5 344 Q67 399 85.5 451.5 Q104 504 132.5 551 Q161 598 200.5 633.5 Q240 669 290.5 689.5 Q341 710 404 710 Z M399 645 Q354 645 318 624.5 Q282 604 254 570.5 Q226 537 206 493 Q186 449 173.5 402 Q161 355 155 308.5 Q149 262 149 222 Q149 141 182 98 Q215 55 291 55 Q336 55 372 75.5 Q408 96 435.5 129.5 Q463 163 483 207 Q503 251 515.5 298 Q528 345 534 391.5 Q540 438 540 477 Q540 558 507 601.5 Q474 645 399 645 Z M631 896 L622 858 Q614 819 592.5 798 Q571 777 531 777 Q510 777 491.5 785 Q473 793 455 803 Q437 813 419.5 821 Q402 829 384 829 Q364 829 353 820 Q342 811 340 801 L332 767 L290 767 L298 803 Q308 847 330 868.5 Q352 890 391 890 Q411 890 429 881.5 Q447 873 465 862.5 Q483 852 501.5 843.5 Q520 835 541 835 Q562 835 572 845 Q582 855 584 865 L590 896 L631 896 Z " />
<glyph glyph-name="Odieresis" unicode="&#xd6;" horiz-adv-x="669" d="M404 710 Q463 710 507 691.5 Q551 673 580.5 639.5 Q610 606 625 560.5 Q640 515 640 461 Q640 411 631 356.5 Q622 302 603.5 249.5 Q585 197 557 150 Q529 103 489.5 67.5 Q450 32 400 11 Q350 -10 288 -10 Q228 -10 183.5 8.5 Q139 27 109.5 60 Q80 93 65 138.5 Q50 184 50 238 Q50 289 58.5 344 Q67 399 85.5 451.5 Q104 504 132.5 551 Q161 598 200.5 633.5 Q240 669 290.5 689.5 Q341 710 404 710 Z M399 645 Q354 645 318 624.5 Q282 604 254 570.5 Q226 537 206 493 Q186 449 173.5 402 Q161 355 155 308.5 Q149 262 149 222 Q149 141 182 98 Q215 55 291 55 Q336 55 372 75.5 Q408 96 435.5 129.5 Q463 163 483 207 Q503 251 515.5 298 Q528 345 534 391.5 Q540 438 540 477 Q540 558 507 601.5 Q474 645 399 645 Z M345 826 Q345 846 360.5 862 Q376 878 402 878 Q419 878 429.5 866.5 Q440 855 440 840 Q440 819 424 804 Q408 789 384 789 Q365 789 355 800 Q345 811 345 826 Z M482 826 Q482 846 497.5 862 Q513 878 539 878 Q556 878 566.5 866.5 Q577 855 577 840 Q577 819 561.5 804 Q546 789 521 789 Q503 789 492.5 800 Q482 811 482 826 Z " />
<glyph glyph-name="multiply" unicode="&#xd7;" horiz-adv-x="487" d="M68 196 L201 329 L68 461 L113 505 L246 373 L378 505 L423 461 L290 329 L424 196 L379 151 L246 285 L112 151 L68 196 Z " />
<glyph glyph-name="Oslash" unicode="&#xd8;" horiz-adv-x="672" d="M406 710 Q466 710 510 691 Q554 672 584 638 L649 710 L704 710 L607 604 Q642 543 642 461 Q642 411 633 356.5 Q624 302 605.5 249.5 Q587 197 558.5 150 Q530 103 491 67.5 Q452 32 401.5 11 Q351 -10 289 -10 Q229 -10 185 8.5 Q141 27 112 60 L48 -10 L-8 -10 L87 94 Q52 155 52 238 Q52 289 60.5 344 Q69 399 87.5 451.5 Q106 504 134.5 551 Q163 598 202.5 633.5 Q242 669 292.5 689.5 Q343 710 406 710 Z M401 645 Q356 645 320 624.5 Q284 604 256 570.5 Q228 537 208 493 Q188 449 175.5 402 Q163 355 157 308.5 Q151 262 151 222 Q151 207 152 193.5 Q153 180 155 168 L525 574 Q509 609 479 627 Q449 645 401 645 Z M292 55 Q337 55 373 75.5 Q409 96 437 129.5 Q465 163 485 207 Q505 251 517.5 298 Q530 345 536 391.5 Q542 438 542 477 Q542 491 541 503.5 Q540 516 538 528 L169 122 Q184 89 214 72 Q244 55 292 55 Z " />
<glyph glyph-name="Ugrave" unicode="&#xd9;" horiz-adv-x="690" d="M436 756 L328 871 L381 922 L396 922 L480 783 L449 756 L436 756 Z M572 634 L560 648 L495 648 L507 700 L743 700 L732 648 L666 648 L650 634 L565 235 Q538 106 470.5 48.5 Q403 -9 303 -9 Q201 -9 146.5 32 Q92 73 92 161 Q92 178 93.5 196.5 Q95 215 100 235 L184 634 L173 648 L108 648 L120 700 L374 700 L362 648 L296 648 L279 634 L195 234 Q190 215 188.5 198 Q187 181 187 166 Q187 109 217.5 81 Q248 53 313 53 Q385 53 426 97.5 Q467 142 487 234 L572 634 Z " />
<glyph glyph-name="Uacute" unicode="&#xda;" horiz-adv-x="690" d="M572 634 L560 648 L495 648 L507 700 L743 700 L732 648 L666 648 L650 634 L565 235 Q538 106 470.5 48.5 Q403 -9 303 -9 Q201 -9 146.5 32 Q92 73 92 161 Q92 178 93.5 196.5 Q95 215 100 235 L184 634 L173 648 L108 648 L120 700 L374 700 L362 648 L296 648 L279 634 L195 234 Q190 215 188.5 198 Q187 181 187 166 Q187 109 217.5 81 Q248 53 313 53 Q385 53 426 97.5 Q467 142 487 234 L572 634 Z M449 756 L430 783 L571 922 L591 922 L622 871 L465 756 L449 756 Z " />
<glyph glyph-name="Ucircumflex" unicode="&#xdb;" horiz-adv-x="690" d="M330 756 L317 776 L465 924 L499 924 L585 776 L562 756 L551 756 L470 855 L349 756 L330 756 Z M572 634 L560 648 L495 648 L507 700 L743 700 L732 648 L666 648 L650 634 L565 235 Q538 106 470.5 48.5 Q403 -9 303 -9 Q201 -9 146.5 32 Q92 73 92 161 Q92 178 93.5 196.5 Q95 215 100 235 L184 634 L173 648 L108 648 L120 700 L374 700 L362 648 L296 648 L279 634 L195 234 Q190 215 188.5 198 Q187 181 187 166 Q187 109 217.5 81 Q248 53 313 53 Q385 53 426 97.5 Q467 142 487 234 L572 634 Z " />
<glyph glyph-name="Udieresis" unicode="&#xdc;" horiz-adv-x="690" d="M572 634 L560 648 L495 648 L507 700 L743 700 L732 648 L666 648 L650 634 L565 235 Q538 106 470.5 48.5 Q403 -9 303 -9 Q201 -9 146.5 32 Q92 73 92 161 Q92 178 93.5 196.5 Q95 215 100 235 L184 634 L173 648 L108 648 L120 700 L374 700 L362 648 L296 648 L279 634 L195 234 Q190 215 188.5 198 Q187 181 187 166 Q187 109 217.5 81 Q248 53 313 53 Q385 53 426 97.5 Q467 142 487 234 L572 634 Z M348 826 Q348 846 363.5 862 Q379 878 405 878 Q422 878 432.5 866.5 Q443 855 443 840 Q443 819 427 804 Q411 789 387 789 Q368 789 358 800 Q348 811 348 826 Z M485 826 Q485 846 500.5 862 Q516 878 542 878 Q559 878 569.5 866.5 Q580 855 580 840 Q580 819 564.5 804 Q549 789 524 789 Q506 789 495.5 800 Q485 811 485 826 Z " />
<glyph glyph-name="Yacute" unicode="&#xdd;" horiz-adv-x="615" d="M121 0 L132 52 L197 52 L215 66 L259 282 L137 636 L124 648 L72 648 L84 700 L319 700 L308 648 L244 648 L232 636 L328 352 L538 635 L529 648 L466 648 L478 700 L694 700 L682 648 L631 648 L617 638 L359 298 L310 65 L320 52 L386 52 L375 0 L121 0 Z M416 756 L397 783 L538 922 L558 922 L589 871 L432 756 L416 756 Z " />
<glyph glyph-name="Ygrave" unicode="&#x1ef2;" horiz-adv-x="615" d="M121 0 L132 52 L197 52 L215 66 L259 282 L137 636 L124 648 L72 648 L84 700 L319 700 L308 648 L244 648 L232 636 L328 352 L538 635 L529 648 L466 648 L478 700 L694 700 L682 648 L631 648 L617 638 L359 298 L310 65 L320 52 L386 52 L375 0 L121 0 Z M395 756 L287 871 L340 922 L355 922 L439 783 L408 756 L395 756 Z " />
<glyph glyph-name="Thorn" unicode="&#xde;" horiz-adv-x="637" d="M235 0 L-19 0 L-8 52 L57 52 L74 66 L195 634 L183 648 L118 648 L130 700 L384 700 L372 648 L306 648 L290 634 L274 557 L402 557 Q504 557 560.5 516 Q617 475 617 389 Q617 330 596.5 285.5 Q576 241 537.5 211.5 Q499 182 444.5 167 Q390 152 321 152 L187 152 L170 66 L180 52 L245 52 L235 0 Z M260 494 L201 216 L334 216 Q422 216 470 257.5 Q518 299 518 386 Q518 440 486.5 467 Q455 494 388 494 L260 494 Z " />
<glyph glyph-name="germandbls" unicode="&#xdf;" horiz-adv-x="588" d="M314 124 L300 58 L310 44 Q315 42 324 40.5 Q333 39 345 39 Q390 39 416.5 61.5 Q443 84 443 131 Q443 162 423.5 188.5 Q404 215 375 248 Q344 283 327 309.5 Q310 336 310 365 Q310 394 321.5 414 Q333 434 350 449.5 Q367 465 386.5 478.5 Q406 492 423 510 Q440 528 451.5 552.5 Q463 577 463 613 Q463 653 440 675 Q417 697 377 697 Q353 697 331.5 691.5 Q310 686 292 671 Q274 656 260 630 Q246 604 238 563 L126 -2 Q118 -42 103.5 -75 Q89 -108 66.5 -131 Q44 -154 13 -167 Q-18 -180 -60 -180 Q-97 -180 -119 -176 Q-141 -172 -148 -170 L-128 -72 L-73 -72 L-83 -120 L-72 -133 Q-67 -134 -62 -134.5 Q-57 -135 -52 -135 Q-17 -135 4.5 -99.5 Q26 -64 37 -7 L131 474 L52 474 L61 524 L126 524 L144 538 L147 556 Q164 641 224 690.5 Q284 740 381 740 Q412 740 440.5 732.5 Q469 725 491 709.5 Q513 694 526 670.5 Q539 647 539 616 Q539 583 528 559.5 Q517 536 500 518 Q483 500 464 486 Q445 472 428 459 Q411 446 400 431.5 Q389 417 389 398 Q389 375 404.5 356 Q420 337 446 306 Q462 285 477 266.5 Q492 248 503 228.5 Q514 209 521 189 Q528 169 528 145 Q528 109 514.5 80 Q501 51 477.5 31 Q454 11 422 0.5 Q390 -10 352 -10 Q325 -10 304.5 -7 Q284 -4 270 1 Q253 5 242 12 L266 124 L314 124 Z " />
<glyph glyph-name="agrave" unicode="&#xe0;" horiz-adv-x="570" d="M28 180 Q28 258 50.5 323.5 Q73 389 110.5 436.5 Q148 484 196.5 510 Q245 536 298 536 Q345 536 376 519.5 Q407 503 426 482 L438 511 Q443 519 448 522.5 Q453 526 464 526 L522 526 L422 64 L435 49 L500 49 L489 0 L399 0 Q384 0 371 2 Q358 4 349 9.5 Q340 15 336 25.5 Q332 36 335 54 L341 83 L339 83 Q308 45 266.5 17.5 Q225 -10 180 -10 Q111 -10 69.5 38 Q28 86 28 180 Z M210 60 Q240 60 280 84.5 Q320 109 353 150 L409 422 Q395 442 370 458.5 Q345 475 306 475 Q267 475 233 450 Q199 425 174 384.5 Q149 344 134.5 291 Q120 238 120 183 Q120 115 143.5 87.5 Q167 60 210 60 Z M205 697 L258 747 L274 747 L357 609 L326 582 L314 582 L205 697 Z " />
<glyph glyph-name="aacute" unicode="&#xe1;" horiz-adv-x="570" d="M28 180 Q28 258 50.5 323.5 Q73 389 110.5 436.5 Q148 484 196.5 510 Q245 536 298 536 Q345 536 376 519.5 Q407 503 426 482 L438 511 Q443 519 448 522.5 Q453 526 464 526 L522 526 L422 64 L435 49 L500 49 L489 0 L399 0 Q384 0 371 2 Q358 4 349 9.5 Q340 15 336 25.5 Q332 36 335 54 L341 83 L339 83 Q308 45 266.5 17.5 Q225 -10 180 -10 Q111 -10 69.5 38 Q28 86 28 180 Z M210 60 Q240 60 280 84.5 Q320 109 353 150 L409 422 Q395 442 370 458.5 Q345 475 306 475 Q267 475 233 450 Q199 425 174 384.5 Q149 344 134.5 291 Q120 238 120 183 Q120 115 143.5 87.5 Q167 60 210 60 Z M459 747 L490 697 L333 582 L317 582 L298 609 L439 747 L459 747 Z " />
<glyph glyph-name="acircumflex" unicode="&#xe2;" horiz-adv-x="570" d="M28 180 Q28 258 50.5 323.5 Q73 389 110.5 436.5 Q148 484 196.5 510 Q245 536 298 536 Q345 536 376 519.5 Q407 503 426 482 L438 511 Q443 519 448 522.5 Q453 526 464 526 L522 526 L422 64 L435 49 L500 49 L489 0 L399 0 Q384 0 371 2 Q358 4 349 9.5 Q340 15 336 25.5 Q332 36 335 54 L341 83 L339 83 Q308 45 266.5 17.5 Q225 -10 180 -10 Q111 -10 69.5 38 Q28 86 28 180 Z M210 60 Q240 60 280 84.5 Q320 109 353 150 L409 422 Q395 442 370 458.5 Q345 475 306 475 Q267 475 233 450 Q199 425 174 384.5 Q149 344 134.5 291 Q120 238 120 183 Q120 115 143.5 87.5 Q167 60 210 60 Z M208 579 L194 600 L342 747 L376 747 L462 600 L440 579 L428 579 L348 679 L226 579 L208 579 Z " />
<glyph glyph-name="atilde" unicode="&#xe3;" horiz-adv-x="570" d="M28 180 Q28 258 50.5 323.5 Q73 389 110.5 436.5 Q148 484 196.5 510 Q245 536 298 536 Q345 536 376 519.5 Q407 503 426 482 L438 511 Q443 519 448 522.5 Q453 526 464 526 L522 526 L422 64 L435 49 L500 49 L489 0 L399 0 Q384 0 371 2 Q358 4 349 9.5 Q340 15 336 25.5 Q332 36 335 54 L341 83 L339 83 Q308 45 266.5 17.5 Q225 -10 180 -10 Q111 -10 69.5 38 Q28 86 28 180 Z M210 60 Q240 60 280 84.5 Q320 109 353 150 L409 422 Q395 442 370 458.5 Q345 475 306 475 Q267 475 233 450 Q199 425 174 384.5 Q149 344 134.5 291 Q120 238 120 183 Q120 115 143.5 87.5 Q167 60 210 60 Z M424 658 Q444 658 454 667 Q464 676 466 687 L473 719 L514 719 L505 680 Q496 638 474.5 618.5 Q453 599 414 599 Q393 599 374 607 Q355 615 337 625 Q319 635 301.5 643 Q284 651 265 651 Q246 651 235 643 Q224 635 222 624 L215 590 L173 590 L180 625 Q191 672 212.5 692 Q234 712 272 712 Q292 712 310.5 703.5 Q329 695 347 685 Q365 675 384 666.5 Q403 658 424 658 Z " />
<glyph glyph-name="adieresis" unicode="&#xe4;" horiz-adv-x="570" d="M28 180 Q28 258 50.5 323.5 Q73 389 110.5 436.5 Q148 484 196.5 510 Q245 536 298 536 Q345 536 376 519.5 Q407 503 426 482 L438 511 Q443 519 448 522.5 Q453 526 464 526 L522 526 L422 64 L435 49 L500 49 L489 0 L399 0 Q384 0 371 2 Q358 4 349 9.5 Q340 15 336 25.5 Q332 36 335 54 L341 83 L339 83 Q308 45 266.5 17.5 Q225 -10 180 -10 Q111 -10 69.5 38 Q28 86 28 180 Z M210 60 Q240 60 280 84.5 Q320 109 353 150 L409 422 Q395 442 370 458.5 Q345 475 306 475 Q267 475 233 450 Q199 425 174 384.5 Q149 344 134.5 291 Q120 238 120 183 Q120 115 143.5 87.5 Q167 60 210 60 Z M230 651 Q230 671 245.5 687.5 Q261 704 287 704 Q304 704 314.5 692.5 Q325 681 325 666 Q325 644 309 629 Q293 614 269 614 Q251 614 240.5 625 Q230 636 230 651 Z M367 651 Q367 671 383 687.5 Q399 704 424 704 Q441 704 451.5 692.5 Q462 681 462 666 Q462 644 446.5 629 Q431 614 406 614 Q388 614 377.5 625 Q367 636 367 651 Z " />
<glyph glyph-name="aring" unicode="&#xe5;" horiz-adv-x="570" d="M28 180 Q28 258 50.5 323.5 Q73 389 110.5 436.5 Q148 484 196.5 510 Q245 536 298 536 Q345 536 376 519.5 Q407 503 426 482 L438 511 Q443 519 448 522.5 Q453 526 464 526 L522 526 L422 64 L435 49 L500 49 L489 0 L399 0 Q384 0 371 2 Q358 4 349 9.5 Q340 15 336 25.5 Q332 36 335 54 L341 83 L339 83 Q308 45 266.5 17.5 Q225 -10 180 -10 Q111 -10 69.5 38 Q28 86 28 180 Z M210 60 Q240 60 280 84.5 Q320 109 353 150 L409 422 Q395 442 370 458.5 Q345 475 306 475 Q267 475 233 450 Q199 425 174 384.5 Q149 344 134.5 291 Q120 238 120 183 Q120 115 143.5 87.5 Q167 60 210 60 Z M360 740 Q403 740 430 721.5 Q457 703 457 668 Q457 643 446.5 625 Q436 607 418.5 595.5 Q401 584 378.5 578.5 Q356 573 331 573 Q289 573 261.5 590.5 Q234 608 234 642 Q234 667 244 685.5 Q254 704 271 716 Q288 728 311 734 Q334 740 360 740 Z M284 645 Q284 604 335 604 Q367 604 387 621 Q407 638 407 667 Q407 708 355 708 Q324 708 304 691 Q284 674 284 645 Z " />
<glyph glyph-name="ae" unicode="&#xe6;" horiz-adv-x="784" d="M114 505 Q121 508 138 513 Q155 518 179 523 Q203 528 232.5 532 Q262 536 294 536 Q356 536 388 514.5 Q420 493 427 451 Q463 493 509.5 514.5 Q556 536 607 536 Q640 536 668.5 528 Q697 520 718.5 504 Q740 488 752 464.5 Q764 441 764 410 Q764 374 747 347 Q730 320 702 300.5 Q674 281 638.5 268.5 Q603 256 564.5 248.5 Q526 241 488.5 237.5 Q451 234 420 234 Q419 224 419 213 L419 191 Q419 121 452.5 85.5 Q486 50 546 50 Q581 50 613.5 60.5 Q646 71 677 89 L695 51 Q664 28 620.5 9 Q577 -10 517 -10 Q459 -10 413.5 14.5 Q368 39 346 90 Q337 81 318 64 Q299 47 273 30.5 Q247 14 215 2 Q183 -10 146 -10 Q107 -10 80 1 Q53 12 36.5 30 Q20 48 13 72 Q6 96 6 122 Q6 164 20.5 195 Q35 226 61 246 Q87 266 123 276 Q159 286 202 286 L339 286 L353 352 Q359 377 359 398 Q359 432 339.5 453 Q320 474 267 474 Q244 474 220.5 470 Q197 466 177 461 L161 446 L143 367 L85 367 L114 505 Z M600 479 Q572 479 544.5 467.5 Q517 456 494 432 Q471 408 453 371.5 Q435 335 426 285 Q461 285 505.5 289 Q550 293 589 305 Q628 317 655 340 Q682 363 682 402 Q682 440 657.5 459.5 Q633 479 600 479 Z M328 185 Q328 197 328.5 209.5 Q329 222 330 234 L214 234 Q193 234 172 229.5 Q151 225 134.5 213.5 Q118 202 107.5 183.5 Q97 165 97 137 Q97 103 114 81.5 Q131 60 173 60 Q198 60 222 67 Q246 74 267 84 Q288 94 305 105.5 Q322 117 334 127 Q328 154 328 185 Z " />
<glyph glyph-name="ccedilla" unicode="&#xe7;" horiz-adv-x="467" d="M389 63 Q356 27 311 8.5 Q266 -10 214 -10 Q176 -10 142 1.5 Q108 13 83 37 Q58 61 43.5 98 Q29 135 29 185 Q29 271 53 336.5 Q77 402 118 446.5 Q159 491 213 513.5 Q267 536 327 536 Q379 536 415 527 Q451 518 462 513 L433 378 L376 378 L392 456 L383 468 Q370 472 354.5 474.5 Q339 477 321 477 Q274 477 237 455 Q200 433 174.5 395 Q149 357 135 307 Q121 257 121 200 Q121 124 154.5 87.5 Q188 51 243 51 Q278 51 312.5 65.5 Q347 80 371 99 L389 63 Z M120 -50 L180 11 L229 9 L181 -41 Q219 -43 242 -57 Q265 -71 265 -99 Q265 -122 254 -137.5 Q243 -153 225.5 -162.5 Q208 -172 186 -176 Q164 -180 142 -180 Q113 -180 88.5 -173 Q64 -166 50 -156 L69 -124 Q78 -130 98.5 -137 Q119 -144 142 -144 Q165 -144 183 -136 Q201 -128 201 -106 Q201 -87 178 -77 Q155 -67 117 -63 L120 -50 Z " />
<glyph glyph-name="egrave" unicode="&#xe8;" horiz-adv-x="488" d="M221 -10 Q181 -10 146 1.5 Q111 13 85.5 37 Q60 61 45 98 Q30 135 30 186 Q30 271 53.5 336 Q77 401 116 445.5 Q155 490 206 513 Q257 536 312 536 Q344 536 372 528 Q400 520 421 504 Q442 488 454 464.5 Q466 441 466 410 Q466 373 449 345 Q432 317 404 296 Q376 275 340 261 Q304 247 266 237.5 Q228 228 190 222.5 Q152 217 121 213 L121 192 Q121 121 154.5 85.5 Q188 50 250 50 Q285 50 318 62.5 Q351 75 382 97 L402 60 Q370 31 325.5 10.5 Q281 -10 221 -10 Z M304 479 Q274 479 245.5 466.5 Q217 454 192.5 427.5 Q168 401 150.5 360 Q133 319 126 263 Q160 267 204 273.5 Q248 280 287.5 294 Q327 308 354.5 333.5 Q382 359 382 402 Q382 440 359 459.5 Q336 479 304 479 Z M205 697 L258 747 L274 747 L357 609 L326 582 L314 582 L205 697 Z " />
<glyph glyph-name="eacute" unicode="&#xe9;" horiz-adv-x="488" d="M459 747 L490 697 L333 582 L317 582 L298 609 L439 747 L459 747 Z M221 -10 Q181 -10 146 1.5 Q111 13 85.5 37 Q60 61 45 98 Q30 135 30 186 Q30 271 53.5 336 Q77 401 116 445.5 Q155 490 206 513 Q257 536 312 536 Q344 536 372 528 Q400 520 421 504 Q442 488 454 464.5 Q466 441 466 410 Q466 373 449 345 Q432 317 404 296 Q376 275 340 261 Q304 247 266 237.5 Q228 228 190 222.5 Q152 217 121 213 L121 192 Q121 121 154.5 85.5 Q188 50 250 50 Q285 50 318 62.5 Q351 75 382 97 L402 60 Q370 31 325.5 10.5 Q281 -10 221 -10 Z M304 479 Q274 479 245.5 466.5 Q217 454 192.5 427.5 Q168 401 150.5 360 Q133 319 126 263 Q160 267 204 273.5 Q248 280 287.5 294 Q327 308 354.5 333.5 Q382 359 382 402 Q382 440 359 459.5 Q336 479 304 479 Z " />
<glyph glyph-name="ecircumflex" unicode="&#xea;" horiz-adv-x="488" d="M208 579 L194 600 L342 747 L376 747 L462 600 L440 579 L428 579 L348 679 L226 579 L208 579 Z M221 -10 Q181 -10 146 1.5 Q111 13 85.5 37 Q60 61 45 98 Q30 135 30 186 Q30 271 53.5 336 Q77 401 116 445.5 Q155 490 206 513 Q257 536 312 536 Q344 536 372 528 Q400 520 421 504 Q442 488 454 464.5 Q466 441 466 410 Q466 373 449 345 Q432 317 404 296 Q376 275 340 261 Q304 247 266 237.5 Q228 228 190 222.5 Q152 217 121 213 L121 192 Q121 121 154.5 85.5 Q188 50 250 50 Q285 50 318 62.5 Q351 75 382 97 L402 60 Q370 31 325.5 10.5 Q281 -10 221 -10 Z M304 479 Q274 479 245.5 466.5 Q217 454 192.5 427.5 Q168 401 150.5 360 Q133 319 126 263 Q160 267 204 273.5 Q248 280 287.5 294 Q327 308 354.5 333.5 Q382 359 382 402 Q382 440 359 459.5 Q336 479 304 479 Z " />
<glyph glyph-name="edieresis" unicode="&#xeb;" horiz-adv-x="488" d="M230 651 Q230 671 245.5 687.5 Q261 704 287 704 Q304 704 314.5 692.5 Q325 681 325 666 Q325 644 309 629 Q293 614 269 614 Q251 614 240.5 625 Q230 636 230 651 Z M367 651 Q367 671 383 687.5 Q399 704 424 704 Q441 704 451.5 692.5 Q462 681 462 666 Q462 644 446.5 629 Q431 614 406 614 Q388 614 377.5 625 Q367 636 367 651 Z M221 -10 Q181 -10 146 1.5 Q111 13 85.5 37 Q60 61 45 98 Q30 135 30 186 Q30 271 53.5 336 Q77 401 116 445.5 Q155 490 206 513 Q257 536 312 536 Q344 536 372 528 Q400 520 421 504 Q442 488 454 464.5 Q466 441 466 410 Q466 373 449 345 Q432 317 404 296 Q376 275 340 261 Q304 247 266 237.5 Q228 228 190 222.5 Q152 217 121 213 L121 192 Q121 121 154.5 85.5 Q188 50 250 50 Q285 50 318 62.5 Q351 75 382 97 L402 60 Q370 31 325.5 10.5 Q281 -10 221 -10 Z M304 479 Q274 479 245.5 466.5 Q217 454 192.5 427.5 Q168 401 150.5 360 Q133 319 126 263 Q160 267 204 273.5 Q248 280 287.5 294 Q327 308 354.5 333.5 Q382 359 382 402 Q382 440 359 459.5 Q336 479 304 479 Z " />
<glyph glyph-name="igrave" unicode="&#xec;" horiz-adv-x="286" d="M131 459 L121 474 L54 474 L66 526 L193 526 Q220 526 225.5 515 Q231 504 227 484 L137 64 L149 49 L214 49 L204 0 L109 0 Q74 0 57 12.5 Q40 25 49 67 L131 459 Z M79 697 L132 747 L148 747 L231 609 L200 582 L188 582 L79 697 Z " />
<glyph glyph-name="iacute" unicode="&#xed;" horiz-adv-x="286" d="M323 747 L354 697 L197 582 L181 582 L162 609 L303 747 L323 747 Z M131 459 L121 474 L54 474 L66 526 L193 526 Q220 526 225.5 515 Q231 504 227 484 L137 64 L149 49 L214 49 L204 0 L109 0 Q74 0 57 12.5 Q40 25 49 67 L131 459 Z " />
<glyph glyph-name="icircumflex" unicode="&#xee;" horiz-adv-x="286" d="M63 579 L49 600 L197 747 L231 747 L317 600 L295 579 L283 579 L203 679 L81 579 L63 579 Z M131 459 L121 474 L54 474 L66 526 L193 526 Q220 526 225.5 515 Q231 504 227 484 L137 64 L149 49 L214 49 L204 0 L109 0 Q74 0 57 12.5 Q40 25 49 67 L131 459 Z " />
<glyph glyph-name="idieresis" unicode="&#xef;" horiz-adv-x="286" d="M76 651 Q76 671 91.5 687.5 Q107 704 133 704 Q150 704 160.5 692.5 Q171 681 171 666 Q171 644 155 629 Q139 614 115 614 Q97 614 86.5 625 Q76 636 76 651 Z M213 651 Q213 671 229 687.5 Q245 704 270 704 Q287 704 297.5 692.5 Q308 681 308 666 Q308 644 292.5 629 Q277 614 252 614 Q234 614 223.5 625 Q213 636 213 651 Z M131 459 L121 474 L54 474 L66 526 L193 526 Q220 526 225.5 515 Q231 504 227 484 L137 64 L149 49 L214 49 L204 0 L109 0 Q74 0 57 12.5 Q40 25 49 67 L131 459 Z " />
<glyph glyph-name="eth" unicode="&#xf0;" horiz-adv-x="547" d="M252 617 L327 649 Q300 681 264 707 L300 741 Q351 713 386 675 L472 713 L482 677 L411 646 Q461 581 480.5 499.5 Q500 418 500 335 Q500 250 476.5 185.5 Q453 121 414 77.5 Q375 34 325.5 12 Q276 -10 225 -10 Q183 -10 147.5 3 Q112 16 86 41.5 Q60 67 45.5 105.5 Q31 144 31 195 Q31 279 54.5 343 Q78 407 116 450 Q154 493 203.5 514.5 Q253 536 305 536 Q332 536 356.5 528.5 Q381 521 399 507 Q381 572 349 620 L260 582 L252 617 Z M123 193 Q123 119 147.5 83.5 Q172 48 229 48 Q268 48 301 72.5 Q334 97 358 137.5 Q382 178 395 231 Q408 284 408 341 Q408 409 383.5 443 Q359 477 303 477 Q263 477 230 453 Q197 429 173 389.5 Q149 350 136 298.5 Q123 247 123 193 Z " />
<glyph glyph-name="ntilde" unicode="&#xf1;" horiz-adv-x="581" d="M33 0 L131 459 L120 474 L53 474 L65 526 L191 526 Q217 526 222 515 Q227 504 223 486 L214 443 L216 443 Q247 479 291.5 507.5 Q336 536 393 536 Q453 536 484 502.5 Q515 469 515 415 Q515 392 509 365 L444 64 L455 49 L521 49 L511 0 L416 0 Q381 0 364 12.5 Q347 25 356 67 L419 362 Q424 385 424 400 Q424 430 410.5 447.5 Q397 465 358 465 Q339 465 318 458.5 Q297 452 277 440 Q257 428 238 412 Q219 396 203 377 L123 0 L33 0 Z M451 658 Q471 658 481 667 Q491 676 493 687 L500 719 L541 719 L532 680 Q523 638 501.5 618.5 Q480 599 441 599 Q420 599 401 607 Q382 615 364 625 Q346 635 328.5 643 Q311 651 292 651 Q273 651 262 643 Q251 635 249 624 L242 590 L200 590 L207 625 Q218 672 239.5 692 Q261 712 299 712 Q319 712 337.5 703.5 Q356 695 374 685 Q392 675 411 666.5 Q430 658 451 658 Z " />
<glyph glyph-name="ograve" unicode="&#xf2;" horiz-adv-x="546" d="M123 193 Q123 119 147.5 83.5 Q172 48 229 48 Q268 48 301 72.5 Q334 97 358 137.5 Q382 178 395 231 Q408 284 408 341 Q408 409 383.5 443 Q359 477 303 477 Q263 477 230 453 Q197 429 173 389.5 Q149 350 136 298.5 Q123 247 123 193 Z M31 195 Q31 279 54.5 343 Q78 407 116 450 Q154 493 203.5 514.5 Q253 536 306 536 Q348 536 383.5 523.5 Q419 511 445 486 Q471 461 485.5 423.5 Q500 386 500 335 Q500 250 476.5 185.5 Q453 121 414 77.5 Q375 34 325.5 12 Q276 -10 225 -10 Q183 -10 147.5 3 Q112 16 86 41.5 Q60 67 45.5 105.5 Q31 144 31 195 Z M213 697 L266 747 L282 747 L365 609 L334 582 L322 582 L213 697 Z " />
<glyph glyph-name="oacute" unicode="&#xf3;" horiz-adv-x="546" d="M467 747 L498 697 L341 582 L325 582 L306 609 L447 747 L467 747 Z M123 193 Q123 119 147.5 83.5 Q172 48 229 48 Q268 48 301 72.5 Q334 97 358 137.5 Q382 178 395 231 Q408 284 408 341 Q408 409 383.5 443 Q359 477 303 477 Q263 477 230 453 Q197 429 173 389.5 Q149 350 136 298.5 Q123 247 123 193 Z M31 195 Q31 279 54.5 343 Q78 407 116 450 Q154 493 203.5 514.5 Q253 536 306 536 Q348 536 383.5 523.5 Q419 511 445 486 Q471 461 485.5 423.5 Q500 386 500 335 Q500 250 476.5 185.5 Q453 121 414 77.5 Q375 34 325.5 12 Q276 -10 225 -10 Q183 -10 147.5 3 Q112 16 86 41.5 Q60 67 45.5 105.5 Q31 144 31 195 Z " />
<glyph glyph-name="ocircumflex" unicode="&#xf4;" horiz-adv-x="546" d="M217 579 L203 600 L351 747 L385 747 L471 600 L449 579 L437 579 L357 679 L235 579 L217 579 Z M123 193 Q123 119 147.5 83.5 Q172 48 229 48 Q268 48 301 72.5 Q334 97 358 137.5 Q382 178 395 231 Q408 284 408 341 Q408 409 383.5 443 Q359 477 303 477 Q263 477 230 453 Q197 429 173 389.5 Q149 350 136 298.5 Q123 247 123 193 Z M31 195 Q31 279 54.5 343 Q78 407 116 450 Q154 493 203.5 514.5 Q253 536 306 536 Q348 536 383.5 523.5 Q419 511 445 486 Q471 461 485.5 423.5 Q500 386 500 335 Q500 250 476.5 185.5 Q453 121 414 77.5 Q375 34 325.5 12 Q276 -10 225 -10 Q183 -10 147.5 3 Q112 16 86 41.5 Q60 67 45.5 105.5 Q31 144 31 195 Z " />
<glyph glyph-name="otilde" unicode="&#xf5;" horiz-adv-x="546" d="M123 193 Q123 119 147.5 83.5 Q172 48 229 48 Q268 48 301 72.5 Q334 97 358 137.5 Q382 178 395 231 Q408 284 408 341 Q408 409 383.5 443 Q359 477 303 477 Q263 477 230 453 Q197 429 173 389.5 Q149 350 136 298.5 Q123 247 123 193 Z M31 195 Q31 279 54.5 343 Q78 407 116 450 Q154 493 203.5 514.5 Q253 536 306 536 Q348 536 383.5 523.5 Q419 511 445 486 Q471 461 485.5 423.5 Q500 386 500 335 Q500 250 476.5 185.5 Q453 121 414 77.5 Q375 34 325.5 12 Q276 -10 225 -10 Q183 -10 147.5 3 Q112 16 86 41.5 Q60 67 45.5 105.5 Q31 144 31 195 Z M432 658 Q452 658 462 667 Q472 676 474 687 L481 719 L522 719 L513 680 Q504 638 482.5 618.5 Q461 599 422 599 Q401 599 382 607 Q363 615 345 625 Q327 635 309.5 643 Q292 651 273 651 Q254 651 243 643 Q232 635 230 624 L223 590 L181 590 L188 625 Q199 672 220.5 692 Q242 712 280 712 Q300 712 318.5 703.5 Q337 695 355 685 Q373 675 392 666.5 Q411 658 432 658 Z " />
<glyph glyph-name="odieresis" unicode="&#xf6;" horiz-adv-x="546" d="M239 651 Q239 671 254.5 687.5 Q270 704 296 704 Q313 704 323.5 692.5 Q334 681 334 666 Q334 644 318 629 Q302 614 278 614 Q260 614 249.5 625 Q239 636 239 651 Z M376 651 Q376 671 392 687.5 Q408 704 433 704 Q450 704 460.5 692.5 Q471 681 471 666 Q471 644 455.5 629 Q440 614 415 614 Q397 614 386.5 625 Q376 636 376 651 Z M123 193 Q123 119 147.5 83.5 Q172 48 229 48 Q268 48 301 72.5 Q334 97 358 137.5 Q382 178 395 231 Q408 284 408 341 Q408 409 383.5 443 Q359 477 303 477 Q263 477 230 453 Q197 429 173 389.5 Q149 350 136 298.5 Q123 247 123 193 Z M31 195 Q31 279 54.5 343 Q78 407 116 450 Q154 493 203.5 514.5 Q253 536 306 536 Q348 536 383.5 523.5 Q419 511 445 486 Q471 461 485.5 423.5 Q500 386 500 335 Q500 250 476.5 185.5 Q453 121 414 77.5 Q375 34 325.5 12 Q276 -10 225 -10 Q183 -10 147.5 3 Q112 16 86 41.5 Q60 67 45.5 105.5 Q31 144 31 195 Z " />
<glyph glyph-name="divide" unicode="&#xf7;" horiz-adv-x="529" d="M224 494 Q224 514 238 527.5 Q252 541 271 541 Q290 541 304 527.5 Q318 514 318 494 Q318 475 304 461 Q290 447 271 447 Q252 447 238 461 Q224 475 224 494 Z M224 170 Q224 190 238 203.5 Q252 217 271 217 Q290 217 304 203.5 Q318 190 318 170 Q318 151 304 137 Q290 123 271 123 Q252 123 238 137 Q224 151 224 170 Z M70 362 L473 362 L473 303 L70 303 L70 362 Z " />
<glyph glyph-name="oslash" unicode="&#xf8;" horiz-adv-x="549" d="M32 195 Q32 279 55.5 343 Q79 407 117 450 Q155 493 204.5 514.5 Q254 536 307 536 Q351 536 387.5 522.5 Q424 509 450 481 L502 536 L555 536 L474 449 Q487 426 494 398 Q501 370 501 335 Q501 250 477.5 185.5 Q454 121 415 77.5 Q376 34 326.5 12 Q277 -10 226 -10 Q143 -10 91 37 L47 -10 L-7 -10 L65 67 Q49 92 40.5 123.5 Q32 155 32 195 Z M124 193 Q124 176 125.5 162 Q127 148 129 135 L396 422 Q372 477 304 477 Q264 477 231 453 Q198 429 174 389.5 Q150 350 137 298.5 Q124 247 124 193 Z M409 341 Q409 351 408.5 360 Q408 369 407 377 L143 93 Q167 48 230 48 Q269 48 302 72.5 Q335 97 359 137.5 Q383 178 396 231 Q409 284 409 341 Z " />
<glyph glyph-name="ugrave" unicode="&#xf9;" horiz-adv-x="577" d="M406 0 Q391 0 378 2 Q365 4 356 9.5 Q347 15 343.5 26 Q340 37 343 55 L349 83 L346 83 Q315 47 272 18.5 Q229 -10 175 -10 Q115 -10 84 23 Q53 56 53 110 Q53 134 59 161 L123 459 L111 474 L46 474 L57 526 L152 526 Q186 526 203.5 512.5 Q221 499 212 459 L148 163 Q146 153 145 143.5 Q144 134 144 125 Q144 98 157.5 79.5 Q171 61 209 61 Q247 61 287.5 86 Q328 111 360 150 L440 526 L529 526 L431 65 L442 49 L508 49 L502 25 Q500 20 499.5 16 Q499 12 498 8 L496 0 L406 0 Z M207 697 L260 747 L276 747 L359 609 L328 582 L316 582 L207 697 Z " />
<glyph glyph-name="uacute" unicode="&#xfa;" horiz-adv-x="577" d="M461 747 L492 697 L335 582 L319 582 L300 609 L441 747 L461 747 Z M406 0 Q391 0 378 2 Q365 4 356 9.5 Q347 15 343.5 26 Q340 37 343 55 L349 83 L346 83 Q315 47 272 18.5 Q229 -10 175 -10 Q115 -10 84 23 Q53 56 53 110 Q53 134 59 161 L123 459 L111 474 L46 474 L57 526 L152 526 Q186 526 203.5 512.5 Q221 499 212 459 L148 163 Q146 153 145 143.5 Q144 134 144 125 Q144 98 157.5 79.5 Q171 61 209 61 Q247 61 287.5 86 Q328 111 360 150 L440 526 L529 526 L431 65 L442 49 L508 49 L502 25 Q500 20 499.5 16 Q499 12 498 8 L496 0 L406 0 Z " />
<glyph glyph-name="ucircumflex" unicode="&#xfb;" horiz-adv-x="577" d="M210 579 L196 600 L344 747 L378 747 L464 600 L442 579 L430 579 L350 679 L228 579 L210 579 Z M406 0 Q391 0 378 2 Q365 4 356 9.5 Q347 15 343.5 26 Q340 37 343 55 L349 83 L346 83 Q315 47 272 18.5 Q229 -10 175 -10 Q115 -10 84 23 Q53 56 53 110 Q53 134 59 161 L123 459 L111 474 L46 474 L57 526 L152 526 Q186 526 203.5 512.5 Q221 499 212 459 L148 163 Q146 153 145 143.5 Q144 134 144 125 Q144 98 157.5 79.5 Q171 61 209 61 Q247 61 287.5 86 Q328 111 360 150 L440 526 L529 526 L431 65 L442 49 L508 49 L502 25 Q500 20 499.5 16 Q499 12 498 8 L496 0 L406 0 Z " />
<glyph glyph-name="udieresis" unicode="&#xfc;" horiz-adv-x="577" d="M232 651 Q232 671 247.5 687.5 Q263 704 289 704 Q306 704 316.5 692.5 Q327 681 327 666 Q327 644 311 629 Q295 614 271 614 Q253 614 242.5 625 Q232 636 232 651 Z M369 651 Q369 671 385 687.5 Q401 704 426 704 Q443 704 453.5 692.5 Q464 681 464 666 Q464 644 448.5 629 Q433 614 408 614 Q390 614 379.5 625 Q369 636 369 651 Z M406 0 Q391 0 378 2 Q365 4 356 9.5 Q347 15 343.5 26 Q340 37 343 55 L349 83 L346 83 Q315 47 272 18.5 Q229 -10 175 -10 Q115 -10 84 23 Q53 56 53 110 Q53 134 59 161 L123 459 L111 474 L46 474 L57 526 L152 526 Q186 526 203.5 512.5 Q221 499 212 459 L148 163 Q146 153 145 143.5 Q144 134 144 125 Q144 98 157.5 79.5 Q171 61 209 61 Q247 61 287.5 86 Q328 111 360 150 L440 526 L529 526 L431 65 L442 49 L508 49 L502 25 Q500 20 499.5 16 Q499 12 498 8 L496 0 L406 0 Z " />
<glyph glyph-name="yacute" unicode="&#xfd;" horiz-adv-x="542" d="M134 526 Q147 526 159 524 Q171 522 180.5 516 Q190 510 197 498 Q204 486 207 466 L258 107 L459 459 L450 474 L393 474 L404 526 L490 526 Q525 526 534 506.5 Q543 487 529 462 L204 -106 L214 -121 L279 -121 L269 -170 L40 -170 L49 -121 L119 -121 L138 -106 L192 -11 L117 460 L106 474 L40 474 L52 526 L134 526 Z M465 747 L496 697 L339 582 L323 582 L304 609 L445 747 L465 747 Z " />
<glyph glyph-name="ygrave" unicode="&#x1ef3;" horiz-adv-x="542" d="M134 526 Q147 526 159 524 Q171 522 180.5 516 Q190 510 197 498 Q204 486 207 466 L258 107 L459 459 L450 474 L393 474 L404 526 L490 526 Q525 526 534 506.5 Q543 487 529 462 L204 -106 L214 -121 L279 -121 L269 -170 L40 -170 L49 -121 L119 -121 L138 -106 L192 -11 L117 460 L106 474 L40 474 L52 526 L134 526 Z M194 697 L247 747 L263 747 L346 609 L315 582 L303 582 L194 697 Z " />
<glyph glyph-name="thorn" unicode="&#xfe;" horiz-adv-x="554" d="M202 446 Q233 482 273 509 Q313 536 358 536 Q427 536 468.5 486 Q510 436 510 341 Q510 264 487.5 199.5 Q465 135 428 88.5 Q391 42 342 16 Q293 -10 241 -10 Q196 -10 165.5 5 Q135 20 116 40 L85 -106 L95 -121 L164 -121 L153 -170 L-98 -170 L-87 -121 L-22 -121 L-4 -106 L158 664 L148 678 L82 678 L93 730 L220 730 Q247 730 252.5 718.5 Q258 707 254 690 L202 446 Z M328 466 Q313 466 295.5 459.5 Q278 453 259.5 441.5 Q241 430 222.5 414 Q204 398 188 379 L129 102 Q144 82 169 66.5 Q194 51 232 51 Q271 51 305 75.5 Q339 100 364 140 Q389 180 403.5 231.5 Q418 283 418 338 Q418 408 395 437 Q372 466 328 466 Z " />
<glyph glyph-name="ydieresis" unicode="&#xff;" horiz-adv-x="542" d="M134 526 Q147 526 159 524 Q171 522 180.5 516 Q190 510 197 498 Q204 486 207 466 L258 107 L459 459 L450 474 L393 474 L404 526 L490 526 Q525 526 534 506.5 Q543 487 529 462 L204 -106 L214 -121 L279 -121 L269 -170 L40 -170 L49 -121 L119 -121 L138 -106 L192 -11 L117 460 L106 474 L40 474 L52 526 L134 526 Z M234 651 Q234 671 249.5 687.5 Q265 704 291 704 Q308 704 318.5 692.5 Q329 681 329 666 Q329 644 313 629 Q297 614 273 614 Q255 614 244.5 625 Q234 636 234 651 Z M371 651 Q371 671 387 687.5 Q403 704 428 704 Q445 704 455.5 692.5 Q466 681 466 666 Q466 644 450.5 629 Q435 614 410 614 Q392 614 381.5 625 Q371 636 371 651 Z " />
<glyph glyph-name="Amacron" unicode="&#x100;" horiz-adv-x="660" d="M429 204 L172 204 L97 64 L107 52 L171 52 L160 0 L-69 0 L-59 52 L3 52 L21 66 L370 702 L459 702 L542 64 L554 52 L615 52 L604 0 L361 0 L371 52 L433 52 L446 64 L429 204 Z M203 263 L422 263 L383 598 L203 263 Z M314 856 L563 856 L552 801 L303 801 L314 856 Z " />
<glyph glyph-name="amacron" unicode="&#x101;" horiz-adv-x="570" d="M28 180 Q28 258 50.5 323.5 Q73 389 110.5 436.5 Q148 484 196.5 510 Q245 536 298 536 Q345 536 376 519.5 Q407 503 426 482 L438 511 Q443 519 448 522.5 Q453 526 464 526 L522 526 L422 64 L435 49 L500 49 L489 0 L399 0 Q384 0 371 2 Q358 4 349 9.5 Q340 15 336 25.5 Q332 36 335 54 L341 83 L339 83 Q308 45 266.5 17.5 Q225 -10 180 -10 Q111 -10 69.5 38 Q28 86 28 180 Z M210 60 Q240 60 280 84.5 Q320 109 353 150 L409 422 Q395 442 370 458.5 Q345 475 306 475 Q267 475 233 450 Q199 425 174 384.5 Q149 344 134.5 291 Q120 238 120 183 Q120 115 143.5 87.5 Q167 60 210 60 Z M223 681 L473 681 L461 626 L212 626 L223 681 Z " />
<glyph glyph-name="Abreve" unicode="&#x102;" horiz-adv-x="660" d="M429 204 L172 204 L97 64 L107 52 L171 52 L160 0 L-69 0 L-59 52 L3 52 L21 66 L370 702 L459 702 L542 64 L554 52 L615 52 L604 0 L361 0 L371 52 L433 52 L446 64 L429 204 Z M203 263 L422 263 L383 598 L203 263 Z M564 881 Q556 859 543 839 Q530 819 512 803.5 Q494 788 471 778.5 Q448 769 421 769 Q395 769 376.5 778 Q358 787 346 802.5 Q334 818 328.5 838.5 Q323 859 323 881 L368 892 Q368 864 382 842.5 Q396 821 430 821 Q465 821 488.5 842 Q512 863 524 890 L564 881 Z " />
<glyph glyph-name="abreve" unicode="&#x103;" horiz-adv-x="570" d="M28 180 Q28 258 50.5 323.5 Q73 389 110.5 436.5 Q148 484 196.5 510 Q245 536 298 536 Q345 536 376 519.5 Q407 503 426 482 L438 511 Q443 519 448 522.5 Q453 526 464 526 L522 526 L422 64 L435 49 L500 49 L489 0 L399 0 Q384 0 371 2 Q358 4 349 9.5 Q340 15 336 25.5 Q332 36 335 54 L341 83 L339 83 Q308 45 266.5 17.5 Q225 -10 180 -10 Q111 -10 69.5 38 Q28 86 28 180 Z M210 60 Q240 60 280 84.5 Q320 109 353 150 L409 422 Q395 442 370 458.5 Q345 475 306 475 Q267 475 233 450 Q199 425 174 384.5 Q149 344 134.5 291 Q120 238 120 183 Q120 115 143.5 87.5 Q167 60 210 60 Z M473 704 Q465 682 452 661.5 Q439 641 421 625 Q403 609 380 599.5 Q357 590 330 590 Q304 590 285.5 599.5 Q267 609 255 624.5 Q243 640 237.5 660.5 Q232 681 232 704 L277 716 Q277 688 291 666.5 Q305 645 339 645 Q374 645 397 666 Q420 687 433 714 L473 704 Z " />
<glyph glyph-name="Aogonek" unicode="&#x104;" horiz-adv-x="659" d="M428 204 L171 204 L96 64 L106 52 L170 52 L159 0 L-70 0 L-60 52 L2 52 L20 66 L370 702 L458 702 L541 64 L553 52 L614 52 L603 0 L555 0 Q529 -5 505.5 -14 Q482 -23 464 -35 Q446 -47 435.5 -63 Q425 -79 425 -99 Q425 -124 440 -134 Q455 -144 481 -144 Q501 -144 524 -137 Q547 -130 558 -123 L567 -151 Q548 -163 518 -171.5 Q488 -180 456 -180 Q411 -180 385.5 -163.5 Q360 -147 360 -112 Q360 -71 388 -44 Q416 -17 458 0 L360 0 L370 52 L432 52 L445 64 L428 204 Z M203 263 L422 263 L382 598 L203 263 Z " />
<glyph glyph-name="aogonek" unicode="&#x105;" horiz-adv-x="570" d="M28 180 Q28 258 50.5 323.5 Q73 389 110.5 436.5 Q148 484 196.5 510 Q245 536 298 536 Q345 536 376 519.5 Q407 503 426 482 L438 511 Q443 519 448 522.5 Q453 526 464 526 L522 526 L422 64 L435 49 L500 49 L489 0 L461 0 Q434 -5 410 -13.5 Q386 -22 368 -34 Q350 -46 339 -62.5 Q328 -79 328 -99 Q328 -124 343 -134 Q358 -144 384 -144 Q405 -144 427.5 -137 Q450 -130 462 -123 L471 -151 Q452 -163 422 -171.5 Q392 -180 360 -180 Q314 -180 288.5 -163.5 Q263 -147 263 -112 Q263 -70 292.5 -42.5 Q322 -15 366 2 Q349 6 339.5 17 Q330 28 335 54 L341 83 L339 83 Q308 45 266.5 17.5 Q225 -10 180 -10 Q111 -10 69.5 38 Q28 86 28 180 Z M210 60 Q240 60 280 84.5 Q320 109 353 150 L409 422 Q395 442 370 458.5 Q345 475 306 475 Q267 475 233 450 Q199 425 174 384.5 Q149 344 134.5 291 Q120 238 120 183 Q120 115 143.5 87.5 Q167 60 210 60 Z " />
<glyph glyph-name="Cacute" unicode="&#x106;" horiz-adv-x="580" d="M479 24 Q446 10 402.5 0 Q359 -10 299 -10 Q240 -10 194 7.5 Q148 25 116.5 57.5 Q85 90 68.5 135.5 Q52 181 52 238 Q52 350 79.5 437.5 Q107 525 159 585.5 Q211 646 284.5 678 Q358 710 451 710 Q512 710 554.5 700.5 Q597 691 609 683 L577 531 L517 531 L536 620 L527 633 Q510 640 490 643.5 Q470 647 444 647 Q379 647 325.5 622 Q272 597 233.5 547.5 Q195 498 173.5 422.5 Q152 347 152 247 Q152 156 193.5 105.5 Q235 55 321 55 Q348 55 370.5 58.5 Q393 62 414 69 L430 82 L450 175 L510 175 L479 24 Z M467 756 L448 783 L589 922 L609 922 L640 871 L483 756 L467 756 Z " />
<glyph glyph-name="cacute" unicode="&#x107;" horiz-adv-x="467" d="M480 747 L511 697 L354 582 L338 582 L319 609 L460 747 L480 747 Z M389 63 Q356 27 311 8.5 Q266 -10 214 -10 Q176 -10 142 1.5 Q108 13 83 37 Q58 61 43.5 98 Q29 135 29 185 Q29 271 53 336.5 Q77 402 118 446.5 Q159 491 213 513.5 Q267 536 327 536 Q379 536 415 527 Q451 518 462 513 L433 378 L376 378 L392 456 L383 468 Q370 472 354.5 474.5 Q339 477 321 477 Q274 477 237 455 Q200 433 174.5 395 Q149 357 135 307 Q121 257 121 200 Q121 124 154.5 87.5 Q188 51 243 51 Q278 51 312.5 65.5 Q347 80 371 99 L389 63 Z " />
<glyph glyph-name="Ccircumflex" unicode="&#x108;" horiz-adv-x="580" d="M479 24 Q446 10 402.5 0 Q359 -10 299 -10 Q240 -10 194 7.5 Q148 25 116.5 57.5 Q85 90 68.5 135.5 Q52 181 52 238 Q52 350 79.5 437.5 Q107 525 159 585.5 Q211 646 284.5 678 Q358 710 451 710 Q512 710 554.5 700.5 Q597 691 609 683 L577 531 L517 531 L536 620 L527 633 Q510 640 490 643.5 Q470 647 444 647 Q379 647 325.5 622 Q272 597 233.5 547.5 Q195 498 173.5 422.5 Q152 347 152 247 Q152 156 193.5 105.5 Q235 55 321 55 Q348 55 370.5 58.5 Q393 62 414 69 L430 82 L450 175 L510 175 L479 24 Z M348 756 L335 776 L483 924 L517 924 L603 776 L580 756 L569 756 L488 855 L367 756 L348 756 Z " />
<glyph glyph-name="ccircumflex" unicode="&#x109;" horiz-adv-x="467" d="M230 579 L216 600 L364 747 L398 747 L484 600 L462 579 L450 579 L370 679 L248 579 L230 579 Z M389 63 Q356 27 311 8.5 Q266 -10 214 -10 Q176 -10 142 1.5 Q108 13 83 37 Q58 61 43.5 98 Q29 135 29 185 Q29 271 53 336.5 Q77 402 118 446.5 Q159 491 213 513.5 Q267 536 327 536 Q379 536 415 527 Q451 518 462 513 L433 378 L376 378 L392 456 L383 468 Q370 472 354.5 474.5 Q339 477 321 477 Q274 477 237 455 Q200 433 174.5 395 Q149 357 135 307 Q121 257 121 200 Q121 124 154.5 87.5 Q188 51 243 51 Q278 51 312.5 65.5 Q347 80 371 99 L389 63 Z " />
<glyph glyph-name="Cdotaccent" unicode="&#x10a;" horiz-adv-x="580" d="M427 827 Q427 853 445.5 872 Q464 891 495 891 Q517 891 530 877.5 Q543 864 543 845 Q543 819 524 800 Q505 781 474 781 Q452 781 439.5 794.5 Q427 808 427 827 Z M479 24 Q446 10 402.5 0 Q359 -10 299 -10 Q240 -10 194 7.5 Q148 25 116.5 57.5 Q85 90 68.5 135.5 Q52 181 52 238 Q52 350 79.5 437.5 Q107 525 159 585.5 Q211 646 284.5 678 Q358 710 451 710 Q512 710 554.5 700.5 Q597 691 609 683 L577 531 L517 531 L536 620 L527 633 Q510 640 490 643.5 Q470 647 444 647 Q379 647 325.5 622 Q272 597 233.5 547.5 Q195 498 173.5 422.5 Q152 347 152 247 Q152 156 193.5 105.5 Q235 55 321 55 Q348 55 370.5 58.5 Q393 62 414 69 L430 82 L450 175 L510 175 L479 24 Z " />
<glyph glyph-name="cdotaccent" unicode="&#x10b;" horiz-adv-x="467" d="M389 63 Q356 27 311 8.5 Q266 -10 214 -10 Q176 -10 142 1.5 Q108 13 83 37 Q58 61 43.5 98 Q29 135 29 185 Q29 271 53 336.5 Q77 402 118 446.5 Q159 491 213 513.5 Q267 536 327 536 Q379 536 415 527 Q451 518 462 513 L433 378 L376 378 L392 456 L383 468 Q370 472 354.5 474.5 Q339 477 321 477 Q274 477 237 455 Q200 433 174.5 395 Q149 357 135 307 Q121 257 121 200 Q121 124 154.5 87.5 Q188 51 243 51 Q278 51 312.5 65.5 Q347 80 371 99 L389 63 Z M309 653 Q309 678 327.5 698 Q346 718 377 718 Q399 718 412 704 Q425 690 425 671 Q425 645 406 626 Q387 607 356 607 Q335 607 322 620.5 Q309 634 309 653 Z " />
<glyph glyph-name="Ccaron" unicode="&#x10c;" horiz-adv-x="580" d="M479 24 Q446 10 402.5 0 Q359 -10 299 -10 Q240 -10 194 7.5 Q148 25 116.5 57.5 Q85 90 68.5 135.5 Q52 181 52 238 Q52 350 79.5 437.5 Q107 525 159 585.5 Q211 646 284.5 678 Q358 710 451 710 Q512 710 554.5 700.5 Q597 691 609 683 L577 531 L517 531 L536 620 L527 633 Q510 640 490 643.5 Q470 647 444 647 Q379 647 325.5 622 Q272 597 233.5 547.5 Q195 498 173.5 422.5 Q152 347 152 247 Q152 156 193.5 105.5 Q235 55 321 55 Q348 55 370.5 58.5 Q393 62 414 69 L430 82 L450 175 L510 175 L479 24 Z M487 756 L454 756 L368 903 L389 924 L402 924 L481 824 L604 924 L622 924 L636 903 L487 756 Z " />
<glyph glyph-name="ccaron" unicode="&#x10d;" horiz-adv-x="467" d="M368 582 L335 582 L249 729 L270 749 L283 749 L363 650 L485 749 L503 749 L517 729 L368 582 Z M389 63 Q356 27 311 8.5 Q266 -10 214 -10 Q176 -10 142 1.5 Q108 13 83 37 Q58 61 43.5 98 Q29 135 29 185 Q29 271 53 336.5 Q77 402 118 446.5 Q159 491 213 513.5 Q267 536 327 536 Q379 536 415 527 Q451 518 462 513 L433 378 L376 378 L392 456 L383 468 Q370 472 354.5 474.5 Q339 477 321 477 Q274 477 237 455 Q200 433 174.5 395 Q149 357 135 307 Q121 257 121 200 Q121 124 154.5 87.5 Q188 51 243 51 Q278 51 312.5 65.5 Q347 80 371 99 L389 63 Z " />
<glyph glyph-name="Dcaron" unicode="&#x10e;" horiz-adv-x="699" d="M-8 52 L57 52 L74 66 L195 634 L183 648 L118 648 L130 700 L409 700 Q468 700 516 684 Q564 668 597.5 636.5 Q631 605 649 559 Q667 513 667 452 Q667 345 640.5 261 Q614 177 564 119 Q514 61 442 30.5 Q370 0 280 0 L-19 0 L-8 52 Z M169 61 L294 61 Q353 61 403 86.5 Q453 112 489 161.5 Q525 211 545.5 283.5 Q566 356 566 451 Q566 639 397 639 L292 639 L169 61 Z M457 756 L424 756 L338 903 L359 924 L372 924 L451 824 L574 924 L592 924 L606 903 L457 756 Z " />
<glyph glyph-name="dcaron" unicode="&#x10f;" horiz-adv-x="598" d="M610 582 L649 780 L710 780 L694 699 L660 582 L610 582 Z M494 25 Q492 20 491.5 16 Q491 12 490 8 Q489 4 489 0 L399 0 Q384 0 371 2 Q358 4 349 9.5 Q340 15 336 25.5 Q332 36 335 54 L341 83 L339 83 Q308 45 266.5 17.5 Q225 -10 180 -10 Q111 -10 69.5 38 Q28 86 28 180 Q28 258 50.5 323.5 Q73 389 110.5 436.5 Q148 484 196.5 510 Q245 536 298 536 Q344 536 374.5 520 Q405 504 424 484 L463 663 L451 678 L386 678 L398 730 L524 730 Q550 730 555.5 718.5 Q561 707 557 690 L423 64 L435 49 L500 49 L494 25 Z M120 183 Q120 115 143.5 87.5 Q167 60 210 60 Q240 60 280 84 Q320 108 353 149 L410 421 Q396 442 371 458.5 Q346 475 306 475 Q267 475 233 450 Q199 425 174 384.5 Q149 344 134.5 291 Q120 238 120 183 Z " />
<glyph glyph-name="Dcroat" unicode="&#x110;" horiz-adv-x="700" d="M58 381 L142 381 L196 634 L184 648 L119 648 L131 700 L410 700 Q469 700 517 684 Q565 668 598.5 636.5 Q632 605 650 559 Q668 513 668 452 Q668 345 641.5 261 Q615 177 565 119 Q515 61 443 30.5 Q371 0 281 0 L-18 0 L-7 52 L58 52 L75 66 L132 334 L46 334 L58 381 Z M238 381 L405 381 L393 334 L227 334 L170 61 L295 61 Q354 61 404 86.5 Q454 112 490 161.5 Q526 211 546.5 283.5 Q567 356 567 451 Q567 639 398 639 L293 639 L238 381 Z " />
<glyph glyph-name="dcroat" unicode="&#x111;" horiz-adv-x="569" d="M347 629 L455 629 L463 663 L451 678 L386 678 L398 730 L524 730 Q550 730 555.5 718.5 Q561 707 557 690 L544 629 L636 629 L627 583 L534 583 L423 64 L435 49 L500 49 L494 25 Q492 20 491.5 16 Q491 12 490 8 Q489 4 489 0 L399 0 Q384 0 371 2 Q358 4 349 9.5 Q340 15 336 25.5 Q332 36 335 54 L341 83 L339 83 Q308 45 266.5 17.5 Q225 -10 180 -10 Q111 -10 69.5 38 Q28 86 28 180 Q28 258 50.5 323.5 Q73 389 110.5 436.5 Q148 484 196.5 510 Q245 536 298 536 Q344 536 374.5 520 Q405 504 424 484 L445 583 L338 583 L347 629 Z M120 183 Q120 115 143.5 87.5 Q167 60 210 60 Q240 60 280 84 Q320 108 353 149 L410 421 Q396 442 371 458.5 Q346 475 306 475 Q267 475 233 450 Q199 425 174 384.5 Q149 344 134.5 291 Q120 238 120 183 Z " />
<glyph glyph-name="Emacron" unicode="&#x112;" horiz-adv-x="614" d="M292 641 L239 386 L417 386 L433 400 L447 466 L500 466 L454 251 L402 251 L416 317 L405 330 L226 330 L169 59 L446 59 L463 73 L482 161 L539 161 L504 0 L-19 0 L-8 52 L58 52 L75 66 L195 634 L183 648 L118 648 L130 700 L643 700 L608 540 L551 540 L569 628 L558 641 L292 641 Z M323 856 L572 856 L561 801 L312 801 L323 856 Z " />
<glyph glyph-name="emacron" unicode="&#x113;" horiz-adv-x="488" d="M221 -10 Q181 -10 146 1.5 Q111 13 85.5 37 Q60 61 45 98 Q30 135 30 186 Q30 271 53.5 336 Q77 401 116 445.5 Q155 490 206 513 Q257 536 312 536 Q344 536 372 528 Q400 520 421 504 Q442 488 454 464.5 Q466 441 466 410 Q466 373 449 345 Q432 317 404 296 Q376 275 340 261 Q304 247 266 237.5 Q228 228 190 222.5 Q152 217 121 213 L121 192 Q121 121 154.5 85.5 Q188 50 250 50 Q285 50 318 62.5 Q351 75 382 97 L402 60 Q370 31 325.5 10.5 Q281 -10 221 -10 Z M304 479 Q274 479 245.5 466.5 Q217 454 192.5 427.5 Q168 401 150.5 360 Q133 319 126 263 Q160 267 204 273.5 Q248 280 287.5 294 Q327 308 354.5 333.5 Q382 359 382 402 Q382 440 359 459.5 Q336 479 304 479 Z M223 681 L473 681 L461 626 L212 626 L223 681 Z " />
<glyph glyph-name="Ebreve" unicode="&#x114;" horiz-adv-x="614" d="M292 641 L239 386 L417 386 L433 400 L447 466 L500 466 L454 251 L402 251 L416 317 L405 330 L226 330 L169 59 L446 59 L463 73 L482 161 L539 161 L504 0 L-19 0 L-8 52 L58 52 L75 66 L195 634 L183 648 L118 648 L130 700 L643 700 L608 540 L551 540 L569 628 L558 641 L292 641 Z M574 881 Q566 859 553 839 Q540 819 522 803.5 Q504 788 481 778.5 Q458 769 431 769 Q405 769 386.5 778 Q368 787 356 802.5 Q344 818 338.5 838.5 Q333 859 333 881 L378 892 Q378 864 392 842.5 Q406 821 440 821 Q475 821 498.5 842 Q522 863 534 890 L574 881 Z " />
<glyph glyph-name="ebreve" unicode="&#x115;" horiz-adv-x="488" d="M221 -10 Q181 -10 146 1.5 Q111 13 85.5 37 Q60 61 45 98 Q30 135 30 186 Q30 271 53.5 336 Q77 401 116 445.5 Q155 490 206 513 Q257 536 312 536 Q344 536 372 528 Q400 520 421 504 Q442 488 454 464.5 Q466 441 466 410 Q466 373 449 345 Q432 317 404 296 Q376 275 340 261 Q304 247 266 237.5 Q228 228 190 222.5 Q152 217 121 213 L121 192 Q121 121 154.5 85.5 Q188 50 250 50 Q285 50 318 62.5 Q351 75 382 97 L402 60 Q370 31 325.5 10.5 Q281 -10 221 -10 Z M304 479 Q274 479 245.5 466.5 Q217 454 192.5 427.5 Q168 401 150.5 360 Q133 319 126 263 Q160 267 204 273.5 Q248 280 287.5 294 Q327 308 354.5 333.5 Q382 359 382 402 Q382 440 359 459.5 Q336 479 304 479 Z M473 704 Q465 682 452 661.5 Q439 641 421 625 Q403 609 380 599.5 Q357 590 330 590 Q304 590 285.5 599.5 Q267 609 255 624.5 Q243 640 237.5 660.5 Q232 681 232 704 L277 716 Q277 688 291 666.5 Q305 645 339 645 Q374 645 397 666 Q420 687 433 714 L473 704 Z " />
<glyph glyph-name="Edotaccent" unicode="&#x116;" horiz-adv-x="614" d="M386 827 Q386 853 404.5 872 Q423 891 454 891 Q476 891 489 877.5 Q502 864 502 845 Q502 819 483 800 Q464 781 433 781 Q411 781 398.5 794.5 Q386 808 386 827 Z M292 641 L239 386 L417 386 L433 400 L447 466 L500 466 L454 251 L402 251 L416 317 L405 330 L226 330 L169 59 L446 59 L463 73 L482 161 L539 161 L504 0 L-19 0 L-8 52 L58 52 L75 66 L195 634 L183 648 L118 648 L130 700 L643 700 L608 540 L551 540 L569 628 L558 641 L292 641 Z " />
<glyph glyph-name="edotaccent" unicode="&#x117;" horiz-adv-x="488" d="M221 -10 Q181 -10 146 1.5 Q111 13 85.5 37 Q60 61 45 98 Q30 135 30 186 Q30 271 53.5 336 Q77 401 116 445.5 Q155 490 206 513 Q257 536 312 536 Q344 536 372 528 Q400 520 421 504 Q442 488 454 464.5 Q466 441 466 410 Q466 373 449 345 Q432 317 404 296 Q376 275 340 261 Q304 247 266 237.5 Q228 228 190 222.5 Q152 217 121 213 L121 192 Q121 121 154.5 85.5 Q188 50 250 50 Q285 50 318 62.5 Q351 75 382 97 L402 60 Q370 31 325.5 10.5 Q281 -10 221 -10 Z M304 479 Q274 479 245.5 466.5 Q217 454 192.5 427.5 Q168 401 150.5 360 Q133 319 126 263 Q160 267 204 273.5 Q248 280 287.5 294 Q327 308 354.5 333.5 Q382 359 382 402 Q382 440 359 459.5 Q336 479 304 479 Z M287 653 Q287 678 305.5 698 Q324 718 355 718 Q377 718 390 704 Q403 690 403 671 Q403 645 384 626 Q365 607 334 607 Q313 607 300 620.5 Q287 634 287 653 Z " />
<glyph glyph-name="Eogonek" unicode="&#x118;" horiz-adv-x="612" d="M291 641 L238 386 L416 386 L432 400 L446 466 L499 466 L453 251 L401 251 L415 317 L404 330 L225 330 L168 59 L445 59 L462 73 L481 161 L538 161 L503 0 L454 0 Q427 -5 403.5 -13.5 Q380 -22 362 -34.5 Q344 -47 333.5 -63 Q323 -79 323 -99 Q323 -124 337.5 -134 Q352 -144 378 -144 Q399 -144 422 -137 Q445 -130 456 -123 L465 -151 Q446 -163 416 -171.5 Q386 -180 354 -180 Q308 -180 282.5 -163.5 Q257 -147 257 -112 Q257 -71 285.5 -44 Q314 -17 356 0 L-20 0 L-9 52 L57 52 L74 66 L194 634 L182 648 L117 648 L129 700 L642 700 L607 540 L550 540 L568 628 L557 641 L291 641 Z " />
<glyph glyph-name="eogonek" unicode="&#x119;" horiz-adv-x="488" d="M234 -180 Q188 -180 162.5 -162.5 Q137 -145 137 -109 Q137 -77 154.5 -52 Q172 -27 200 -9 Q163 -6 132 6.5 Q101 19 78.5 43 Q56 67 43 102.5 Q30 138 30 186 Q30 271 53 336 Q76 401 115 445.5 Q154 490 205 513 Q256 536 311 536 Q343 536 371 528 Q399 520 420 504 Q441 488 453 464.5 Q465 441 465 410 Q465 373 448 345 Q431 317 403 296.5 Q375 276 339.5 262 Q304 248 265.5 238.5 Q227 229 189.5 223 Q152 217 121 214 L121 192 Q121 121 154 85.5 Q187 50 249 50 Q284 50 317 62.5 Q350 75 381 97 L401 60 Q381 43 356.5 27 Q332 11 300 2 Q258 -11 230.5 -36 Q203 -61 203 -96 Q203 -123 217.5 -133.5 Q232 -144 258 -144 Q279 -144 302 -137 Q325 -130 336 -123 L345 -151 Q326 -163 296 -171.5 Q266 -180 234 -180 Z M303 479 Q274 479 245 466.5 Q216 454 192 427.5 Q168 401 150 360 Q132 319 125 263 Q159 267 203 273.5 Q247 280 287 294 Q327 308 354.5 333.5 Q382 359 382 402 Q382 440 358.5 459.5 Q335 479 303 479 Z " />
<glyph glyph-name="Ecaron" unicode="&#x11a;" horiz-adv-x="614" d="M292 641 L239 386 L417 386 L433 400 L447 466 L500 466 L454 251 L402 251 L416 317 L405 330 L226 330 L169 59 L446 59 L463 73 L482 161 L539 161 L504 0 L-19 0 L-8 52 L58 52 L75 66 L195 634 L183 648 L118 648 L130 700 L643 700 L608 540 L551 540 L569 628 L558 641 L292 641 Z M447 756 L414 756 L328 903 L349 924 L362 924 L441 824 L564 924 L582 924 L596 903 L447 756 Z " />
<glyph glyph-name="ecaron" unicode="&#x11b;" horiz-adv-x="488" d="M346 582 L313 582 L227 729 L248 749 L261 749 L341 650 L463 749 L481 749 L495 729 L346 582 Z M221 -10 Q181 -10 146 1.5 Q111 13 85.5 37 Q60 61 45 98 Q30 135 30 186 Q30 271 53.5 336 Q77 401 116 445.5 Q155 490 206 513 Q257 536 312 536 Q344 536 372 528 Q400 520 421 504 Q442 488 454 464.5 Q466 441 466 410 Q466 373 449 345 Q432 317 404 296 Q376 275 340 261 Q304 247 266 237.5 Q228 228 190 222.5 Q152 217 121 213 L121 192 Q121 121 154.5 85.5 Q188 50 250 50 Q285 50 318 62.5 Q351 75 382 97 L402 60 Q370 31 325.5 10.5 Q281 -10 221 -10 Z M304 479 Q274 479 245.5 466.5 Q217 454 192.5 427.5 Q168 401 150.5 360 Q133 319 126 263 Q160 267 204 273.5 Q248 280 287.5 294 Q327 308 354.5 333.5 Q382 359 382 402 Q382 440 359 459.5 Q336 479 304 479 Z " />
<glyph glyph-name="Gcircumflex" unicode="&#x11c;" horiz-adv-x="637" d="M343 756 L330 776 L478 924 L512 924 L598 776 L575 756 L564 756 L483 855 L362 756 L343 756 Z M487 24 Q454 10 410 0 Q366 -10 306 -10 Q183 -10 117.5 57.5 Q52 125 52 239 Q52 353 80.5 440.5 Q109 528 160.5 588 Q212 648 284.5 679 Q357 710 446 710 Q515 710 562 700.5 Q609 691 623 683 L591 531 L531 531 L550 620 L541 631 Q521 639 498 643.5 Q475 648 444 648 Q377 648 323 623 Q269 598 231 548 Q193 498 172.5 423 Q152 348 152 247 Q152 155 195 103 Q238 51 323 51 Q346 51 370.5 54.5 Q395 58 411 65 L456 277 L444 291 L386 291 L398 343 L617 343 L605 291 L556 291 L540 277 L487 24 Z " />
<glyph glyph-name="gcircumflex" unicode="&#x11d;" horiz-adv-x="535" d="M189 579 L175 600 L323 747 L357 747 L443 600 L421 579 L409 579 L329 679 L207 579 L189 579 Z M63 343 Q63 390 81 426 Q99 462 129.5 486.5 Q160 511 200 523.5 Q240 536 283 536 Q303 536 322 533.5 Q341 531 359 526 L544 526 L533 474 L445 474 L440 470 Q462 437 462 392 Q462 345 443.5 308.5 Q425 272 394.5 247 Q364 222 324 209.5 Q284 197 241 197 Q219 197 199.5 199.5 Q180 202 161 209 Q139 198 126 185 Q113 172 113 155 Q113 121 171 121 L307 121 Q374 121 415 92.5 Q456 64 456 -1 Q456 -45 433.5 -78.5 Q411 -112 372 -134.5 Q333 -157 279.5 -168.5 Q226 -180 165 -180 Q121 -180 85.5 -174 Q50 -168 24.5 -155 Q-1 -142 -15 -121 Q-29 -100 -29 -69 Q-29 -45 -19 -26.5 Q-9 -8 6.5 6 Q22 20 41 30 Q60 40 77 47 Q28 65 28 118 Q28 154 51 181.5 Q74 209 118 228 Q93 246 78 275 Q63 304 63 343 Z M147 348 Q147 297 173.5 272 Q200 247 245 247 Q273 247 297.5 256.5 Q322 266 340 284 Q358 302 368.5 328 Q379 354 379 386 Q379 439 352.5 462.5 Q326 486 278 486 Q251 486 227 476 Q203 466 185 448 Q167 430 157 404.5 Q147 379 147 348 Z M126 37 Q115 32 103 24 Q91 16 80.5 4.5 Q70 -7 63 -21.5 Q56 -36 56 -54 Q56 -94 85 -111.5 Q114 -129 174 -129 Q263 -129 317 -102 Q371 -75 371 -26 Q371 8 350 22.5 Q329 37 279 37 L126 37 Z " />
<glyph glyph-name="Gbreve" unicode="&#x11e;" horiz-adv-x="637" d="M487 24 Q454 10 410 0 Q366 -10 306 -10 Q183 -10 117.5 57.5 Q52 125 52 239 Q52 353 80.5 440.5 Q109 528 160.5 588 Q212 648 284.5 679 Q357 710 446 710 Q515 710 562 700.5 Q609 691 623 683 L591 531 L531 531 L550 620 L541 631 Q521 639 498 643.5 Q475 648 444 648 Q377 648 323 623 Q269 598 231 548 Q193 498 172.5 423 Q152 348 152 247 Q152 155 195 103 Q238 51 323 51 Q346 51 370.5 54.5 Q395 58 411 65 L456 277 L444 291 L386 291 L398 343 L617 343 L605 291 L556 291 L540 277 L487 24 Z M609 881 Q601 859 588 839 Q575 819 557 803.5 Q539 788 516 778.5 Q493 769 466 769 Q440 769 421.5 778 Q403 787 391 802.5 Q379 818 373.5 838.5 Q368 859 368 881 L413 892 Q413 864 427 842.5 Q441 821 475 821 Q510 821 533.5 842 Q557 863 569 890 L609 881 Z " />
<glyph glyph-name="gbreve" unicode="&#x11f;" horiz-adv-x="535" d="M63 343 Q63 390 81 426 Q99 462 129.5 486.5 Q160 511 200 523.5 Q240 536 283 536 Q303 536 322 533.5 Q341 531 359 526 L544 526 L533 474 L445 474 L440 470 Q462 437 462 392 Q462 345 443.5 308.5 Q425 272 394.5 247 Q364 222 324 209.5 Q284 197 241 197 Q219 197 199.5 199.5 Q180 202 161 209 Q139 198 126 185 Q113 172 113 155 Q113 121 171 121 L307 121 Q374 121 415 92.5 Q456 64 456 -1 Q456 -45 433.5 -78.5 Q411 -112 372 -134.5 Q333 -157 279.5 -168.5 Q226 -180 165 -180 Q121 -180 85.5 -174 Q50 -168 24.5 -155 Q-1 -142 -15 -121 Q-29 -100 -29 -69 Q-29 -45 -19 -26.5 Q-9 -8 6.5 6 Q22 20 41 30 Q60 40 77 47 Q28 65 28 118 Q28 154 51 181.5 Q74 209 118 228 Q93 246 78 275 Q63 304 63 343 Z M147 348 Q147 297 173.5 272 Q200 247 245 247 Q273 247 297.5 256.5 Q322 266 340 284 Q358 302 368.5 328 Q379 354 379 386 Q379 439 352.5 462.5 Q326 486 278 486 Q251 486 227 476 Q203 466 185 448 Q167 430 157 404.5 Q147 379 147 348 Z M126 37 Q115 32 103 24 Q91 16 80.5 4.5 Q70 -7 63 -21.5 Q56 -36 56 -54 Q56 -94 85 -111.5 Q114 -129 174 -129 Q263 -129 317 -102 Q371 -75 371 -26 Q371 8 350 22.5 Q329 37 279 37 L126 37 Z M454 704 Q446 682 433 661.5 Q420 641 402 625 Q384 609 361 599.5 Q338 590 311 590 Q285 590 266.5 599.5 Q248 609 236 624.5 Q224 640 218.5 660.5 Q213 681 213 704 L258 716 Q258 688 272 666.5 Q286 645 320 645 Q355 645 378 666 Q401 687 414 714 L454 704 Z " />
<glyph glyph-name="Gdotaccent" unicode="&#x120;" horiz-adv-x="637" d="M422 827 Q422 853 440.5 872 Q459 891 490 891 Q512 891 525 877.5 Q538 864 538 845 Q538 819 519 800 Q500 781 469 781 Q447 781 434.5 794.5 Q422 808 422 827 Z M487 24 Q454 10 410 0 Q366 -10 306 -10 Q183 -10 117.5 57.5 Q52 125 52 239 Q52 353 80.5 440.5 Q109 528 160.5 588 Q212 648 284.5 679 Q357 710 446 710 Q515 710 562 700.5 Q609 691 623 683 L591 531 L531 531 L550 620 L541 631 Q521 639 498 643.5 Q475 648 444 648 Q377 648 323 623 Q269 598 231 548 Q193 498 172.5 423 Q152 348 152 247 Q152 155 195 103 Q238 51 323 51 Q346 51 370.5 54.5 Q395 58 411 65 L456 277 L444 291 L386 291 L398 343 L617 343 L605 291 L556 291 L540 277 L487 24 Z " />
<glyph glyph-name="gdotaccent" unicode="&#x121;" horiz-adv-x="535" d="M63 343 Q63 390 81 426 Q99 462 129.5 486.5 Q160 511 200 523.5 Q240 536 283 536 Q303 536 322 533.5 Q341 531 359 526 L544 526 L533 474 L445 474 L440 470 Q462 437 462 392 Q462 345 443.5 308.5 Q425 272 394.5 247 Q364 222 324 209.5 Q284 197 241 197 Q219 197 199.5 199.5 Q180 202 161 209 Q139 198 126 185 Q113 172 113 155 Q113 121 171 121 L307 121 Q374 121 415 92.5 Q456 64 456 -1 Q456 -45 433.5 -78.5 Q411 -112 372 -134.5 Q333 -157 279.5 -168.5 Q226 -180 165 -180 Q121 -180 85.5 -174 Q50 -168 24.5 -155 Q-1 -142 -15 -121 Q-29 -100 -29 -69 Q-29 -45 -19 -26.5 Q-9 -8 6.5 6 Q22 20 41 30 Q60 40 77 47 Q28 65 28 118 Q28 154 51 181.5 Q74 209 118 228 Q93 246 78 275 Q63 304 63 343 Z M147 348 Q147 297 173.5 272 Q200 247 245 247 Q273 247 297.5 256.5 Q322 266 340 284 Q358 302 368.5 328 Q379 354 379 386 Q379 439 352.5 462.5 Q326 486 278 486 Q251 486 227 476 Q203 466 185 448 Q167 430 157 404.5 Q147 379 147 348 Z M126 37 Q115 32 103 24 Q91 16 80.5 4.5 Q70 -7 63 -21.5 Q56 -36 56 -54 Q56 -94 85 -111.5 Q114 -129 174 -129 Q263 -129 317 -102 Q371 -75 371 -26 Q371 8 350 22.5 Q329 37 279 37 L126 37 Z M268 653 Q268 678 286.5 698 Q305 718 336 718 Q358 718 371 704 Q384 690 384 671 Q384 645 365 626 Q346 607 315 607 Q294 607 281 620.5 Q268 634 268 653 Z " />
<glyph glyph-name="uni0122" unicode="&#x122;" horiz-adv-x="637" d="M248 -196 L246 -177 Q237 -172 232.5 -163 Q228 -154 228 -144 Q228 -122 243.5 -104.5 Q259 -87 286 -87 Q306 -87 319 -98.5 Q332 -110 332 -128 Q332 -142 326 -153 Q320 -164 312 -175 L236 -276 Q234 -276 220 -267 L204 -257 L248 -196 Z M487 24 Q454 10 410 0 Q366 -10 306 -10 Q183 -10 117.5 57.5 Q52 125 52 239 Q52 353 80.5 440.5 Q109 528 160.5 588 Q212 648 284.5 679 Q357 710 446 710 Q515 710 562 700.5 Q609 691 623 683 L591 531 L531 531 L550 620 L541 631 Q521 639 498 643.5 Q475 648 444 648 Q377 648 323 623 Q269 598 231 548 Q193 498 172.5 423 Q152 348 152 247 Q152 155 195 103 Q238 51 323 51 Q346 51 370.5 54.5 Q395 58 411 65 L456 277 L444 291 L386 291 L398 343 L617 343 L605 291 L556 291 L540 277 L487 24 Z " />
<glyph glyph-name="uni0123" unicode="&#x123;" horiz-adv-x="535" d="M394 664 Q394 642 379 624.5 Q364 607 336 607 Q316 607 303.5 618.5 Q291 630 291 648 Q291 662 297 673 Q303 684 311 695 L385 793 L416 774 L374 716 L377 697 Q394 686 394 664 Z M63 343 Q63 390 81 426 Q99 462 129.5 486.5 Q160 511 200 523.5 Q240 536 283 536 Q303 536 322 533.5 Q341 531 359 526 L544 526 L533 474 L445 474 L440 470 Q462 437 462 392 Q462 345 443.5 308.5 Q425 272 394.5 247 Q364 222 324 209.5 Q284 197 241 197 Q219 197 199.5 199.5 Q180 202 161 209 Q139 198 126 185 Q113 172 113 155 Q113 121 171 121 L307 121 Q374 121 415 92.5 Q456 64 456 -1 Q456 -45 433.5 -78.5 Q411 -112 372 -134.5 Q333 -157 279.5 -168.5 Q226 -180 165 -180 Q121 -180 85.5 -174 Q50 -168 24.5 -155 Q-1 -142 -15 -121 Q-29 -100 -29 -69 Q-29 -45 -19 -26.5 Q-9 -8 6.5 6 Q22 20 41 30 Q60 40 77 47 Q28 65 28 118 Q28 154 51 181.5 Q74 209 118 228 Q93 246 78 275 Q63 304 63 343 Z M147 348 Q147 297 173.5 272 Q200 247 245 247 Q273 247 297.5 256.5 Q322 266 340 284 Q358 302 368.5 328 Q379 354 379 386 Q379 439 352.5 462.5 Q326 486 278 486 Q251 486 227 476 Q203 466 185 448 Q167 430 157 404.5 Q147 379 147 348 Z M126 37 Q115 32 103 24 Q91 16 80.5 4.5 Q70 -7 63 -21.5 Q56 -36 56 -54 Q56 -94 85 -111.5 Q114 -129 174 -129 Q263 -129 317 -102 Q371 -75 371 -26 Q371 8 350 22.5 Q329 37 279 37 L126 37 Z " />
<glyph glyph-name="Hcircumflex" unicode="&#x124;" horiz-adv-x="729" d="M516 327 L224 327 L169 66 L180 52 L245 52 L234 0 L-20 0 L-8 52 L57 52 L74 66 L195 634 L183 648 L118 648 L130 700 L383 700 L372 648 L306 648 L290 634 L238 389 L530 389 L580 634 L570 648 L505 648 L516 700 L770 700 L759 648 L693 648 L676 634 L556 66 L567 52 L632 52 L621 0 L367 0 L379 52 L445 52 L461 66 L516 327 Z M337 756 L324 776 L472 924 L506 924 L592 776 L569 756 L558 756 L477 855 L356 756 L337 756 Z " />
<glyph glyph-name="hcircumflex" unicode="&#x125;" horiz-adv-x="566" d="M96 773 L82 794 L230 941 L264 941 L350 794 L328 773 L316 773 L236 873 L114 773 L96 773 Z M221 730 Q247 730 252.5 719 Q258 708 254 691 L201 444 Q232 480 276 508 Q320 536 377 536 Q437 536 468 502.5 Q499 469 499 415 Q499 392 493 365 L429 64 L440 49 L506 49 L495 0 L400 0 Q365 0 348 13 Q331 26 340 67 L403 362 Q408 385 408 400 Q408 430 395 447.5 Q382 465 342 465 Q304 465 261 440.5 Q218 416 187 376 L107 0 L17 0 L159 664 L149 678 L82 678 L94 730 L221 730 Z " />
<glyph glyph-name="Hbar" unicode="&#x126;" horiz-adv-x="730" d="M93 545 L177 545 L196 634 L184 648 L119 648 L131 700 L384 700 L373 648 L307 648 L291 634 L272 545 L563 545 L581 634 L571 648 L506 648 L517 700 L771 700 L760 648 L694 648 L677 634 L658 545 L736 545 L723 498 L648 498 L557 66 L568 52 L633 52 L622 0 L368 0 L380 52 L446 52 L462 66 L517 327 L225 327 L170 66 L181 52 L246 52 L235 0 L-19 0 L-7 52 L58 52 L75 66 L167 498 L81 498 L93 545 Z M531 389 L553 498 L262 498 L239 389 L531 389 Z " />
<glyph glyph-name="hbar" unicode="&#x127;" horiz-adv-x="566" d="M221 730 Q247 730 252.5 719 Q258 708 254 691 L241 629 L359 629 L350 583 L230 583 L201 444 Q232 480 276 508 Q320 536 377 536 Q437 536 468 502.5 Q499 469 499 415 Q499 392 493 365 L429 64 L440 49 L506 49 L495 0 L400 0 Q365 0 348 13 Q331 26 340 67 L403 362 Q408 385 408 400 Q408 430 395 447.5 Q382 465 342 465 Q304 465 261 440.5 Q218 416 187 376 L107 0 L17 0 L142 583 L61 583 L70 629 L152 629 L159 664 L149 678 L82 678 L94 730 L221 730 Z " />
<glyph glyph-name="Itilde" unicode="&#x128;" horiz-adv-x="343" d="M195 634 L183 648 L118 648 L130 700 L384 700 L372 648 L306 648 L290 634 L170 66 L180 52 L246 52 L235 0 L-19 0 L-8 52 L57 52 L74 66 L195 634 Z M458 896 L449 858 Q441 819 419.5 798 Q398 777 358 777 Q337 777 318.5 785 Q300 793 282 803 Q264 813 246.5 821 Q229 829 211 829 Q191 829 180 820 Q169 811 167 801 L159 767 L117 767 L125 803 Q135 847 157 868.5 Q179 890 218 890 Q238 890 256 881.5 Q274 873 292 862.5 Q310 852 328.5 843.5 Q347 835 368 835 Q389 835 399 845 Q409 855 411 865 L417 896 L458 896 Z " />
<glyph glyph-name="itilde" unicode="&#x129;" horiz-adv-x="286" d="M131 459 L121 474 L54 474 L66 526 L193 526 Q220 526 225.5 515 Q231 504 227 484 L137 64 L149 49 L214 49 L204 0 L109 0 Q74 0 57 12.5 Q40 25 49 67 L131 459 Z M275 658 Q295 658 305 667 Q315 676 317 687 L324 719 L365 719 L356 680 Q347 638 325.5 618.5 Q304 599 265 599 Q244 599 225 607 Q206 615 188 625 Q170 635 152.5 643 Q135 651 116 651 Q97 651 86 643 Q75 635 73 624 L66 590 L24 590 L31 625 Q42 672 63.5 692 Q85 712 123 712 Q143 712 161.5 703.5 Q180 695 198 685 Q216 675 235 666.5 Q254 658 275 658 Z " />
<glyph glyph-name="Imacron" unicode="&#x12a;" horiz-adv-x="343" d="M195 634 L183 648 L118 648 L130 700 L384 700 L372 648 L306 648 L290 634 L170 66 L180 52 L246 52 L235 0 L-19 0 L-8 52 L57 52 L74 66 L195 634 Z M169 856 L418 856 L407 801 L158 801 L169 856 Z " />
<glyph glyph-name="imacron" unicode="&#x12b;" horiz-adv-x="286" d="M131 459 L121 474 L54 474 L66 526 L193 526 Q220 526 225.5 515 Q231 504 227 484 L137 64 L149 49 L214 49 L204 0 L109 0 Q74 0 57 12.5 Q40 25 49 67 L131 459 Z M72 681 L322 681 L310 626 L61 626 L72 681 Z " />
<glyph glyph-name="Iogonek" unicode="&#x12e;" horiz-adv-x="341" d="M194 634 L182 648 L117 648 L129 700 L383 700 L371 648 L305 648 L289 634 L169 66 L179 52 L245 52 L234 0 L168 0 Q141 -5 117.5 -14 Q94 -23 76.5 -35 Q59 -47 48.5 -63 Q38 -79 38 -99 Q38 -124 53 -134 Q68 -144 94 -144 Q115 -144 137.5 -137 Q160 -130 171 -123 L181 -151 Q162 -163 131.5 -171.5 Q101 -180 69 -180 Q24 -180 -1.5 -163.5 Q-27 -147 -27 -112 Q-27 -71 1 -44 Q29 -17 71 0 L-20 0 L-9 52 L56 52 L73 66 L194 634 Z " />
<glyph glyph-name="iogonek" unicode="&#x12f;" horiz-adv-x="286" d="M131 459 L121 474 L54 474 L66 526 L193 526 Q220 526 225.5 515 Q231 504 227 484 L137 64 L149 49 L214 49 L204 0 L176 0 Q150 -5 126.5 -13 Q103 -21 85 -33.5 Q67 -46 56.5 -62.5 Q46 -79 46 -99 Q46 -124 61 -134 Q76 -144 102 -144 Q122 -144 143 -137 Q164 -130 175 -123 L184 -151 Q166 -163 137 -171.5 Q108 -180 78 -180 Q32 -180 6.5 -163.5 Q-19 -147 -19 -112 Q-19 -70 10 -43 Q39 -16 81 1 Q59 5 50 20 Q41 35 49 67 L131 459 Z M156 665 Q156 694 172.5 712 Q189 730 222 730 Q245 730 257.5 718 Q270 706 270 687 Q270 658 253.5 640.5 Q237 623 204 623 Q181 623 168.5 635.5 Q156 648 156 665 Z " />
<glyph glyph-name="Idotaccent" unicode="&#x130;" horiz-adv-x="343" d="M195 634 L183 648 L118 648 L130 700 L384 700 L372 648 L306 648 L290 634 L170 66 L180 52 L246 52 L235 0 L-19 0 L-8 52 L57 52 L74 66 L195 634 Z M232 827 Q232 853 250.5 872 Q269 891 300 891 Q322 891 335 877.5 Q348 864 348 845 Q348 819 329 800 Q310 781 279 781 Q257 781 244.5 794.5 Q232 808 232 827 Z " />
<glyph glyph-name="dotlessi" unicode="&#x131;" horiz-adv-x="286" d="M131 459 L121 474 L54 474 L66 526 L193 526 Q220 526 225.5 515 Q231 504 227 484 L137 64 L149 49 L214 49 L204 0 L109 0 Q74 0 57 12.5 Q40 25 49 67 L131 459 Z " />
<glyph glyph-name="IJ" unicode="&#x132;" horiz-adv-x="653" d="M188 634 L177 648 L112 648 L123 700 L377 700 L365 648 L300 648 L283 634 L210 284 L220 270 L287 270 L275 218 L21 218 L33 270 L97 270 L115 284 L188 634 Z M517 634 L505 648 L441 648 L452 700 L705 700 L694 648 L628 648 L612 634 L518 190 Q498 93 433 41.5 Q368 -10 261 -10 Q217 -10 186 -3.5 Q155 3 134 11.5 Q113 20 101 28.5 Q89 37 83 41 L111 169 L175 169 L156 82 L164 69 Q181 58 204 53.5 Q227 49 252 49 Q325 49 365.5 82 Q406 115 420 182 L517 634 Z " />
<glyph glyph-name="ij" unicode="&#x133;" horiz-adv-x="559" d="M131 459 L121 474 L54 474 L66 526 L193 526 Q220 526 225.5 515 Q231 504 227 484 L137 64 L149 49 L214 49 L204 0 L109 0 Q74 0 57 12.5 Q40 25 49 67 L131 459 Z M156 665 Q156 694 172.5 712 Q189 730 222 730 Q245 730 257.5 718 Q270 706 270 687 Q270 658 253.5 640.5 Q237 623 204 623 Q181 623 168.5 635.5 Q156 648 156 665 Z M484 526 Q510 526 516 515 Q522 504 517 484 L414 0 Q405 -44 390.5 -77.5 Q376 -111 353 -134 Q330 -157 297.5 -168.5 Q265 -180 219 -180 Q186 -180 166.5 -177 Q147 -174 142 -173 L163 -71 L217 -71 L206 -121 L216 -134 L226 -134 Q266 -134 288.5 -99.5 Q311 -65 324 -4 L423 459 L412 474 L345 474 L357 526 L484 526 Z M446 665 Q446 694 462.5 712 Q479 730 513 730 Q536 730 548 718 Q560 706 560 687 Q560 658 543.5 640.5 Q527 623 494 623 Q471 623 458.5 635.5 Q446 648 446 665 Z " />
<glyph glyph-name="Jcircumflex" unicode="&#x134;" horiz-adv-x="516" d="M379 634 L368 648 L303 648 L315 700 L568 700 L556 648 L491 648 L474 634 L380 190 Q360 93 299.5 41.5 Q239 -10 138 -10 Q97 -10 68.5 -3.5 Q40 3 20.5 11.5 Q1 20 -10.5 28.5 Q-22 37 -27 41 L2 175 L65 175 L46 83 L54 70 Q85 50 129 50 Q195 50 232 83 Q269 116 283 182 L379 634 Z M335 756 L322 776 L470 924 L504 924 L590 776 L567 756 L556 756 L475 855 L354 756 L335 756 Z " />
<glyph glyph-name="jcircumflex" unicode="&#x135;" horiz-adv-x="270" d="M59 579 L45 600 L193 747 L227 747 L313 600 L291 579 L279 579 L199 679 L77 579 L59 579 Z M125 0 Q116 -44 101.5 -77.5 Q87 -111 64 -134 Q41 -157 8.5 -168.5 Q-24 -180 -70 -180 Q-103 -180 -122.5 -177 Q-142 -174 -147 -173 L-126 -71 L-72 -71 L-83 -121 L-73 -134 L-63 -134 Q-23 -134 -0.5 -99.5 Q22 -65 35 -4 L133 459 L123 474 L56 474 L68 526 L195 526 Q221 526 227 515 Q233 504 228 484 L125 0 Z " />
<glyph glyph-name="uni0136" unicode="&#x136;" horiz-adv-x="689" d="M250 -196 L248 -177 Q239 -172 234.5 -163 Q230 -154 230 -144 Q230 -122 245.5 -104.5 Q261 -87 288 -87 Q308 -87 321 -98.5 Q334 -110 334 -128 Q334 -142 328 -153 Q322 -164 314 -175 L238 -276 Q236 -276 222 -267 L206 -257 L250 -196 Z M235 0 L-19 0 L-8 52 L57 52 L74 66 L195 634 L183 648 L118 648 L130 700 L384 700 L372 648 L306 648 L290 634 L237 386 L332 386 L581 639 L576 648 L518 648 L530 700 L751 700 L739 648 L682 648 L666 639 L405 378 L552 62 L562 52 L623 52 L612 0 L366 0 L376 52 L442 52 L449 59 L328 330 L225 330 L170 65 L180 52 L245 52 L235 0 Z " />
<glyph glyph-name="uni0137" unicode="&#x137;" horiz-adv-x="565" d="M177 -196 L175 -177 Q166 -172 161.5 -163 Q157 -154 157 -144 Q157 -122 172.5 -104.5 Q188 -87 215 -87 Q235 -87 248 -98.5 Q261 -110 261 -128 Q261 -142 255 -153 Q249 -164 241 -175 L165 -276 Q163 -276 149 -267 L133 -257 L177 -196 Z M318 309 L433 61 L446 49 L502 49 L493 0 L409 0 Q376 0 360.5 14.5 Q345 29 332 60 L241 266 L163 266 L107 0 L17 0 L159 664 L149 678 L82 678 L94 730 L221 730 Q247 730 252.5 719 Q258 708 254 691 L173 313 L245 313 L427 468 L424 474 L370 474 L381 526 L592 526 L580 474 L521 474 L502 462 L318 309 Z " />
<glyph glyph-name="kgreenlandic" unicode="&#x138;" horiz-adv-x="580" d="M189 313 L262 313 L444 468 L441 474 L389 474 L401 526 L608 526 L596 474 L541 474 L523 465 L335 310 L451 61 L464 49 L518 49 L509 0 L423 0 Q390 0 374.5 14.5 Q359 29 346 60 L256 266 L179 266 L123 0 L33 0 L131 459 L121 474 L54 474 L66 526 L192 526 Q219 526 225 515 Q231 504 226 484 L189 313 Z " />
<glyph glyph-name="Lacute" unicode="&#x139;" horiz-adv-x="565" d="M271 756 L252 783 L393 922 L413 922 L444 871 L287 756 L271 756 Z M169 62 L419 62 L437 76 L457 169 L513 169 L477 0 L-19 0 L-8 52 L57 52 L74 66 L195 634 L183 648 L118 648 L130 700 L384 700 L372 648 L306 648 L290 634 L169 62 Z " />
<glyph glyph-name="lacute" unicode="&#x13a;" horiz-adv-x="270" d="M359 940 L390 890 L233 775 L217 775 L198 802 L339 940 L359 940 Z M161 664 L151 678 L84 678 L96 730 L223 730 Q249 730 254 719 Q259 708 255 691 L121 64 L133 49 L198 49 L188 0 L93 0 Q60 0 42.5 12.5 Q25 25 33 66 L161 664 Z " />
<glyph glyph-name="uni013B" unicode="&#x13b;" horiz-adv-x="565" d="M215 -196 L213 -177 Q204 -172 199.5 -163 Q195 -154 195 -144 Q195 -122 210.5 -104.5 Q226 -87 253 -87 Q273 -87 286 -98.5 Q299 -110 299 -128 Q299 -142 293 -153 Q287 -164 279 -175 L203 -276 Q201 -276 187 -267 L171 -257 L215 -196 Z M169 62 L419 62 L437 76 L457 169 L513 169 L477 0 L-19 0 L-8 52 L57 52 L74 66 L195 634 L183 648 L118 648 L130 700 L384 700 L372 648 L306 648 L290 634 L169 62 Z " />
<glyph glyph-name="uni013C" unicode="&#x13c;" horiz-adv-x="271" d="M28 -196 L26 -177 Q17 -172 12.5 -163 Q8 -154 8 -144 Q8 -122 23.5 -104.5 Q39 -87 66 -87 Q86 -87 99 -98.5 Q112 -110 112 -128 Q112 -142 106 -153 Q100 -164 92 -175 L16 -276 Q14 -276 0 -267 L-16 -257 L28 -196 Z M161 664 L151 678 L84 678 L96 730 L223 730 Q249 730 254 719 Q259 708 255 691 L121 64 L133 49 L198 49 L188 0 L93 0 Q60 0 42.5 12.5 Q25 25 33 66 L161 664 Z " />
<glyph glyph-name="Lcaron" unicode="&#x13d;" horiz-adv-x="567" d="M486 582 L525 780 L586 780 L570 699 L536 582 L486 582 Z M168 62 L418 62 L436 76 L456 169 L512 169 L476 0 L-20 0 L-9 52 L56 52 L73 66 L194 634 L182 648 L117 648 L129 700 L383 700 L371 648 L305 648 L289 634 L168 62 Z " />
<glyph glyph-name="lcaron" unicode="&#x13e;" horiz-adv-x="297" d="M297 582 L336 780 L397 780 L381 699 L347 582 L297 582 Z M161 664 L151 678 L84 678 L96 730 L223 730 Q249 730 254 719 Q259 708 255 691 L121 64 L133 49 L198 49 L188 0 L93 0 Q60 0 42.5 12.5 Q25 25 33 66 L161 664 Z " />
<glyph glyph-name="Ldot" unicode="&#x13f;" horiz-adv-x="586" d="M430 363 Q430 388 448 408 Q466 428 498 428 Q520 428 533 414 Q546 400 546 381 Q546 355 527 336 Q508 317 477 317 Q456 317 443 330.5 Q430 344 430 363 Z M169 62 L419 62 L437 76 L457 169 L513 169 L477 0 L-19 0 L-8 52 L57 52 L74 66 L195 634 L183 648 L118 648 L130 700 L384 700 L372 648 L306 648 L290 634 L169 62 Z " />
<glyph glyph-name="ldot" unicode="&#x140;" horiz-adv-x="354" d="M262 357 Q262 382 280 402 Q298 422 330 422 Q352 422 365 408 Q378 394 378 375 Q378 349 359 330 Q340 311 309 311 Q288 311 275 324.5 Q262 338 262 357 Z M161 664 L151 678 L84 678 L96 730 L223 730 Q249 730 254 719 Q259 708 255 691 L121 64 L133 49 L198 49 L188 0 L93 0 Q60 0 42.5 12.5 Q25 25 33 66 L161 664 Z " />
<glyph glyph-name="Lslash" unicode="&#x141;" horiz-adv-x="565" d="M241 402 L388 479 L375 419 L228 342 L169 62 L420 62 L437 76 L457 169 L514 169 L478 0 L-19 0 L-7 52 L57 52 L75 66 L121 287 L24 237 L36 297 L134 348 L195 634 L184 648 L118 648 L130 700 L384 700 L372 648 L306 648 L290 634 L241 402 Z " />
<glyph glyph-name="lslash" unicode="&#x142;" horiz-adv-x="303" d="M23 300 L111 350 L178 664 L167 678 L101 678 L113 730 L240 730 Q266 730 271 719 Q276 708 272 691 L211 406 L330 474 L316 413 L198 346 L138 64 L150 49 L215 49 L205 0 L110 0 Q76 0 59 12.5 Q42 25 50 66 L98 289 L10 240 L23 300 Z " />
<glyph glyph-name="Nacute" unicode="&#x143;" horiz-adv-x="715" d="M443 756 L424 783 L565 922 L585 922 L616 871 L459 756 L443 756 Z M480 -2 L248 554 L144 66 L155 52 L221 52 L210 0 L-20 0 L-10 52 L55 52 L73 66 L194 634 L182 648 L117 648 L129 700 L282 700 L500 169 L599 634 L589 648 L523 648 L535 700 L765 700 L753 648 L688 648 L670 634 L536 -2 L480 -2 Z " />
<glyph glyph-name="nacute" unicode="&#x144;" horiz-adv-x="581" d="M499 747 L530 697 L373 582 L357 582 L338 609 L479 747 L499 747 Z M33 0 L131 459 L120 474 L53 474 L65 526 L191 526 Q217 526 222 515 Q227 504 223 486 L214 443 L216 443 Q247 479 291.5 507.5 Q336 536 393 536 Q453 536 484 502.5 Q515 469 515 415 Q515 392 509 365 L444 64 L455 49 L521 49 L511 0 L416 0 Q381 0 364 12.5 Q347 25 356 67 L419 362 Q424 385 424 400 Q424 430 410.5 447.5 Q397 465 358 465 Q339 465 318 458.5 Q297 452 277 440 Q257 428 238 412 Q219 396 203 377 L123 0 L33 0 Z " />
<glyph glyph-name="uni0145" unicode="&#x145;" horiz-adv-x="715" d="M242 -196 L240 -177 Q231 -172 226.5 -163 Q222 -154 222 -144 Q222 -122 237.5 -104.5 Q253 -87 280 -87 Q300 -87 313 -98.5 Q326 -110 326 -128 Q326 -142 320 -153 Q314 -164 306 -175 L230 -276 Q228 -276 214 -267 L198 -257 L242 -196 Z M480 -2 L248 554 L144 66 L155 52 L221 52 L210 0 L-20 0 L-10 52 L55 52 L73 66 L194 634 L182 648 L117 648 L129 700 L282 700 L500 169 L599 634 L589 648 L523 648 L535 700 L765 700 L753 648 L688 648 L670 634 L536 -2 L480 -2 Z " />
<glyph glyph-name="uni0146" unicode="&#x146;" horiz-adv-x="581" d="M190 -196 L188 -177 Q179 -172 174.5 -163 Q170 -154 170 -144 Q170 -122 185.5 -104.5 Q201 -87 228 -87 Q248 -87 261 -98.5 Q274 -110 274 -128 Q274 -142 268 -153 Q262 -164 254 -175 L178 -276 Q176 -276 162 -267 L146 -257 L190 -196 Z M33 0 L131 459 L120 474 L53 474 L65 526 L191 526 Q217 526 222 515 Q227 504 223 486 L214 443 L216 443 Q247 479 291.5 507.5 Q336 536 393 536 Q453 536 484 502.5 Q515 469 515 415 Q515 392 509 365 L444 64 L455 49 L521 49 L511 0 L416 0 Q381 0 364 12.5 Q347 25 356 67 L419 362 Q424 385 424 400 Q424 430 410.5 447.5 Q397 465 358 465 Q339 465 318 458.5 Q297 452 277 440 Q257 428 238 412 Q219 396 203 377 L123 0 L33 0 Z " />
<glyph glyph-name="Ncaron" unicode="&#x147;" horiz-adv-x="715" d="M480 -2 L248 554 L144 66 L155 52 L221 52 L210 0 L-20 0 L-10 52 L55 52 L73 66 L194 634 L182 648 L117 648 L129 700 L282 700 L500 169 L599 634 L589 648 L523 648 L535 700 L765 700 L753 648 L688 648 L670 634 L536 -2 L480 -2 Z M463 756 L430 756 L344 903 L365 924 L378 924 L457 824 L580 924 L598 924 L612 903 L463 756 Z " />
<glyph glyph-name="ncaron" unicode="&#x148;" horiz-adv-x="581" d="M386 582 L353 582 L267 729 L288 749 L301 749 L381 650 L503 749 L521 749 L535 729 L386 582 Z M33 0 L131 459 L120 474 L53 474 L65 526 L191 526 Q217 526 222 515 Q227 504 223 486 L214 443 L216 443 Q247 479 291.5 507.5 Q336 536 393 536 Q453 536 484 502.5 Q515 469 515 415 Q515 392 509 365 L444 64 L455 49 L521 49 L511 0 L416 0 Q381 0 364 12.5 Q347 25 356 67 L419 362 Q424 385 424 400 Q424 430 410.5 447.5 Q397 465 358 465 Q339 465 318 458.5 Q297 452 277 440 Q257 428 238 412 Q219 396 203 377 L123 0 L33 0 Z " />
<glyph glyph-name="napostrophe" unicode="&#x149;" horiz-adv-x="581" d="M139 661 L137 680 Q128 685 123.5 694 Q119 703 119 713 Q119 735 134.5 752.5 Q150 770 177 770 Q197 770 210 758.5 Q223 747 223 729 Q223 715 217 704 Q211 693 203 682 L127 581 Q125 581 111 590 L95 600 L139 661 Z M33 0 L131 459 L120 474 L53 474 L65 526 L191 526 Q217 526 222 515 Q227 504 223 486 L214 443 L216 443 Q247 479 291.5 507.5 Q336 536 393 536 Q453 536 484 502.5 Q515 469 515 415 Q515 392 509 365 L444 64 L455 49 L521 49 L511 0 L416 0 Q381 0 364 12.5 Q347 25 356 67 L419 362 Q424 385 424 400 Q424 430 410.5 447.5 Q397 465 358 465 Q339 465 318 458.5 Q297 452 277 440 Q257 428 238 412 Q219 396 203 377 L123 0 L33 0 Z " />
<glyph glyph-name="Omacron" unicode="&#x14c;" horiz-adv-x="669" d="M404 710 Q463 710 507 691.5 Q551 673 580.5 639.5 Q610 606 625 560.5 Q640 515 640 461 Q640 411 631 356.5 Q622 302 603.5 249.5 Q585 197 557 150 Q529 103 489.5 67.5 Q450 32 400 11 Q350 -10 288 -10 Q228 -10 183.5 8.5 Q139 27 109.5 60 Q80 93 65 138.5 Q50 184 50 238 Q50 289 58.5 344 Q67 399 85.5 451.5 Q104 504 132.5 551 Q161 598 200.5 633.5 Q240 669 290.5 689.5 Q341 710 404 710 Z M399 645 Q354 645 318 624.5 Q282 604 254 570.5 Q226 537 206 493 Q186 449 173.5 402 Q161 355 155 308.5 Q149 262 149 222 Q149 141 182 98 Q215 55 291 55 Q336 55 372 75.5 Q408 96 435.5 129.5 Q463 163 483 207 Q503 251 515.5 298 Q528 345 534 391.5 Q540 438 540 477 Q540 558 507 601.5 Q474 645 399 645 Z M342 856 L591 856 L580 801 L331 801 L342 856 Z " />
<glyph glyph-name="omacron" unicode="&#x14d;" horiz-adv-x="546" d="M231 681 L481 681 L469 626 L220 626 L231 681 Z M123 193 Q123 119 147.5 83.5 Q172 48 229 48 Q268 48 301 72.5 Q334 97 358 137.5 Q382 178 395 231 Q408 284 408 341 Q408 409 383.5 443 Q359 477 303 477 Q263 477 230 453 Q197 429 173 389.5 Q149 350 136 298.5 Q123 247 123 193 Z M31 195 Q31 279 54.5 343 Q78 407 116 450 Q154 493 203.5 514.5 Q253 536 306 536 Q348 536 383.5 523.5 Q419 511 445 486 Q471 461 485.5 423.5 Q500 386 500 335 Q500 250 476.5 185.5 Q453 121 414 77.5 Q375 34 325.5 12 Q276 -10 225 -10 Q183 -10 147.5 3 Q112 16 86 41.5 Q60 67 45.5 105.5 Q31 144 31 195 Z " />
<glyph glyph-name="Obreve" unicode="&#x14e;" horiz-adv-x="669" d="M404 710 Q463 710 507 691.5 Q551 673 580.5 639.5 Q610 606 625 560.5 Q640 515 640 461 Q640 411 631 356.5 Q622 302 603.5 249.5 Q585 197 557 150 Q529 103 489.5 67.5 Q450 32 400 11 Q350 -10 288 -10 Q228 -10 183.5 8.5 Q139 27 109.5 60 Q80 93 65 138.5 Q50 184 50 238 Q50 289 58.5 344 Q67 399 85.5 451.5 Q104 504 132.5 551 Q161 598 200.5 633.5 Q240 669 290.5 689.5 Q341 710 404 710 Z M399 645 Q354 645 318 624.5 Q282 604 254 570.5 Q226 537 206 493 Q186 449 173.5 402 Q161 355 155 308.5 Q149 262 149 222 Q149 141 182 98 Q215 55 291 55 Q336 55 372 75.5 Q408 96 435.5 129.5 Q463 163 483 207 Q503 251 515.5 298 Q528 345 534 391.5 Q540 438 540 477 Q540 558 507 601.5 Q474 645 399 645 Z M592 881 Q584 859 571 839 Q558 819 540 803.5 Q522 788 499 778.5 Q476 769 449 769 Q423 769 404.5 778 Q386 787 374 802.5 Q362 818 356.5 838.5 Q351 859 351 881 L396 892 Q396 864 410 842.5 Q424 821 458 821 Q493 821 516.5 842 Q540 863 552 890 L592 881 Z " />
<glyph glyph-name="obreve" unicode="&#x14f;" horiz-adv-x="546" d="M123 193 Q123 119 147.5 83.5 Q172 48 229 48 Q268 48 301 72.5 Q334 97 358 137.5 Q382 178 395 231 Q408 284 408 341 Q408 409 383.5 443 Q359 477 303 477 Q263 477 230 453 Q197 429 173 389.5 Q149 350 136 298.5 Q123 247 123 193 Z M31 195 Q31 279 54.5 343 Q78 407 116 450 Q154 493 203.5 514.5 Q253 536 306 536 Q348 536 383.5 523.5 Q419 511 445 486 Q471 461 485.5 423.5 Q500 386 500 335 Q500 250 476.5 185.5 Q453 121 414 77.5 Q375 34 325.5 12 Q276 -10 225 -10 Q183 -10 147.5 3 Q112 16 86 41.5 Q60 67 45.5 105.5 Q31 144 31 195 Z M481 704 Q473 682 460 661.5 Q447 641 429 625 Q411 609 388 599.5 Q365 590 338 590 Q312 590 293.5 599.5 Q275 609 263 624.5 Q251 640 245.5 660.5 Q240 681 240 704 L285 716 Q285 688 299 666.5 Q313 645 347 645 Q382 645 405 666 Q428 687 441 714 L481 704 Z " />
<glyph glyph-name="Ohungarumlaut" unicode="&#x150;" horiz-adv-x="669" d="M377 756 L363 779 L489 922 L508 922 L541 887 L391 756 L377 756 Z M492 756 L480 779 L626 908 L645 908 L672 868 L506 756 L492 756 Z M404 710 Q463 710 507 691.5 Q551 673 580.5 639.5 Q610 606 625 560.5 Q640 515 640 461 Q640 411 631 356.5 Q622 302 603.5 249.5 Q585 197 557 150 Q529 103 489.5 67.5 Q450 32 400 11 Q350 -10 288 -10 Q228 -10 183.5 8.5 Q139 27 109.5 60 Q80 93 65 138.5 Q50 184 50 238 Q50 289 58.5 344 Q67 399 85.5 451.5 Q104 504 132.5 551 Q161 598 200.5 633.5 Q240 669 290.5 689.5 Q341 710 404 710 Z M399 645 Q354 645 318 624.5 Q282 604 254 570.5 Q226 537 206 493 Q186 449 173.5 402 Q161 355 155 308.5 Q149 262 149 222 Q149 141 182 98 Q215 55 291 55 Q336 55 372 75.5 Q408 96 435.5 129.5 Q463 163 483 207 Q503 251 515.5 298 Q528 345 534 391.5 Q540 438 540 477 Q540 558 507 601.5 Q474 645 399 645 Z " />
<glyph glyph-name="ohungarumlaut" unicode="&#x151;" horiz-adv-x="546" d="M269 582 L254 604 L380 747 L399 747 L432 712 L282 582 L269 582 Z M383 582 L371 604 L517 734 L536 734 L563 694 L397 582 L383 582 Z M123 193 Q123 119 147.5 83.5 Q172 48 229 48 Q268 48 301 72.5 Q334 97 358 137.5 Q382 178 395 231 Q408 284 408 341 Q408 409 383.5 443 Q359 477 303 477 Q263 477 230 453 Q197 429 173 389.5 Q149 350 136 298.5 Q123 247 123 193 Z M31 195 Q31 279 54.5 343 Q78 407 116 450 Q154 493 203.5 514.5 Q253 536 306 536 Q348 536 383.5 523.5 Q419 511 445 486 Q471 461 485.5 423.5 Q500 386 500 335 Q500 250 476.5 185.5 Q453 121 414 77.5 Q375 34 325.5 12 Q276 -10 225 -10 Q183 -10 147.5 3 Q112 16 86 41.5 Q60 67 45.5 105.5 Q31 144 31 195 Z " />
<glyph glyph-name="OE" unicode="&#x152;" horiz-adv-x="951" d="M412 710 Q500 710 559 700 L981 700 L946 540 L890 540 L908 628 L897 641 L629 641 L576 386 L756 386 L772 400 L786 466 L838 466 L792 251 L740 251 L753 317 L742 330 L563 330 L506 59 L783 59 L801 73 L819 158 L876 158 L842 0 L413 0 Q360 -10 291 -10 Q175 -10 113 53.5 Q51 117 51 243 Q51 335 74.5 419.5 Q98 504 143.5 568.5 Q189 633 256.5 671.5 Q324 710 412 710 Z M151 228 Q151 140 187 96 Q223 52 304 52 Q366 52 412 68 L532 629 Q510 638 481.5 643 Q453 648 413 648 Q352 648 303.5 617 Q255 586 221 530 Q187 474 169 397 Q151 320 151 228 Z " />
<glyph glyph-name="oe" unicode="&#x153;" horiz-adv-x="855" d="M833 410 Q833 373 816 345 Q799 317 771.5 296.5 Q744 276 708 261.5 Q672 247 634 237.5 Q596 228 558 222.5 Q520 217 489 213 L489 191 Q489 121 522.5 85.5 Q556 50 618 50 Q685 50 749 96 L768 57 Q736 29 691.5 9.5 Q647 -10 589 -10 Q529 -10 482.5 15.5 Q436 41 415 96 Q378 43 328 16.5 Q278 -10 224 -10 Q182 -10 147 3 Q112 16 86 41.5 Q60 67 45.5 105.5 Q31 144 31 195 Q31 279 54.5 343 Q78 407 116 449.5 Q154 492 203.5 513.5 Q253 535 305 535 Q362 535 404.5 507 Q447 479 467 422 Q507 478 562.5 507 Q618 536 679 536 Q711 536 739 528 Q767 520 788 504 Q809 488 821 464.5 Q833 441 833 410 Z M122 190 Q122 118 146.5 83 Q171 48 228 48 Q268 48 301 72.5 Q334 97 358 137.5 Q382 178 395 231.5 Q408 285 408 343 Q408 409 383.5 443 Q359 477 302 477 Q262 477 229 453 Q196 429 172 389 Q148 349 135 297 Q122 245 122 190 Z M672 479 Q642 479 613.5 466.5 Q585 454 560.5 427.5 Q536 401 518.5 360 Q501 319 494 263 Q528 267 572 273.5 Q616 280 655.5 294.5 Q695 309 722.5 334.5 Q750 360 750 402 Q750 441 727 460 Q704 479 672 479 Z " />
<glyph glyph-name="Racute" unicode="&#x154;" horiz-adv-x="674" d="M291 640 L232 361 L354 361 Q444 361 492.5 405.5 Q541 450 541 536 Q541 588 510.5 614 Q480 640 413 640 L291 640 Z M239 0 L-19 0 L-8 52 L57 52 L74 66 L195 634 L183 648 L118 648 L130 700 L429 700 Q530 700 585.5 661 Q641 622 641 541 Q641 491 624 453.5 Q607 416 579 390 Q551 364 514 349 Q477 334 437 330 L437 329 Q469 323 489 301 Q509 279 516 228 L536 65 L550 52 L601 52 L589 0 L481 0 Q458 0 449 12 Q440 24 438 41 L416 227 Q413 254 405 269 Q397 284 386.5 291 Q376 298 363.5 299.5 Q351 301 337 301 L219 301 L170 65 L180 52 L250 52 L239 0 Z M432 756 L413 783 L554 922 L574 922 L605 871 L448 756 L432 756 Z " />
<glyph glyph-name="racute" unicode="&#x155;" horiz-adv-x="399" d="M409 747 L440 697 L283 582 L267 582 L248 609 L389 747 L409 747 Z M131 459 L120 474 L53 474 L65 526 L191 526 Q217 526 222 514.5 Q227 503 222 485 L212 438 L216 438 Q227 451 244 468 Q261 485 283 500 Q305 515 332 525.5 Q359 536 390 536 Q404 536 413 534.5 Q422 533 425 533 L390 368 L335 368 L352 445 L340 459 Q297 454 260.5 428 Q224 402 201 369 L123 0 L33 0 L131 459 Z " />
<glyph glyph-name="uni0156" unicode="&#x156;" horiz-adv-x="674" d="M238 -196 L236 -177 Q227 -172 222.5 -163 Q218 -154 218 -144 Q218 -122 233.5 -104.5 Q249 -87 276 -87 Q296 -87 309 -98.5 Q322 -110 322 -128 Q322 -142 316 -153 Q310 -164 302 -175 L226 -276 Q224 -276 210 -267 L194 -257 L238 -196 Z M291 640 L232 361 L354 361 Q444 361 492.5 405.5 Q541 450 541 536 Q541 588 510.5 614 Q480 640 413 640 L291 640 Z M239 0 L-19 0 L-8 52 L57 52 L74 66 L195 634 L183 648 L118 648 L130 700 L429 700 Q530 700 585.5 661 Q641 622 641 541 Q641 491 624 453.5 Q607 416 579 390 Q551 364 514 349 Q477 334 437 330 L437 329 Q469 323 489 301 Q509 279 516 228 L536 65 L550 52 L601 52 L589 0 L481 0 Q458 0 449 12 Q440 24 438 41 L416 227 Q413 254 405 269 Q397 284 386.5 291 Q376 298 363.5 299.5 Q351 301 337 301 L219 301 L170 65 L180 52 L250 52 L239 0 Z " />
<glyph glyph-name="uni0157" unicode="&#x157;" horiz-adv-x="399" d="M24 -196 L22 -177 Q13 -172 8.5 -163 Q4 -154 4 -144 Q4 -122 19.5 -104.5 Q35 -87 62 -87 Q82 -87 95 -98.5 Q108 -110 108 -128 Q108 -142 102 -153 Q96 -164 88 -175 L12 -276 Q10 -276 -4 -267 L-20 -257 L24 -196 Z M131 459 L120 474 L53 474 L65 526 L191 526 Q217 526 222 514.5 Q227 503 222 485 L212 438 L216 438 Q227 451 244 468 Q261 485 283 500 Q305 515 332 525.5 Q359 536 390 536 Q404 536 413 534.5 Q422 533 425 533 L390 368 L335 368 L352 445 L340 459 Q297 454 260.5 428 Q224 402 201 369 L123 0 L33 0 L131 459 Z " />
<glyph glyph-name="Rcaron" unicode="&#x158;" horiz-adv-x="674" d="M291 640 L232 361 L354 361 Q444 361 492.5 405.5 Q541 450 541 536 Q541 588 510.5 614 Q480 640 413 640 L291 640 Z M239 0 L-19 0 L-8 52 L57 52 L74 66 L195 634 L183 648 L118 648 L130 700 L429 700 Q530 700 585.5 661 Q641 622 641 541 Q641 491 624 453.5 Q607 416 579 390 Q551 364 514 349 Q477 334 437 330 L437 329 Q469 323 489 301 Q509 279 516 228 L536 65 L550 52 L601 52 L589 0 L481 0 Q458 0 449 12 Q440 24 438 41 L416 227 Q413 254 405 269 Q397 284 386.5 291 Q376 298 363.5 299.5 Q351 301 337 301 L219 301 L170 65 L180 52 L250 52 L239 0 Z M453 756 L420 756 L334 903 L355 924 L368 924 L447 824 L570 924 L588 924 L602 903 L453 756 Z " />
<glyph glyph-name="rcaron" unicode="&#x159;" horiz-adv-x="399" d="M296 582 L263 582 L177 729 L198 749 L211 749 L291 650 L413 749 L431 749 L445 729 L296 582 Z M131 459 L120 474 L53 474 L65 526 L191 526 Q217 526 222 514.5 Q227 503 222 485 L212 438 L216 438 Q227 451 244 468 Q261 485 283 500 Q305 515 332 525.5 Q359 536 390 536 Q404 536 413 534.5 Q422 533 425 533 L390 368 L335 368 L352 445 L340 459 Q297 454 260.5 428 Q224 402 201 369 L123 0 L33 0 L131 459 Z " />
<glyph glyph-name="Sacute" unicode="&#x15a;" horiz-adv-x="556" d="M492 214 Q492 161 471 119 Q450 77 411.5 48.5 Q373 20 319 5 Q265 -10 198 -10 Q152 -10 115 -5.5 Q78 -1 52 4 Q21 10 -2 19 L32 180 L95 180 L73 80 L86 63 Q104 58 133 54.5 Q162 51 205 51 Q299 51 348.5 91 Q398 131 398 194 Q398 239 367.5 267 Q337 295 269 319 Q185 350 143.5 392 Q102 434 102 500 Q102 552 122 591.5 Q142 631 178.5 657.5 Q215 684 266 697 Q317 710 379 710 Q420 710 453 706 Q486 702 510 697 Q538 692 561 685 L527 531 L466 531 L485 625 L472 640 Q454 644 429.5 647 Q405 650 373 650 Q289 650 241 618 Q193 586 193 526 Q193 504 199.5 487 Q206 470 221 455 Q236 440 261 426 Q286 412 324 396 Q407 361 449.5 320 Q492 279 492 214 Z M390 756 L371 783 L512 922 L532 922 L563 871 L406 756 L390 756 Z " />
<glyph glyph-name="sacute" unicode="&#x15b;" horiz-adv-x="452" d="M422 747 L453 697 L296 582 L280 582 L261 609 L402 747 L422 747 Z M383 161 Q383 120 365.5 88.5 Q348 57 316.5 35 Q285 13 242 1.5 Q199 -10 149 -10 Q111 -10 81.5 -6.5 Q52 -3 32 2 Q8 7 -9 14 L17 139 L75 139 L60 65 L70 53 Q84 49 103.5 46 Q123 43 153 43 Q222 43 259.5 70.5 Q297 98 297 143 Q297 176 273 196.5 Q249 217 191 237 Q156 249 132 264 Q108 279 93.5 297 Q79 315 72.5 335 Q66 355 66 375 Q66 448 123.5 492 Q181 536 288 536 Q319 536 344.5 533 Q370 530 390 527 Q412 523 431 518 L405 394 L348 394 L362 465 L353 476 Q340 479 324 481.5 Q308 484 284 484 Q224 484 186.5 461.5 Q149 439 149 397 Q149 365 169.5 345.5 Q190 326 243 307 Q314 281 348.5 247.5 Q383 214 383 161 Z " />
<glyph glyph-name="Scircumflex" unicode="&#x15c;" horiz-adv-x="556" d="M492 214 Q492 161 471 119 Q450 77 411.5 48.5 Q373 20 319 5 Q265 -10 198 -10 Q152 -10 115 -5.5 Q78 -1 52 4 Q21 10 -2 19 L32 180 L95 180 L73 80 L86 63 Q104 58 133 54.5 Q162 51 205 51 Q299 51 348.5 91 Q398 131 398 194 Q398 239 367.5 267 Q337 295 269 319 Q185 350 143.5 392 Q102 434 102 500 Q102 552 122 591.5 Q142 631 178.5 657.5 Q215 684 266 697 Q317 710 379 710 Q420 710 453 706 Q486 702 510 697 Q538 692 561 685 L527 531 L466 531 L485 625 L472 640 Q454 644 429.5 647 Q405 650 373 650 Q289 650 241 618 Q193 586 193 526 Q193 504 199.5 487 Q206 470 221 455 Q236 440 261 426 Q286 412 324 396 Q407 361 449.5 320 Q492 279 492 214 Z M271 756 L258 776 L406 924 L440 924 L526 776 L503 756 L492 756 L411 855 L290 756 L271 756 Z " />
<glyph glyph-name="scircumflex" unicode="&#x15d;" horiz-adv-x="452" d="M171 579 L157 600 L305 747 L339 747 L425 600 L403 579 L391 579 L311 679 L189 579 L171 579 Z M383 161 Q383 120 365.5 88.5 Q348 57 316.5 35 Q285 13 242 1.5 Q199 -10 149 -10 Q111 -10 81.5 -6.5 Q52 -3 32 2 Q8 7 -9 14 L17 139 L75 139 L60 65 L70 53 Q84 49 103.5 46 Q123 43 153 43 Q222 43 259.5 70.5 Q297 98 297 143 Q297 176 273 196.5 Q249 217 191 237 Q156 249 132 264 Q108 279 93.5 297 Q79 315 72.5 335 Q66 355 66 375 Q66 448 123.5 492 Q181 536 288 536 Q319 536 344.5 533 Q370 530 390 527 Q412 523 431 518 L405 394 L348 394 L362 465 L353 476 Q340 479 324 481.5 Q308 484 284 484 Q224 484 186.5 461.5 Q149 439 149 397 Q149 365 169.5 345.5 Q190 326 243 307 Q314 281 348.5 247.5 Q383 214 383 161 Z " />
<glyph glyph-name="Scedilla" unicode="&#x15e;" horiz-adv-x="556" d="M492 214 Q492 161 471 119 Q450 77 411.5 48.5 Q373 20 319 5 Q265 -10 198 -10 Q152 -10 115 -5.5 Q78 -1 52 4 Q21 10 -2 19 L32 180 L95 180 L73 80 L86 63 Q104 58 133 54.5 Q162 51 205 51 Q299 51 348.5 91 Q398 131 398 194 Q398 239 367.5 267 Q337 295 269 319 Q185 350 143.5 392 Q102 434 102 500 Q102 552 122 591.5 Q142 631 178.5 657.5 Q215 684 266 697 Q317 710 379 710 Q420 710 453 706 Q486 702 510 697 Q538 692 561 685 L527 531 L466 531 L485 625 L472 640 Q454 644 429.5 647 Q405 650 373 650 Q289 650 241 618 Q193 586 193 526 Q193 504 199.5 487 Q206 470 221 455 Q236 440 261 426 Q286 412 324 396 Q407 361 449.5 320 Q492 279 492 214 Z M112 -50 L172 11 L221 9 L173 -41 Q211 -43 234 -57 Q257 -71 257 -99 Q257 -122 246 -137.5 Q235 -153 217.5 -162.5 Q200 -172 178 -176 Q156 -180 134 -180 Q105 -180 80.5 -173 Q56 -166 42 -156 L61 -124 Q70 -130 90.5 -137 Q111 -144 134 -144 Q157 -144 175 -136 Q193 -128 193 -106 Q193 -87 170 -77 Q147 -67 109 -63 L112 -50 Z " />
<glyph glyph-name="scedilla" unicode="&#x15f;" horiz-adv-x="453" d="M383 161 Q383 120 365.5 88.5 Q348 57 316.5 35 Q285 13 242 1.5 Q199 -10 149 -10 Q111 -10 81.5 -6.5 Q52 -3 32 2 Q8 7 -9 14 L17 139 L75 139 L60 65 L70 53 Q84 49 103.5 46 Q123 43 153 43 Q222 43 259.5 70.5 Q297 98 297 143 Q297 176 273 196.5 Q249 217 191 237 Q156 249 132 264 Q108 279 93.5 297 Q79 315 72.5 335 Q66 355 66 375 Q66 448 123.5 492 Q181 536 288 536 Q319 536 344.5 533 Q370 530 390 527 Q412 523 431 518 L405 394 L348 394 L362 465 L353 476 Q340 479 324 481.5 Q308 484 284 484 Q224 484 186.5 461.5 Q149 439 149 397 Q149 365 169.5 345.5 Q190 326 243 307 Q314 281 348.5 247.5 Q383 214 383 161 Z M76 -50 L136 11 L185 9 L137 -41 Q175 -43 198 -57 Q221 -71 221 -99 Q221 -122 210 -137.5 Q199 -153 181.5 -162.5 Q164 -172 142 -176 Q120 -180 98 -180 Q69 -180 44.5 -173 Q20 -166 6 -156 L25 -124 Q34 -130 54.5 -137 Q75 -144 98 -144 Q121 -144 139 -136 Q157 -128 157 -106 Q157 -87 134 -77 Q111 -67 73 -63 L76 -50 Z " />
<glyph glyph-name="Scaron" unicode="&#x160;" horiz-adv-x="556" d="M492 214 Q492 161 471 119 Q450 77 411.5 48.5 Q373 20 319 5 Q265 -10 198 -10 Q152 -10 115 -5.5 Q78 -1 52 4 Q21 10 -2 19 L32 180 L95 180 L73 80 L86 63 Q104 58 133 54.5 Q162 51 205 51 Q299 51 348.5 91 Q398 131 398 194 Q398 239 367.5 267 Q337 295 269 319 Q185 350 143.5 392 Q102 434 102 500 Q102 552 122 591.5 Q142 631 178.5 657.5 Q215 684 266 697 Q317 710 379 710 Q420 710 453 706 Q486 702 510 697 Q538 692 561 685 L527 531 L466 531 L485 625 L472 640 Q454 644 429.5 647 Q405 650 373 650 Q289 650 241 618 Q193 586 193 526 Q193 504 199.5 487 Q206 470 221 455 Q236 440 261 426 Q286 412 324 396 Q407 361 449.5 320 Q492 279 492 214 Z M410 756 L377 756 L291 903 L312 924 L325 924 L404 824 L527 924 L545 924 L559 903 L410 756 Z " />
<glyph glyph-name="scaron" unicode="&#x161;" horiz-adv-x="452" d="M310 582 L277 582 L191 729 L212 749 L225 749 L305 650 L427 749 L445 749 L459 729 L310 582 Z M383 161 Q383 120 365.5 88.5 Q348 57 316.5 35 Q285 13 242 1.5 Q199 -10 149 -10 Q111 -10 81.5 -6.5 Q52 -3 32 2 Q8 7 -9 14 L17 139 L75 139 L60 65 L70 53 Q84 49 103.5 46 Q123 43 153 43 Q222 43 259.5 70.5 Q297 98 297 143 Q297 176 273 196.5 Q249 217 191 237 Q156 249 132 264 Q108 279 93.5 297 Q79 315 72.5 335 Q66 355 66 375 Q66 448 123.5 492 Q181 536 288 536 Q319 536 344.5 533 Q370 530 390 527 Q412 523 431 518 L405 394 L348 394 L362 465 L353 476 Q340 479 324 481.5 Q308 484 284 484 Q224 484 186.5 461.5 Q149 439 149 397 Q149 365 169.5 345.5 Q190 326 243 307 Q314 281 348.5 247.5 Q383 214 383 161 Z " />
<glyph glyph-name="uni0162" unicode="&#x162;" horiz-adv-x="566" d="M146 -50 L206 11 L255 9 L207 -41 Q245 -43 268 -57 Q291 -71 291 -99 Q291 -122 280 -137.5 Q269 -153 251.5 -162.5 Q234 -172 212 -176 Q190 -180 168 -180 Q139 -180 114.5 -173 Q90 -166 76 -156 L95 -124 Q104 -130 124.5 -137 Q145 -144 168 -144 Q191 -144 209 -136 Q227 -128 227 -106 Q227 -87 204 -77 Q181 -67 143 -63 L146 -50 Z M113 700 L621 700 L586 538 L528 538 L546 625 L535 639 L400 639 L280 66 L290 52 L364 52 L352 0 L86 0 L97 52 L168 52 L185 66 L305 639 L171 639 L153 625 L136 538 L78 538 L113 700 Z " />
<glyph glyph-name="uni0163" unicode="&#x163;" horiz-adv-x="311" d="M58 -50 L118 11 L167 9 L119 -41 Q157 -43 180 -57 Q203 -71 203 -99 Q203 -122 192 -137.5 Q181 -153 163.5 -162.5 Q146 -172 124 -176 Q102 -180 80 -180 Q51 -180 26.5 -173 Q2 -166 -12 -156 L7 -124 Q16 -130 36.5 -137 Q57 -144 80 -144 Q103 -144 121 -136 Q139 -128 139 -106 Q139 -87 116 -77 Q93 -67 55 -63 L58 -50 Z M216 474 L128 64 L140 49 L251 49 L240 0 Q214 -2 190 -3 Q170 -5 147.5 -5.5 Q125 -6 111 -6 Q68 -6 50.5 14 Q33 34 43 81 L127 474 L64 474 L74 524 L123 524 L140 538 L198 670 L257 670 L226 524 L332 524 L322 474 L216 474 Z " />
<glyph glyph-name="Tcaron" unicode="&#x164;" horiz-adv-x="566" d="M113 700 L621 700 L586 538 L528 538 L546 625 L535 639 L400 639 L280 66 L290 52 L364 52 L352 0 L86 0 L97 52 L168 52 L185 66 L305 639 L171 639 L153 625 L136 538 L78 538 L113 700 Z M400 756 L367 756 L281 903 L302 924 L315 924 L394 824 L517 924 L535 924 L549 903 L400 756 Z " />
<glyph glyph-name="tcaron" unicode="&#x165;" horiz-adv-x="311" d="M313 582 L352 780 L413 780 L397 699 L363 582 L313 582 Z M216 474 L128 64 L140 49 L251 49 L240 0 Q214 -2 190 -3 Q170 -5 147.5 -5.5 Q125 -6 111 -6 Q68 -6 50.5 14 Q33 34 43 81 L127 474 L64 474 L74 524 L123 524 L140 538 L198 670 L257 670 L226 524 L332 524 L322 474 L216 474 Z " />
<glyph glyph-name="Tbar" unicode="&#x166;" horiz-adv-x="570" d="M115 700 L623 700 L587 538 L530 538 L547 625 L537 639 L402 639 L348 384 L460 384 L448 337 L338 337 L282 66 L292 52 L365 52 L354 0 L87 0 L99 52 L169 52 L187 66 L243 337 L121 337 L133 384 L253 384 L307 639 L173 639 L155 625 L137 538 L79 538 L115 700 Z " />
<glyph glyph-name="tbar" unicode="&#x167;" horiz-adv-x="313" d="M216 474 L183 322 L289 322 L281 275 L173 275 L128 64 L140 49 L251 49 L240 0 Q214 -2 190 -3 Q170 -5 147.5 -5.5 Q125 -6 111 -6 Q68 -6 50.5 14 Q33 34 43 81 L85 275 L30 275 L40 322 L94 322 L127 474 L64 474 L74 524 L123 524 L140 538 L198 670 L257 670 L226 524 L332 524 L322 474 L216 474 Z " />
<glyph glyph-name="Utilde" unicode="&#x168;" horiz-adv-x="690" d="M572 634 L560 648 L495 648 L507 700 L743 700 L732 648 L666 648 L650 634 L565 235 Q538 106 470.5 48.5 Q403 -9 303 -9 Q201 -9 146.5 32 Q92 73 92 161 Q92 178 93.5 196.5 Q95 215 100 235 L184 634 L173 648 L108 648 L120 700 L374 700 L362 648 L296 648 L279 634 L195 234 Q190 215 188.5 198 Q187 181 187 166 Q187 109 217.5 81 Q248 53 313 53 Q385 53 426 97.5 Q467 142 487 234 L572 634 Z M635 896 L626 858 Q618 819 596.5 798 Q575 777 535 777 Q514 777 495.5 785 Q477 793 459 803 Q441 813 423.5 821 Q406 829 388 829 Q368 829 357 820 Q346 811 344 801 L336 767 L294 767 L302 803 Q312 847 334 868.5 Q356 890 395 890 Q415 890 433 881.5 Q451 873 469 862.5 Q487 852 505.5 843.5 Q524 835 545 835 Q566 835 576 845 Q586 855 588 865 L594 896 L635 896 Z " />
<glyph glyph-name="utilde" unicode="&#x169;" horiz-adv-x="577" d="M406 0 Q391 0 378 2 Q365 4 356 9.5 Q347 15 343.5 26 Q340 37 343 55 L349 83 L346 83 Q315 47 272 18.5 Q229 -10 175 -10 Q115 -10 84 23 Q53 56 53 110 Q53 134 59 161 L123 459 L111 474 L46 474 L57 526 L152 526 Q186 526 203.5 512.5 Q221 499 212 459 L148 163 Q146 153 145 143.5 Q144 134 144 125 Q144 98 157.5 79.5 Q171 61 209 61 Q247 61 287.5 86 Q328 111 360 150 L440 526 L529 526 L431 65 L442 49 L508 49 L502 25 Q500 20 499.5 16 Q499 12 498 8 L496 0 L406 0 Z M426 658 Q446 658 456 667 Q466 676 468 687 L475 719 L516 719 L507 680 Q498 638 476.5 618.5 Q455 599 416 599 Q395 599 376 607 Q357 615 339 625 Q321 635 303.5 643 Q286 651 267 651 Q248 651 237 643 Q226 635 224 624 L217 590 L175 590 L182 625 Q193 672 214.5 692 Q236 712 274 712 Q294 712 312.5 703.5 Q331 695 349 685 Q367 675 386 666.5 Q405 658 426 658 Z " />
<glyph glyph-name="Umacron" unicode="&#x16a;" horiz-adv-x="690" d="M572 634 L560 648 L495 648 L507 700 L743 700 L732 648 L666 648 L650 634 L565 235 Q538 106 470.5 48.5 Q403 -9 303 -9 Q201 -9 146.5 32 Q92 73 92 161 Q92 178 93.5 196.5 Q95 215 100 235 L184 634 L173 648 L108 648 L120 700 L374 700 L362 648 L296 648 L279 634 L195 234 Q190 215 188.5 198 Q187 181 187 166 Q187 109 217.5 81 Q248 53 313 53 Q385 53 426 97.5 Q467 142 487 234 L572 634 Z M345 856 L594 856 L583 801 L334 801 L345 856 Z " />
<glyph glyph-name="umacron" unicode="&#x16b;" horiz-adv-x="577" d="M406 0 Q391 0 378 2 Q365 4 356 9.5 Q347 15 343.5 26 Q340 37 343 55 L349 83 L346 83 Q315 47 272 18.5 Q229 -10 175 -10 Q115 -10 84 23 Q53 56 53 110 Q53 134 59 161 L123 459 L111 474 L46 474 L57 526 L152 526 Q186 526 203.5 512.5 Q221 499 212 459 L148 163 Q146 153 145 143.5 Q144 134 144 125 Q144 98 157.5 79.5 Q171 61 209 61 Q247 61 287.5 86 Q328 111 360 150 L440 526 L529 526 L431 65 L442 49 L508 49 L502 25 Q500 20 499.5 16 Q499 12 498 8 L496 0 L406 0 Z M225 681 L475 681 L463 626 L214 626 L225 681 Z " />
<glyph glyph-name="Ubreve" unicode="&#x16c;" horiz-adv-x="690" d="M572 634 L560 648 L495 648 L507 700 L743 700 L732 648 L666 648 L650 634 L565 235 Q538 106 470.5 48.5 Q403 -9 303 -9 Q201 -9 146.5 32 Q92 73 92 161 Q92 178 93.5 196.5 Q95 215 100 235 L184 634 L173 648 L108 648 L120 700 L374 700 L362 648 L296 648 L279 634 L195 234 Q190 215 188.5 198 Q187 181 187 166 Q187 109 217.5 81 Q248 53 313 53 Q385 53 426 97.5 Q467 142 487 234 L572 634 Z M596 881 Q588 859 575 839 Q562 819 544 803.5 Q526 788 503 778.5 Q480 769 453 769 Q427 769 408.5 778 Q390 787 378 802.5 Q366 818 360.5 838.5 Q355 859 355 881 L400 892 Q400 864 414 842.5 Q428 821 462 821 Q497 821 520.5 842 Q544 863 556 890 L596 881 Z " />
<glyph glyph-name="ubreve" unicode="&#x16d;" horiz-adv-x="577" d="M406 0 Q391 0 378 2 Q365 4 356 9.5 Q347 15 343.5 26 Q340 37 343 55 L349 83 L346 83 Q315 47 272 18.5 Q229 -10 175 -10 Q115 -10 84 23 Q53 56 53 110 Q53 134 59 161 L123 459 L111 474 L46 474 L57 526 L152 526 Q186 526 203.5 512.5 Q221 499 212 459 L148 163 Q146 153 145 143.5 Q144 134 144 125 Q144 98 157.5 79.5 Q171 61 209 61 Q247 61 287.5 86 Q328 111 360 150 L440 526 L529 526 L431 65 L442 49 L508 49 L502 25 Q500 20 499.5 16 Q499 12 498 8 L496 0 L406 0 Z M475 704 Q467 682 454 661.5 Q441 641 423 625 Q405 609 382 599.5 Q359 590 332 590 Q306 590 287.5 599.5 Q269 609 257 624.5 Q245 640 239.5 660.5 Q234 681 234 704 L279 716 Q279 688 293 666.5 Q307 645 341 645 Q376 645 399 666 Q422 687 435 714 L475 704 Z " />
<glyph glyph-name="Uring" unicode="&#x16e;" horiz-adv-x="690" d="M481 914 Q524 914 550.5 895.5 Q577 877 577 842 Q577 818 566.5 800 Q556 782 539 770 Q522 758 499 752.5 Q476 747 451 747 Q409 747 381.5 764.5 Q354 782 354 817 Q354 842 364 860.5 Q374 879 391.5 891 Q409 903 432 908.5 Q455 914 481 914 Z M405 820 Q405 778 455 778 Q487 778 507 794.5 Q527 811 527 841 Q527 884 476 884 Q444 884 424.5 867 Q405 850 405 820 Z M572 634 L560 648 L495 648 L507 700 L743 700 L732 648 L666 648 L650 634 L565 235 Q538 106 470.5 48.5 Q403 -9 303 -9 Q201 -9 146.5 32 Q92 73 92 161 Q92 178 93.5 196.5 Q95 215 100 235 L184 634 L173 648 L108 648 L120 700 L374 700 L362 648 L296 648 L279 634 L195 234 Q190 215 188.5 198 Q187 181 187 166 Q187 109 217.5 81 Q248 53 313 53 Q385 53 426 97.5 Q467 142 487 234 L572 634 Z " />
<glyph glyph-name="uring" unicode="&#x16f;" horiz-adv-x="577" d="M362 740 Q405 740 432 721.5 Q459 703 459 668 Q459 643 448.5 625 Q438 607 420.5 595.5 Q403 584 380.5 578.5 Q358 573 333 573 Q291 573 263.5 590.5 Q236 608 236 642 Q236 667 246 685.5 Q256 704 273 716 Q290 728 313 734 Q336 740 362 740 Z M286 645 Q286 604 337 604 Q369 604 389 621 Q409 638 409 667 Q409 708 357 708 Q326 708 306 691 Q286 674 286 645 Z M406 0 Q391 0 378 2 Q365 4 356 9.5 Q347 15 343.5 26 Q340 37 343 55 L349 83 L346 83 Q315 47 272 18.5 Q229 -10 175 -10 Q115 -10 84 23 Q53 56 53 110 Q53 134 59 161 L123 459 L111 474 L46 474 L57 526 L152 526 Q186 526 203.5 512.5 Q221 499 212 459 L148 163 Q146 153 145 143.5 Q144 134 144 125 Q144 98 157.5 79.5 Q171 61 209 61 Q247 61 287.5 86 Q328 111 360 150 L440 526 L529 526 L431 65 L442 49 L508 49 L502 25 Q500 20 499.5 16 Q499 12 498 8 L496 0 L406 0 Z " />
<glyph glyph-name="Uhungarumlaut" unicode="&#x170;" horiz-adv-x="690" d="M380 756 L366 779 L492 922 L511 922 L544 887 L394 756 L380 756 Z M495 756 L483 779 L629 908 L648 908 L675 868 L509 756 L495 756 Z M572 634 L560 648 L495 648 L507 700 L743 700 L732 648 L666 648 L650 634 L565 235 Q538 106 470.5 48.5 Q403 -9 303 -9 Q201 -9 146.5 32 Q92 73 92 161 Q92 178 93.5 196.5 Q95 215 100 235 L184 634 L173 648 L108 648 L120 700 L374 700 L362 648 L296 648 L279 634 L195 234 Q190 215 188.5 198 Q187 181 187 166 Q187 109 217.5 81 Q248 53 313 53 Q385 53 426 97.5 Q467 142 487 234 L572 634 Z " />
<glyph glyph-name="uhungarumlaut" unicode="&#x171;" horiz-adv-x="577" d="M406 0 Q391 0 378 2 Q365 4 356 9.5 Q347 15 343.5 26 Q340 37 343 55 L349 83 L346 83 Q315 47 272 18.5 Q229 -10 175 -10 Q115 -10 84 23 Q53 56 53 110 Q53 134 59 161 L123 459 L111 474 L46 474 L57 526 L152 526 Q186 526 203.5 512.5 Q221 499 212 459 L148 163 Q146 153 145 143.5 Q144 134 144 125 Q144 98 157.5 79.5 Q171 61 209 61 Q247 61 287.5 86 Q328 111 360 150 L440 526 L529 526 L431 65 L442 49 L508 49 L502 25 Q500 20 499.5 16 Q499 12 498 8 L496 0 L406 0 Z M263 582 L248 604 L374 747 L393 747 L426 712 L276 582 L263 582 Z M377 582 L365 604 L511 734 L530 734 L557 694 L391 582 L377 582 Z " />
<glyph glyph-name="Uogonek" unicode="&#x172;" horiz-adv-x="691" d="M320 -180 Q275 -180 249.5 -163.5 Q224 -147 224 -112 Q224 -75 249 -51.5 Q274 -28 310 -9 L298 -9 Q198 -8 145 33 Q92 74 92 161 Q92 178 93.5 196.5 Q95 215 100 235 L184 634 L173 648 L108 648 L120 700 L374 700 L362 648 L296 648 L279 634 L195 234 Q190 215 188.5 198 Q187 181 187 166 Q187 109 217.5 81 Q248 53 313 53 Q385 53 426 97.5 Q467 142 487 234 L572 634 L560 648 L495 648 L507 700 L743 700 L732 648 L666 648 L650 634 L565 235 Q547 148 512 96.5 Q477 45 427 19 Q401 5 376.5 -8 Q352 -21 332.5 -34.5 Q313 -48 301 -64 Q289 -80 289 -99 Q289 -123 304 -132 Q319 -141 345 -141 Q365 -141 388 -134 Q411 -127 422 -120 L431 -151 Q412 -163 382 -171.5 Q352 -180 320 -180 Z " />
<glyph glyph-name="uogonek" unicode="&#x173;" horiz-adv-x="576" d="M459 0 Q432 -5 408.5 -14 Q385 -23 367.5 -35 Q350 -47 339.5 -63 Q329 -79 329 -99 Q329 -123 343.5 -132 Q358 -141 384 -141 Q405 -141 428 -134 Q451 -127 462 -120 L471 -151 Q452 -163 422 -171.5 Q392 -180 360 -180 Q314 -180 288.5 -163.5 Q263 -147 263 -112 Q263 -69 294 -41 Q325 -13 369 3 Q354 8 345.5 19 Q337 30 342 55 L348 83 L345 83 Q314 47 271 18.5 Q228 -10 174 -10 Q114 -10 83 23 Q52 56 52 110 Q52 134 58 161 L122 459 L110 474 L45 474 L56 526 L151 526 Q185 526 202.5 512.5 Q220 499 211 459 L147 163 Q145 153 144 143.5 Q143 134 143 125 Q143 98 156.5 79.5 Q170 61 208 61 Q246 61 286.5 86 Q327 111 359 150 L439 526 L528 526 L430 65 L441 49 L507 49 L501 25 Q499 20 498.5 16 Q498 12 497 8 L495 0 L459 0 Z " />
<glyph glyph-name="Wcircumflex" unicode="&#x174;" horiz-adv-x="943" d="M455 756 L442 776 L590 924 L624 924 L710 776 L687 756 L676 756 L595 855 L474 756 L455 756 Z M143 635 L132 648 L73 648 L85 700 L327 700 L315 648 L252 648 L239 636 L263 128 L532 700 L600 700 L625 125 L867 635 L858 648 L793 648 L804 700 L1026 700 L1014 648 L956 648 L940 635 L631 -2 L550 -2 L517 514 L269 -2 L188 -2 L143 635 Z " />
<glyph glyph-name="wcircumflex" unicode="&#x175;" horiz-adv-x="782" d="M351 579 L337 600 L485 747 L519 747 L605 600 L583 579 L571 579 L491 679 L369 579 L351 579 Z M112 461 L102 474 L40 474 L52 526 L127 526 Q140 526 152.5 524 Q165 522 175 516 Q185 510 192 498 Q199 486 201 466 L232 124 L433 526 L496 526 L528 123 L701 459 L692 474 L632 474 L643 526 L732 526 Q770 526 776.5 506.5 Q783 487 769 462 L525 -1 L460 -1 L427 380 L233 -1 L166 -1 L112 461 Z " />
<glyph glyph-name="Ycircumflex" unicode="&#x176;" horiz-adv-x="615" d="M121 0 L132 52 L197 52 L215 66 L259 282 L137 636 L124 648 L72 648 L84 700 L319 700 L308 648 L244 648 L232 636 L328 352 L538 635 L529 648 L466 648 L478 700 L694 700 L682 648 L631 648 L617 638 L359 298 L310 65 L320 52 L386 52 L375 0 L121 0 Z M297 756 L284 776 L432 924 L466 924 L552 776 L529 756 L518 756 L437 855 L316 756 L297 756 Z " />
<glyph glyph-name="ycircumflex" unicode="&#x177;" horiz-adv-x="542" d="M134 526 Q147 526 159 524 Q171 522 180.5 516 Q190 510 197 498 Q204 486 207 466 L258 107 L459 459 L450 474 L393 474 L404 526 L490 526 Q525 526 534 506.5 Q543 487 529 462 L204 -106 L214 -121 L279 -121 L269 -170 L40 -170 L49 -121 L119 -121 L138 -106 L192 -11 L117 460 L106 474 L40 474 L52 526 L134 526 Z M214 579 L200 600 L348 747 L382 747 L468 600 L446 579 L434 579 L354 679 L232 579 L214 579 Z " />
<glyph glyph-name="Ydieresis" unicode="&#x178;" horiz-adv-x="615" d="M121 0 L132 52 L197 52 L215 66 L259 282 L137 636 L124 648 L72 648 L84 700 L319 700 L308 648 L244 648 L232 636 L328 352 L538 635 L529 648 L466 648 L478 700 L694 700 L682 648 L631 648 L617 638 L359 298 L310 65 L320 52 L386 52 L375 0 L121 0 Z M314 826 Q314 846 329.5 862 Q345 878 371 878 Q388 878 398.5 866.5 Q409 855 409 840 Q409 819 393 804 Q377 789 353 789 Q334 789 324 800 Q314 811 314 826 Z M451 826 Q451 846 466.5 862 Q482 878 508 878 Q525 878 535.5 866.5 Q546 855 546 840 Q546 819 530.5 804 Q515 789 490 789 Q472 789 461.5 800 Q451 811 451 826 Z " />
<glyph glyph-name="Zacute" unicode="&#x179;" horiz-adv-x="583" d="M-23 0 L-12 53 L481 640 L202 640 L184 625 L166 540 L105 540 L139 700 L610 700 L599 646 L109 61 L414 61 L431 76 L450 161 L510 161 L476 0 L-23 0 Z M388 756 L369 783 L510 922 L530 922 L561 871 L404 756 L388 756 Z " />
<glyph glyph-name="zacute" unicode="&#x17a;" horiz-adv-x="506" d="M450 747 L481 697 L324 582 L308 582 L289 609 L430 747 L450 747 Z M-25 0 L-15 42 L376 474 L156 474 L140 460 L123 381 L63 381 L94 526 L503 526 L495 483 L107 53 L340 53 L356 66 L373 146 L433 146 L402 0 L-25 0 Z " />
<glyph glyph-name="Zdotaccent" unicode="&#x17b;" horiz-adv-x="583" d="M348 827 Q348 853 366.5 872 Q385 891 416 891 Q438 891 451 877.5 Q464 864 464 845 Q464 819 445 800 Q426 781 395 781 Q373 781 360.5 794.5 Q348 808 348 827 Z M-23 0 L-12 53 L481 640 L202 640 L184 625 L166 540 L105 540 L139 700 L610 700 L599 646 L109 61 L414 61 L431 76 L450 161 L510 161 L476 0 L-23 0 Z " />
<glyph glyph-name="zdotaccent" unicode="&#x17c;" horiz-adv-x="506" d="M-25 0 L-15 42 L376 474 L156 474 L140 460 L123 381 L63 381 L94 526 L503 526 L495 483 L107 53 L340 53 L356 66 L373 146 L433 146 L402 0 L-25 0 Z M278 653 Q278 678 296.5 698 Q315 718 346 718 Q368 718 381 704 Q394 690 394 671 Q394 645 375 626 Q356 607 325 607 Q304 607 291 620.5 Q278 634 278 653 Z " />
<glyph glyph-name="Zcaron" unicode="&#x17d;" horiz-adv-x="583" d="M-23 0 L-12 53 L481 640 L202 640 L184 625 L166 540 L105 540 L139 700 L610 700 L599 646 L109 61 L414 61 L431 76 L450 161 L510 161 L476 0 L-23 0 Z M408 756 L375 756 L289 903 L310 924 L323 924 L402 824 L525 924 L543 924 L557 903 L408 756 Z " />
<glyph glyph-name="zcaron" unicode="&#x17e;" horiz-adv-x="506" d="M337 582 L304 582 L218 729 L239 749 L252 749 L332 650 L454 749 L472 749 L486 729 L337 582 Z M-25 0 L-15 42 L376 474 L156 474 L140 460 L123 381 L63 381 L94 526 L503 526 L495 483 L107 53 L340 53 L356 66 L373 146 L433 146 L402 0 L-25 0 Z " />
<glyph glyph-name="longs" unicode="&#x17f;" horiz-adv-x="298" d="M127 -2 Q119 -42 104.5 -75 Q90 -108 67.5 -131 Q45 -154 14 -167 Q-17 -180 -59 -180 Q-96 -180 -118 -176 Q-140 -172 -147 -170 L-127 -72 L-72 -72 L-82 -120 L-71 -133 Q-66 -134 -61 -134.5 Q-56 -135 -51 -135 Q-15 -135 5.5 -99 Q26 -63 37 -7 L130 474 L50 474 L60 524 L125 524 L143 538 L147 562 Q165 646 211.5 693 Q258 740 347 740 Q385 740 408 736 Q431 732 439 730 L419 629 L365 629 L375 681 L365 693 Q358 694 351.5 694.5 Q345 695 339 695 Q297 695 274.5 663.5 Q252 632 238 567 L127 -2 Z " />
<glyph glyph-name="florin" unicode="&#x192;" horiz-adv-x="480" d="M96 434 L211 434 L252 563 Q266 608 284 641 Q302 674 327 696 Q352 718 386 729 Q420 740 466 740 Q506 740 530 736 Q554 732 562 730 L531 632 L477 632 L492 681 L482 694 Q477 695 471 695.5 Q465 696 460 696 Q421 696 393 668 Q365 640 342 568 L300 434 L421 434 L410 386 L284 386 L160 -3 Q146 -48 128.5 -81.5 Q111 -115 86 -136.5 Q61 -158 27.5 -169 Q-6 -180 -53 -180 Q-93 -180 -117 -176 Q-141 -172 -149 -170 L-118 -72 L-64 -72 L-80 -121 L-70 -134 Q-65 -135 -59 -135.5 Q-53 -136 -48 -136 Q-10 -136 18.5 -108 Q47 -80 70 -8 L195 386 L86 386 L96 434 Z " />
<glyph glyph-name="uni0218" unicode="&#x218;" horiz-adv-x="556" d="M145 -196 L143 -177 Q134 -172 129.5 -163 Q125 -154 125 -144 Q125 -122 140.5 -104.5 Q156 -87 183 -87 Q203 -87 216 -98.5 Q229 -110 229 -128 Q229 -142 223 -153 Q217 -164 209 -175 L133 -276 Q131 -276 117 -267 L101 -257 L145 -196 Z M492 214 Q492 161 471 119 Q450 77 411.5 48.5 Q373 20 319 5 Q265 -10 198 -10 Q152 -10 115 -5.5 Q78 -1 52 4 Q21 10 -2 19 L32 180 L95 180 L73 80 L86 63 Q104 58 133 54.5 Q162 51 205 51 Q299 51 348.5 91 Q398 131 398 194 Q398 239 367.5 267 Q337 295 269 319 Q185 350 143.5 392 Q102 434 102 500 Q102 552 122 591.5 Q142 631 178.5 657.5 Q215 684 266 697 Q317 710 379 710 Q420 710 453 706 Q486 702 510 697 Q538 692 561 685 L527 531 L466 531 L485 625 L472 640 Q454 644 429.5 647 Q405 650 373 650 Q289 650 241 618 Q193 586 193 526 Q193 504 199.5 487 Q206 470 221 455 Q236 440 261 426 Q286 412 324 396 Q407 361 449.5 320 Q492 279 492 214 Z " />
<glyph glyph-name="uni0219" unicode="&#x219;" horiz-adv-x="452" d="M109 -196 L107 -177 Q98 -172 93.5 -163 Q89 -154 89 -144 Q89 -122 104.5 -104.5 Q120 -87 147 -87 Q167 -87 180 -98.5 Q193 -110 193 -128 Q193 -142 187 -153 Q181 -164 173 -175 L97 -276 Q95 -276 81 -267 L65 -257 L109 -196 Z M383 161 Q383 120 365.5 88.5 Q348 57 316.5 35 Q285 13 242 1.5 Q199 -10 149 -10 Q111 -10 81.5 -6.5 Q52 -3 32 2 Q8 7 -9 14 L17 139 L75 139 L60 65 L70 53 Q84 49 103.5 46 Q123 43 153 43 Q222 43 259.5 70.5 Q297 98 297 143 Q297 176 273 196.5 Q249 217 191 237 Q156 249 132 264 Q108 279 93.5 297 Q79 315 72.5 335 Q66 355 66 375 Q66 448 123.5 492 Q181 536 288 536 Q319 536 344.5 533 Q370 530 390 527 Q412 523 431 518 L405 394 L348 394 L362 465 L353 476 Q340 479 324 481.5 Q308 484 284 484 Q224 484 186.5 461.5 Q149 439 149 397 Q149 365 169.5 345.5 Q190 326 243 307 Q314 281 348.5 247.5 Q383 214 383 161 Z " />
<glyph glyph-name="uni021A" unicode="&#x21a;" horiz-adv-x="566" d="M155 -196 L153 -177 Q144 -172 139.5 -163 Q135 -154 135 -144 Q135 -122 150.5 -104.5 Q166 -87 193 -87 Q213 -87 226 -98.5 Q239 -110 239 -128 Q239 -142 233 -153 Q227 -164 219 -175 L143 -276 Q141 -276 127 -267 L111 -257 L155 -196 Z M113 700 L621 700 L586 538 L528 538 L546 625 L535 639 L400 639 L280 66 L290 52 L364 52 L352 0 L86 0 L97 52 L168 52 L185 66 L305 639 L171 639 L153 625 L136 538 L78 538 L113 700 Z " />
<glyph glyph-name="uni021B" unicode="&#x21b;" horiz-adv-x="311" d="M72 -196 L70 -177 Q61 -172 56.5 -163 Q52 -154 52 -144 Q52 -122 67.5 -104.5 Q83 -87 110 -87 Q130 -87 143 -98.5 Q156 -110 156 -128 Q156 -142 150 -153 Q144 -164 136 -175 L60 -276 Q58 -276 44 -267 L28 -257 L72 -196 Z M216 474 L128 64 L140 49 L251 49 L240 0 Q214 -2 190 -3 Q170 -5 147.5 -5.5 Q125 -6 111 -6 Q68 -6 50.5 14 Q33 34 43 81 L127 474 L64 474 L74 524 L123 524 L140 538 L198 670 L257 670 L226 524 L332 524 L322 474 L216 474 Z " />
<glyph glyph-name="uni0237" unicode="&#x237;" horiz-adv-x="270" d="M125 0 Q116 -44 101.5 -77.5 Q87 -111 64 -134 Q41 -157 8.5 -168.5 Q-24 -180 -70 -180 Q-103 -180 -122.5 -177 Q-142 -174 -147 -173 L-126 -71 L-72 -71 L-83 -121 L-73 -134 L-63 -134 Q-23 -134 -0.5 -99.5 Q22 -65 35 -4 L133 459 L123 474 L56 474 L68 526 L195 526 Q221 526 227 515 Q233 504 228 484 L125 0 Z " />
<glyph glyph-name="circumflex" unicode="&#x2c6;" horiz-adv-x="392" d="M173 579 L159 600 L307 747 L341 747 L427 600 L405 579 L393 579 L313 679 L191 579 L173 579 Z " />
<glyph glyph-name="caron" unicode="&#x2c7;" horiz-adv-x="392" d="M304 582 L271 582 L185 729 L206 749 L219 749 L299 650 L421 749 L439 749 L453 729 L304 582 Z " />
<glyph glyph-name="uni02C9" unicode="&#x2c9;" horiz-adv-x="384" d="M185 690 L435 690 L424 635 L174 635 L185 690 Z " />
<glyph glyph-name="breve" unicode="&#x2d8;" horiz-adv-x="392" d="M437 704 Q429 682 416 661.5 Q403 641 385 625 Q367 609 344 599.5 Q321 590 294 590 Q268 590 249.5 599.5 Q231 609 219 624.5 Q207 640 201.5 660.5 Q196 681 196 704 L241 716 Q241 688 255 666.5 Q269 645 303 645 Q338 645 361 666 Q384 687 397 714 L437 704 Z " />
<glyph glyph-name="dotaccent" unicode="&#x2d9;" horiz-adv-x="201" d="M162 653 Q162 678 180.5 698 Q199 718 230 718 Q252 718 265 704 Q278 690 278 671 Q278 645 259 626 Q240 607 209 607 Q188 607 175 620.5 Q162 634 162 653 Z " />
<glyph glyph-name="ring" unicode="&#x2da;" horiz-adv-x="392" d="M320 740 Q363 740 390 721.5 Q417 703 417 668 Q417 643 406.5 625 Q396 607 378.5 595.5 Q361 584 338.5 578.5 Q316 573 291 573 Q249 573 221.5 590.5 Q194 608 194 642 Q194 667 204 685.5 Q214 704 231 716 Q248 728 271 734 Q294 740 320 740 Z M244 645 Q244 604 295 604 Q327 604 347 621 Q367 638 367 667 Q367 708 315 708 Q284 708 264 691 Q244 674 244 645 Z " />
<glyph glyph-name="ogonek" unicode="&#x2db;" horiz-adv-x="392" d="M230 -151 Q211 -163 181 -171.5 Q151 -180 119 -180 Q74 -180 48 -163.5 Q22 -147 22 -112 Q22 -79 42.5 -54 Q63 -29 95 -12 Q127 5 165.5 14.5 Q204 24 240 28 L237 3 Q208 -2 181 -10 Q154 -18 133.5 -30.5 Q113 -43 100.5 -60 Q88 -77 88 -99 Q88 -123 102.5 -132 Q117 -141 143 -141 Q164 -141 187 -134 Q210 -127 221 -120 L230 -151 Z " />
<glyph glyph-name="tilde" unicode="&#x2dc;" horiz-adv-x="392" d="M387 658 Q407 658 417 667 Q427 676 429 687 L436 719 L477 719 L468 680 Q459 638 437.5 618.5 Q416 599 377 599 Q356 599 337 607 Q318 615 300 625 Q282 635 264.5 643 Q247 651 228 651 Q209 651 198 643 Q187 635 185 624 L178 590 L136 590 L143 625 Q154 672 175.5 692 Q197 712 235 712 Q255 712 273.5 703.5 Q292 695 310 685 Q328 675 347 666.5 Q366 658 387 658 Z " />
<glyph glyph-name="hungarumlaut" unicode="&#x2dd;" horiz-adv-x="392" d="M169 582 L154 604 L280 747 L299 747 L332 712 L182 582 L169 582 Z M283 582 L271 604 L417 734 L436 734 L463 694 L297 582 L283 582 Z " />
<glyph glyph-name="uni0394" unicode="&#x394;" horiz-adv-x="635" d="M-36 43 L360 702 L446 702 L569 42 L560 0 L-46 0 L-36 43 Z M61 65 L464 65 L370 591 L61 65 Z " />
<glyph glyph-name="uni03A9" unicode="&#x3a9;" horiz-adv-x="740" d="M373 113 Q487 168 546 258 Q605 348 605 476 Q605 551 567 598.5 Q529 646 446 646 Q384 646 335 622 Q286 598 251.5 556 Q217 514 198.5 457.5 Q180 401 180 337 Q180 265 208 214 Q236 163 291 113 L266 0 L5 0 L37 151 L93 151 L77 74 L88 60 L219 60 L227 93 Q189 121 162.5 148 Q136 175 119 204 Q102 233 94 266.5 Q86 300 86 342 Q86 419 110.5 486 Q135 553 181.5 603 Q228 653 295 681.5 Q362 710 448 710 Q568 710 635 648.5 Q702 587 702 470 Q702 340 635 244.5 Q568 149 427 82 L422 60 L578 60 L595 74 L611 151 L668 151 L636 0 L350 0 L373 113 Z " />
<glyph glyph-name="uni03BC" unicode="&#x3bc;" horiz-adv-x="591" d="M7 -185 L-10 -179 L81 250 L139 522 L221 529 L230 515 L176 275 Q166 233 160.5 207 Q155 181 152.5 166.5 Q150 152 149.5 145 Q149 138 149 134 Q149 94 172.5 77.5 Q196 61 235 61 Q263 61 296.5 73.5 Q330 86 358 119 L444 522 L519 529 L534 513 L479 272 Q458 182 449.5 137.5 Q441 93 441 80 Q441 55 464 55 Q487 55 520 61 L515 18 Q489 3 462 -2.5 Q435 -8 417 -8 Q379 -8 365 10.5 Q351 29 353 63 L351 63 Q327 30 293.5 9.5 Q260 -11 222 -11 Q182 -11 154 4 Q126 19 117 57 L98 -89 L81 -170 L7 -185 Z " />
<glyph glyph-name="Wgrave" unicode="&#x1e80;" horiz-adv-x="943" d="M561 756 L453 871 L506 922 L521 922 L605 783 L574 756 L561 756 Z M143 635 L132 648 L73 648 L85 700 L327 700 L315 648 L252 648 L239 636 L263 128 L532 700 L600 700 L625 125 L867 635 L858 648 L793 648 L804 700 L1026 700 L1014 648 L956 648 L940 635 L631 -2 L550 -2 L517 514 L269 -2 L188 -2 L143 635 Z " />
<glyph glyph-name="wgrave" unicode="&#x1e81;" horiz-adv-x="782" d="M112 461 L102 474 L40 474 L52 526 L127 526 Q140 526 152.5 524 Q165 522 175 516 Q185 510 192 498 Q199 486 201 466 L232 124 L433 526 L496 526 L528 123 L701 459 L692 474 L632 474 L643 526 L732 526 Q770 526 776.5 506.5 Q783 487 769 462 L525 -1 L460 -1 L427 380 L233 -1 L166 -1 L112 461 Z M354 697 L407 747 L423 747 L506 609 L475 582 L463 582 L354 697 Z " />
<glyph glyph-name="Wacute" unicode="&#x1e82;" horiz-adv-x="943" d="M574 756 L555 783 L696 922 L716 922 L747 871 L590 756 L574 756 Z M143 635 L132 648 L73 648 L85 700 L327 700 L315 648 L252 648 L239 636 L263 128 L532 700 L600 700 L625 125 L867 635 L858 648 L793 648 L804 700 L1026 700 L1014 648 L956 648 L940 635 L631 -2 L550 -2 L517 514 L269 -2 L188 -2 L143 635 Z " />
<glyph glyph-name="wacute" unicode="&#x1e83;" horiz-adv-x="782" d="M602 747 L633 697 L476 582 L460 582 L441 609 L582 747 L602 747 Z M112 461 L102 474 L40 474 L52 526 L127 526 Q140 526 152.5 524 Q165 522 175 516 Q185 510 192 498 Q199 486 201 466 L232 124 L433 526 L496 526 L528 123 L701 459 L692 474 L632 474 L643 526 L732 526 Q770 526 776.5 506.5 Q783 487 769 462 L525 -1 L460 -1 L427 380 L233 -1 L166 -1 L112 461 Z " />
<glyph glyph-name="Wdieresis" unicode="&#x1e84;" horiz-adv-x="943" d="M143 635 L132 648 L73 648 L85 700 L327 700 L315 648 L252 648 L239 636 L263 128 L532 700 L600 700 L625 125 L867 635 L858 648 L793 648 L804 700 L1026 700 L1014 648 L956 648 L940 635 L631 -2 L550 -2 L517 514 L269 -2 L188 -2 L143 635 Z M473 826 Q473 846 488.5 862 Q504 878 530 878 Q547 878 557.5 866.5 Q568 855 568 840 Q568 819 552 804 Q536 789 512 789 Q493 789 483 800 Q473 811 473 826 Z M610 826 Q610 846 625.5 862 Q641 878 667 878 Q684 878 694.5 866.5 Q705 855 705 840 Q705 819 689.5 804 Q674 789 649 789 Q631 789 620.5 800 Q610 811 610 826 Z " />
<glyph glyph-name="wdieresis" unicode="&#x1e85;" horiz-adv-x="782" d="M370 651 Q370 671 385.5 687.5 Q401 704 427 704 Q444 704 454.5 692.5 Q465 681 465 666 Q465 644 449 629 Q433 614 409 614 Q391 614 380.5 625 Q370 636 370 651 Z M507 651 Q507 671 523 687.5 Q539 704 564 704 Q581 704 591.5 692.5 Q602 681 602 666 Q602 644 586.5 629 Q571 614 546 614 Q528 614 517.5 625 Q507 636 507 651 Z M112 461 L102 474 L40 474 L52 526 L127 526 Q140 526 152.5 524 Q165 522 175 516 Q185 510 192 498 Q199 486 201 466 L232 124 L433 526 L496 526 L528 123 L701 459 L692 474 L632 474 L643 526 L732 526 Q770 526 776.5 506.5 Q783 487 769 462 L525 -1 L460 -1 L427 380 L233 -1 L166 -1 L112 461 Z " />
<glyph glyph-name="endash" unicode="&#x2013;" horiz-adv-x="541" d="M70 355 L492 355 L478 291 L56 291 L70 355 Z " />
<glyph glyph-name="emdash" unicode="&#x2014;" horiz-adv-x="824" d="M70 355 L775 355 L761 291 L56 291 L70 355 Z " />
<glyph glyph-name="quoteleft" unicode="&#x2018;" horiz-adv-x="221" d="M215 566.002 Q215 542.004 198.501 521.505 Q182.002 501.006 152.004 501.006 Q128.006 501.006 113.507 514.505 Q99.0074 528.005 99.0074 548.003 Q99.0074 564.002 106.507 576.002 Q114.006 588.001 122.006 599 L213 719.993 L248.998 698.994 L194.002 623.999 L197.001 604 Q215 589.001 215 566.002 Z " />
<glyph glyph-name="quoteright" unicode="&#x2019;" horiz-adv-x="219" d="M134 645 Q134 669 150.5 689.5 Q167 710 197 710 Q221 710 235.5 696.5 Q250 683 250 663 Q250 647 242.5 635 Q235 623 227 612 L136 491 L100 512 L155 587 L152 607 Q134 622 134 645 Z " />
<glyph glyph-name="quotesinglbase" unicode="&#x201a;" horiz-adv-x="228" d="M5 36 Q5 60 21.5 80.5 Q38 101 68 101 Q92 101 106.5 87.5 Q121 74 121 54 Q121 38 113.5 26 Q106 14 98 3 L7 -118 L-29 -97 L26 -22 L23 -2 Q5 13 5 36 Z " />
<glyph glyph-name="quotedblleft" unicode="&#x201c;" horiz-adv-x="377" d="M215 566.002 Q215 542.004 198.501 521.505 Q182.002 501.006 152.004 501.006 Q128.006 501.006 113.507 514.505 Q99.0074 528.005 99.0074 548.003 Q99.0074 564.002 106.507 576.002 Q114.006 588.001 122.006 599 L213 719.993 L248.998 698.994 L194.002 623.999 L197.001 604 Q215 589.001 215 566.002 Z M371 566.002 Q371 542.004 354.501 521.505 Q338.002 501.006 308.004 501.006 Q284.006 501.006 269.507 514.505 Q255.007 528.005 255.007 548.003 Q255.007 564.002 262.507 576.002 Q270.006 588.001 278.006 599 L369 719.993 L404.998 698.994 L350.002 623.999 L353.001 604 Q371 589.001 371 566.002 Z " />
<glyph glyph-name="quotedblright" unicode="&#x201d;" horiz-adv-x="375" d="M134 645 Q134 669 150.5 689.5 Q167 710 197 710 Q221 710 235.5 696.5 Q250 683 250 663 Q250 647 242.5 635 Q235 623 227 612 L136 491 L100 512 L155 587 L152 607 Q134 622 134 645 Z M289 645 Q289 669 305.5 689.5 Q322 710 352 710 Q376 710 390.5 696.5 Q405 683 405 663 Q405 647 397.5 635 Q390 623 382 612 L291 491 L255 512 L310 587 L307 607 Q289 622 289 645 Z " />
<glyph glyph-name="quotedblbase" unicode="&#x201e;" horiz-adv-x="384" d="M5 36 Q5 60 21.5 80.5 Q38 101 68 101 Q92 101 106.5 87.5 Q121 74 121 54 Q121 38 113.5 26 Q106 14 98 3 L7 -118 L-29 -97 L26 -22 L23 -2 Q5 13 5 36 Z M161 36 Q161 60 177.5 80.5 Q194 101 224 101 Q248 101 262.5 87.5 Q277 74 277 54 Q277 38 269.5 26 Q262 14 254 3 L163 -118 L127 -97 L182 -22 L179 -2 Q161 13 161 36 Z " />
<glyph glyph-name="dagger" unicode="&#x2020;" horiz-adv-x="471" d="M75 515 L190 501 L255 501 L278 700 L365 700 L302 501 L364 501 L485 515 L469 440 L351 455 L295 455 L288 340 L193 0 L153 0 L201 340 L243 455 L187 455 L59 440 L75 515 Z " />
<glyph glyph-name="daggerdbl" unicode="&#x2021;" horiz-adv-x="516" d="M45 261 L165 246 L221 246 L225 350 L265 455 L210 455 L83 440 L99 515 L214 501 L278 501 L300 700 L388 700 L325 501 L388 501 L509 515 L493 440 L373 455 L319 455 L313 350 L274 246 L329 246 L455 261 L439 186 L324 200 L262 200 L239 0 L151 0 L215 200 L150 200 L29 186 L45 261 Z " />
<glyph glyph-name="bullet" unicode="&#x2022;" horiz-adv-x="334" d="M93 358 Q93 395.5 120 425.5 Q147 455.5 195 455.5 Q228 455.5 247.5 434.5 Q267 413.5 267 385 Q267 346 238.5 317.5 Q210 289 163.5 289 Q132 289 112.5 309.25 Q93 329.5 93 358 Z " />
<glyph glyph-name="ellipsis" unicode="&#x2026;" horiz-adv-x="658" d="M435 36 Q435 61 453 81 Q471 101 503 101 Q525 101 538 87 Q551 73 551 54 Q551 28 532 9 Q513 -10 482 -10 Q461 -10 448 3.5 Q435 17 435 36 Z M4 36 Q4 61 22 81 Q40 101 72 101 Q94 101 107 87 Q120 73 120 54 Q120 28 101 9 Q82 -10 51 -10 Q30 -10 17 3.5 Q4 17 4 36 Z M220 36 Q220 61 238 81 Q256 101 288 101 Q310 101 323 87 Q336 73 336 54 Q336 28 317 9 Q298 -10 267 -10 Q246 -10 233 3.5 Q220 17 220 36 Z " />
<glyph glyph-name="perthousand" unicode="&#x2030;" horiz-adv-x="998" d="M136 477 Q136 414 187 414 Q212 414 231 431.5 Q250 449 263 476.5 Q276 504 282 537 Q288 570 288 600 Q288 661 237 661 Q212 661 193 644 Q174 627 161.5 600 Q149 573 142.5 540.5 Q136 508 136 477 Z M346 595 Q346 548 334.5 507 Q323 466 302 436 Q281 406 250 388.5 Q219 371 180 371 Q133 371 105 399 Q77 427 77 481 Q77 527 88 568 Q99 609 120 639.5 Q141 670 172 687.5 Q203 705 243 705 Q289 705 317.5 677 Q346 649 346 595 Z M426 101 Q426 38 477 38 Q502 38 521 55.5 Q540 73 553 100.5 Q566 128 572 161 Q578 194 578 224 Q578 285 527 285 Q502 285 483 268 Q464 251 451.5 224 Q439 197 432.5 164.5 Q426 132 426 101 Z M636 219 Q636 172 624.5 131 Q613 90 592 60 Q571 30 540 12.5 Q509 -5 470 -5 Q423 -5 395 23 Q367 51 367 105 Q367 151 378 192 Q389 233 410 263.5 Q431 294 462 311.5 Q493 329 533 329 Q579 329 607.5 301 Q636 273 636 219 Z M733 101 Q733 38 784 38 Q809 38 828 55.5 Q847 73 860 100.5 Q873 128 879 161 Q885 194 885 224 Q885 285 834 285 Q809 285 790 268 Q771 251 758.5 224 Q746 197 739.5 164.5 Q733 132 733 101 Z M943 219 Q943 172 931.5 131 Q920 90 899 60 Q878 30 847 12.5 Q816 -5 777 -5 Q730 -5 702 23 Q674 51 674 105 Q674 151 685 192 Q696 233 717 263.5 Q738 294 769 311.5 Q800 329 840 329 Q886 329 914.5 301 Q943 273 943 219 Z M587 700 L640 700 L127 0 L74 0 L587 700 Z " />
<glyph glyph-name="guilsinglleft" unicode="&#x2039;" horiz-adv-x="301" d="M35.015 273.014 L235.003 463.003 L288 463.003 L105.011 252.016 L196.005 46.0283 L150.008 46.0283 L28.0154 238.017 L35.015 273.014 Z " />
<glyph glyph-name="guilsinglright" unicode="&#x203a;" horiz-adv-x="301" d="M246 236 L46 46 L-7 46 L176 257 L85 463 L131 463 L253 271 L246 236 Z " />
<glyph glyph-name="fraction" unicode="&#x2044;" horiz-adv-x="90" d="M286 700 L339 700 L-174 0 L-227 0 L286 700 Z " />
<glyph glyph-name="franc" unicode="&#x20a3;" horiz-adv-x="620" d="M253 374 L240 309 L423 309 L414 262 L230 262 L188 66 L199 52 L280 52 L269 0 L-1 0 L11 52 L76 52 L93 66 L135 262 L53 262 L63 309 L144 309 L158 374 L75 374 L86 421 L169 421 L213 634 L202 648 L137 648 L148 700 L673 700 L638 540 L583 540 L600 626 L589 639 L310 639 L264 421 L447 421 L436 374 L253 374 Z " />
<glyph glyph-name="lira" unicode="&#x20a4;" horiz-adv-x="604" d="M238 374 L224 309 L390 309 L380 262 L214 262 L197 182 Q190 148 178 114 Q166 80 156 66 L429 66 L445 80 L465 171 L521 171 L484 0 L-11 0 L-1 48 L60 48 L78 62 L119 262 L45 262 L56 309 L130 309 L144 374 L68 374 L78 421 L153 421 L169 497 Q178 541 199 580 Q220 619 252 648 Q284 677 328.5 693.5 Q373 710 429 710 Q473 710 508 705 Q543 700 568 694 Q597 687 620 679 L590 539 L533 539 L552 623 L541 635 Q532 638 505 643.5 Q478 649 436 649 Q365 649 323 613.5 Q281 578 264 497 L247 421 L413 421 L402 374 L238 374 Z " />
<glyph glyph-name="peseta" unicode="&#x20a7;" horiz-adv-x="1437" d="M195 634 L183 648 L118 648 L130 700 L427 700 Q532 700 590 656.5 Q648 613 648 521 Q648 457 627 409 Q606 361 567 329 Q528 297 472 281 Q416 265 346 265 L211 265 L170 66 L180 52 L258 52 L247 0 L-19 0 L-8 52 L57 52 L74 66 L195 634 Z M291 640 L224 326 L357 326 Q448 326 499.5 373.5 Q551 421 551 518 Q551 580 518 610 Q485 640 413 640 L291 640 Z M1362 161 Q1362 120 1344.5 88.5 Q1327 57 1295.5 35 Q1264 13 1221 1.5 Q1178 -10 1128 -10 Q1090 -10 1060.5 -6.5 Q1031 -3 1011 2 Q987 7 970 14 L996 139 L1054 139 L1039 65 L1049 53 Q1063 49 1082.5 46 Q1102 43 1132 43 Q1201 43 1238.5 70.5 Q1276 98 1276 143 Q1276 176 1252 196.5 Q1228 217 1170 237 Q1135 249 1111 264 Q1087 279 1072.5 297 Q1058 315 1051.5 335 Q1045 355 1045 375 Q1045 448 1102.5 492 Q1160 536 1267 536 Q1298 536 1323.5 533 Q1349 530 1369 527 Q1391 523 1410 518 L1384 394 L1327 394 L1341 465 L1332 476 Q1319 479 1303 481.5 Q1287 484 1263 484 Q1203 484 1165.5 461.5 Q1128 439 1128 397 Q1128 365 1148.5 345.5 Q1169 326 1222 307 Q1293 281 1327.5 247.5 Q1362 214 1362 161 Z M867 474 L779 64 L791 49 L902 49 L891 0 Q865 -2 841 -3 Q821 -5 798.5 -5.5 Q776 -6 762 -6 Q719 -6 701.5 14 Q684 34 694 81 L778 474 L715 474 L725 524 L774 524 L791 538 L849 670 L908 670 L877 524 L983 524 L973 474 L867 474 Z " />
<glyph glyph-name="Euro" unicode="&#x20ac;" horiz-adv-x="651" d="M537 24 Q505 10 462.5 0 Q420 -10 362 -10 Q247 -10 181.5 53.5 Q116 117 116 235 L116 264 L28 264 L38 311 L119 311 Q122 345 128 376 L51 376 L61 423 L140 423 Q178 562 274.5 636 Q371 710 515 710 Q574 710 615 700.5 Q656 691 667 683 L638 542 L581 542 L598 622 L588 636 Q555 650 507 650 Q406 650 335 594.5 Q264 539 233 423 L447 423 L436 376 L223 376 Q220 360 218.5 344 Q217 328 215 311 L424 311 L414 264 L212 264 L212 239 Q212 150 254.5 101.5 Q297 53 385 53 Q410 53 432 55.5 Q454 58 474 66 L491 80 L509 164 L566 164 L537 24 Z " />
<glyph glyph-name="uni2113" unicode="&#x2113;" horiz-adv-x="411" d="M325 27 Q311 20 294 13.5 Q277 7 258.5 1.5 Q240 -4 221.5 -7 Q203 -10 188 -10 Q136 -10 103 8 Q70 26 68 73 Q68 93 74 120 L77 135 Q60 120 42.5 105 Q25 90 5 74 L-24 118 Q10 147 39.5 173 Q69 199 95 223 L163 544 Q173 592 190.5 626 Q208 660 230.5 681.5 Q253 703 279.5 713 Q306 723 334 723 Q381 723 411 699.5 Q441 676 441 624 Q441 588 426.5 546 Q412 504 379.5 454 Q347 404 295 345.5 Q243 287 169 218 L150 129 Q147 109 147 95 Q147 69 162.5 60 Q178 51 207 51 Q230 51 262 58.5 Q294 66 317 77 L325 27 Z M190 316 Q239 368 272.5 413 Q306 458 326.5 496 Q347 534 355.5 564.5 Q364 595 364 618 Q364 645 353.5 656.5 Q343 668 326 668 Q266 668 236 527 L190 316 Z " />
<glyph glyph-name="trademark" unicode="&#x2122;" horiz-adv-x="835" d="M134 700 L384 700 L384 612 L350 612 L350 650 L345 656 L288 656 L288 429 L293 423 L332 423 L332 387 L186 387 L186 423 L225 423 L230 429 L230 656 L174 656 L168 650 L168 612 L134 612 L134 700 Z M514 617 L514 429 L520 423 L556 423 L556 387 L423 387 L423 423 L458 423 L464 429 L464 659 L458 664 L423 664 L423 700 L529 700 L614 540 L697 700 L802 700 L802 664 L765 664 L759 659 L759 429 L766 423 L802 423 L802 387 L661 387 L661 423 L697 423 L702 429 L702 621 L633 486 L585 486 L514 617 Z " />
<glyph glyph-name="estimated" unicode="&#x212e;" horiz-adv-x="805" d="M618 362 L628 375 L628 581 Q594 623 540 647 Q486 671 423 671 Q357 671 305.5 647 Q254 623 219 581 L219 375 L228 362 L618 362 Z M219 314 L219 131 Q253 81 305.5 53.5 Q358 26 432 26 Q507 26 567.5 54 Q628 82 669 131 L723 131 Q671 62 599 26 Q527 -10 432 -10 Q355 -10 288.5 18 Q222 46 172 95 Q122 144 93.5 209 Q65 274 65 349 Q65 424 93.5 489.5 Q122 555 171 603.5 Q220 652 285 679.5 Q350 707 423 707 Q495 707 558 680 Q621 653 669 606.5 Q717 560 747 497.5 Q777 435 782 365 L782 363 L750 327 L228 327 L219 314 Z " />
<glyph glyph-name="partialdiff" unicode="&#x2202;" horiz-adv-x="548" d="M124 193 Q124 119 148.5 83.5 Q173 48 230 48 Q269 48 302 72.5 Q335 97 359 137.5 Q383 178 396 231 Q409 284 409 341 Q409 409 384.5 443 Q360 477 304 477 Q264 477 231 453 Q198 429 174 389.5 Q150 350 137 298.5 Q124 247 124 193 Z M501 335 Q501 250 477.5 185.5 Q454 121 415 77.5 Q376 34 326.5 12 Q277 -10 226 -10 Q184 -10 148.5 3 Q113 16 87 41.5 Q61 67 46.5 105.5 Q32 144 32 195 Q32 279 55.5 343 Q79 407 117 450 Q155 493 204.5 514.5 Q254 536 306 536 Q333 536 357.5 528.5 Q382 521 400 507 Q383 573 349 622 Q315 671 265 707 L301 741 Q358 711 396.5 666 Q435 621 458 567.5 Q481 514 491 454.5 Q501 395 501 335 Z " />
</font>
</svg>
