<?xml version="1.0" standalone="no"?>
<!DOCTYPE svg PUBLIC "-//W3C//DTD SVG 1.1//EN" "http://www.w3.org/Graphics/SVG/1.1/DTD/svg11.dtd" >
<svg xmlns="http://www.w3.org/2000/svg">
<metadata>Generated by IcoMoon</metadata>
<defs>
<font id="gco" horiz-adv-x="1024">
<font-face units-per-em="1024" ascent="960" descent="-64" />
<missing-glyph horiz-adv-x="1024" />
<glyph unicode="&#x20;" horiz-adv-x="512" d="" />
<glyph unicode="&#xe900;" glyph-name="estrella" d="M846.387 550.159c-4.087 9.032-13.020 15.203-23.395 15.203 0 0 0 0 0 0h-205.365c-14.138 0-25.6-11.462-25.6-25.6s11.462-25.6 25.6-25.6v0h147.76l-121.41-134.472c-4.093-4.52-6.597-10.544-6.597-17.153 0-2.151 0.265-4.239 0.765-6.235l-0.037 0.176 41.035-168.515-154.332 87.242c-3.623 2.084-7.967 3.314-12.599 3.314-4.622 0-8.958-1.225-12.702-3.367l0.125 0.066-154.79-87.322 41.048 168.583c0.070 0.29 0.060 0.577 0.12 0.866 0.275 1.178 0.476 2.568 0.562 3.99l0.003 0.071c0.038 0.806-0.065 1.589-0.105 2.385-0.043 0.861-0.033 1.721-0.16 2.576-0.125 0.818-0.375 1.594-0.578 2.389-0.211 1-0.434 1.818-0.695 2.619l0.050-0.178c-0.285 0.786-0.69 1.512-1.048 2.265-0.355 0.746-0.648 1.51-1.080 2.227-0.732 1.162-1.477 2.167-2.291 3.112l0.028-0.034c-0.245 0.299-0.417 0.633-0.677 0.923l-0.070 0.078-0.010 0.010-121.33 134.387h160.368c10.525 0 19.567 6.352 23.501 15.432l0.064 0.166 69.66 164.108 28.098-66.248c3.996-9.249 13.040-15.604 23.567-15.604 14.138 0 25.599 11.461 25.599 25.599 0 3.61-0.747 7.046-2.096 10.161l0.064-0.166-51.655 121.795c-3.995 9.248-13.036 15.603-23.562 15.605h-0.005c-10.525-0.001-19.566-6.353-23.501-15.432l-0.064-0.166-86.615-204.050h-201.025c-14.138-0.001-25.599-11.463-25.599-25.601 0-6.609 2.505-12.634 6.616-17.176l-0.019 0.022 150.935-167.179-51.81-212.784c-0.462-1.819-0.727-3.907-0.727-6.057 0-14.138 11.462-25.6 25.6-25.6 4.623 0 8.959 1.225 12.702 3.368l-0.125-0.066 193.618 109.228 193.202-109.215c3.623-2.085 7.967-3.314 12.598-3.314 14.138 0 25.599 11.461 25.599 25.599 0 2.15-0.265 4.239-0.764 6.234l0.037-0.176-51.815 212.785 150.935 167.175c4.094 4.521 6.6 10.547 6.6 17.158 0 3.763-0.812 7.337-2.27 10.555l0.065-0.161z" />
<glyph unicode="&#xe901;" glyph-name="candado" d="M512.004 729.6c90.183-0.107 163.261-73.187 163.365-163.36v-0.010c0-14.138 11.462-25.6 25.6-25.6s25.6 11.462 25.6 25.6v0c0 0.031 0 0.068 0 0.105 0 118.504-96.066 214.57-214.57 214.57s-214.57-96.066-214.57-214.57c0-0.037 0-0.074 0-0.111v0.006l0.003-0.025v-425.405c0.001-14.138 11.462-25.599 25.6-25.6h377.938c14.138 0.001 25.599 11.462 25.6 25.6v0 299.34c-0.001 14.138-11.462 25.599-25.6 25.6h-352.337v100.49l-0.003 0.020c0.119 90.176 73.197 163.245 163.365 163.35h0.010zM675.369 166.4h-326.738v248.14h326.737z" />
<glyph unicode="&#xe902;" glyph-name="pro-redonda-2" d="M512 763.723c-174.111 0-315.744-141.633-315.744-315.702 0-174.111 141.633-315.744 315.744-315.744s315.744 141.633 315.744 315.744c0 174.068-141.634 315.702-315.744 315.702z" />
<glyph unicode="&#xe903;" glyph-name="pro-autos-cruz" d="M526.73 374.372v21.24c-0.052 45.604-37.007 82.559-82.605 82.612h-183.183c-45.606-0.052-82.563-37.007-82.617-82.607v-21.246c-29.158-10.791-49.577-38.333-49.635-70.652v-96.247c0-14.138 11.462-25.6 25.6-25.6s25.6 11.462 25.6 25.6v0 96.245c0.016 13.268 10.767 24.019 24.034 24.035h0.001c14.138 0.001 25.599 11.462 25.6 25.6v0 42.26c0.023 17.341 14.076 31.393 31.416 31.413h183.179c17.34-0.021 31.39-14.073 31.41-31.411v-42.262c0.001-14.138 11.462-25.599 25.6-25.6h0.003c13.268-0.018 24.019-10.771 24.033-24.039v-96.241c0-14.138 11.462-25.6 25.6-25.6s25.6 11.462 25.6 25.6v0 96.245c-0.058 32.325-20.477 59.866-49.114 70.486l-0.521 0.169zM228.74 214.87c-14.138-0.001-25.599-11.462-25.6-25.6v0-73.908c0-14.138 11.462-25.6 25.6-25.6s25.6 11.462 25.6 25.6v0 73.908c-0.001 14.138-11.462 25.599-25.6 25.6v0zM476.905 214.87c-14.138-0.001-25.599-11.462-25.6-25.6v0-73.908c0-14.138 11.462-25.6 25.6-25.6s25.6 11.462 25.6 25.6v0 73.908c-0.001 14.138-11.462 25.599-25.6 25.6v0zM389.95 209.897h-74.25c-14.138 0-25.6-11.462-25.6-25.6s11.462-25.6 25.6-25.6v0h74.25c14.138 0 25.6 11.462 25.6 25.6s-11.462 25.6-25.6 25.6v0zM638.040 720.682c14.138 0.001 25.599 11.462 25.6 25.6v0 8.755h64.535l-0.35-90.13c0-0.030 0-0.065 0-0.1 0-14.103 11.405-25.543 25.495-25.6h0.107c14.102 0.002 25.54 11.406 25.597 25.494v0.006l0.45 115.83c0 0.030 0 0.066 0 0.102 0 14.138-11.461 25.598-25.598 25.598-0.001 0-0.001 0-0.002 0h-115.835c-14.138-0.001-25.599-11.462-25.6-25.6v0-34.355c0.001-14.138 11.462-25.599 25.6-25.6v0zM869.71 690.407h-30.645c-14.138 0-25.6-11.462-25.6-25.6s11.462-25.6 25.6-25.6v0h5.045v-64.635h-90.235c-14.138 0-25.6-11.462-25.6-25.6s11.462-25.6 25.6-25.6v0h115.835c14.138 0.001 25.599 11.462 25.6 25.6v0 115.835c-0.001 14.138-11.462 25.599-25.6 25.6v0zM753.433 493.095c-0.115 0-0.23 0-0.342-0.003-13.993-0.189-25.265-11.577-25.265-25.597 0-0.118 0.001-0.236 0.002-0.353v0.018l0.11-8.42h-64.297v90.235c0 14.138-11.462 25.6-25.6 25.6s-25.6-11.462-25.6-25.6v0-115.835c0.001-14.138 11.462-25.599 25.6-25.6h115.835c14.138 0 25.6 11.462 25.6 25.6 0 0.118-0.001 0.235-0.002 0.352v-0.018l-0.45 34.355c-0.188 13.991-11.572 25.261-25.59 25.265v0zM556.565 574.572h-8.755v64.635h90.23c14.138 0 25.6 11.462 25.6 25.6s-11.462 25.6-25.6 25.6v0h-115.83c-14.138-0.001-25.599-11.462-25.6-25.6v0-115.835c0.001-14.138 11.462-25.599 25.6-25.6h34.355c14.138 0 25.6 11.462 25.6 25.6s-11.462 25.6-25.6 25.6v0zM296.62 261.35c0.868 1.267 1.657 2.716 2.296 4.244l0.060 0.161c0.589 1.363 1.101 2.973 1.454 4.641l0.030 0.172c0.292 1.492 0.459 3.209 0.46 4.964v0.001c0 0.017 0 0.036 0 0.056 0 14.125-11.451 25.576-25.576 25.576-1.766 0-3.491-0.179-5.157-0.52l0.165 0.028c-1.84-0.384-3.449-0.896-4.984-1.55l0.171 0.065c-1.688-0.697-3.136-1.487-4.486-2.409l0.084 0.054c-1.462-0.96-2.736-2.006-3.888-3.173l-0.002-0.002c-1.156-1.16-2.201-2.433-3.117-3.798l-0.058-0.092c-0.87-1.267-1.659-2.715-2.296-4.243l-0.059-0.16c-1.263-2.882-1.997-6.241-1.997-9.771 0-1.779 0.187-3.515 0.541-5.189l-0.029 0.163c0.381-1.838 0.893-3.448 1.549-4.981l-0.064 0.169c0.695-1.688 1.485-3.137 2.409-4.488l-0.053 0.083c0.958-1.463 2.005-2.736 3.172-3.887l0.003-0.003c1.154-1.168 2.428-2.215 3.802-3.12l0.088-0.055c1.266-0.867 2.715-1.656 4.241-2.295l0.161-0.060c1.362-0.588 2.972-1.1 4.64-1.454l0.173-0.031c1.484-0.307 3.198-0.492 4.951-0.512h0.016c7.077 0.029 13.478 2.899 18.126 7.528l-0.001-0.001c1.169 1.154 2.215 2.428 3.121 3.802l0.055 0.088zM453.958 265.755c0.574 1.364 1.069 2.976 1.404 4.645l0.028 0.167c0.326 1.5 0.512 3.224 0.512 4.991s-0.187 3.491-0.541 5.152l0.029-0.161c-0.374 1.844-0.868 3.456-1.499 4.998l0.066-0.183c-0.73 1.698-1.518 3.144-2.421 4.507l0.065-0.105c-1.884 2.827-4.239 5.182-6.977 7.008l-0.091 0.057c-1.282 0.881-2.748 1.672-4.297 2.3l-0.155 0.056c-2.885 1.261-6.247 1.994-9.78 1.994s-6.895-0.734-9.941-2.057l0.161 0.062c-1.688-0.697-3.136-1.487-4.486-2.409l0.084 0.054c-1.463-0.961-2.737-2.007-3.891-3.173l-0.002-0.002c-1.154-1.171-2.213-2.441-3.162-3.795l-0.063-0.095c-0.839-1.259-1.627-2.705-2.285-4.221l-0.070-0.181c-0.566-1.36-1.060-2.972-1.402-4.639l-0.030-0.176c-0.326-1.465-0.513-3.147-0.513-4.872 0-0.051 0-0.102 0-0.153v0.008c0.040-7.058 2.908-13.439 7.526-18.073l-0.001 0.001c1.156-1.168 2.43-2.214 3.804-3.12l0.089-0.055c1.266-0.867 2.715-1.656 4.241-2.295l0.161-0.060c1.349-0.588 2.941-1.1 4.592-1.454l0.17-0.031c1.497-0.304 3.229-0.49 4.999-0.512h0.019c1.785 0.017 3.517 0.203 5.193 0.542l-0.175-0.030c1.821 0.385 3.413 0.897 4.931 1.549l-0.168-0.064c1.705 0.685 3.171 1.475 4.532 2.407l-0.080-0.052c2.828 1.884 5.183 4.238 7.011 6.974l0.057 0.091c0.838 1.259 1.626 2.707 2.285 4.223l0.070 0.182z" />
<glyph unicode="&#xe904;" glyph-name="pro-accidente" d="M348.851 533.345c15.019 15.020 24.308 35.769 24.308 58.688 0 45.84-37.161 83.002-83.002 83.002s-83.002-37.161-83.002-83.002c0-23.172 9.496-44.127 24.808-59.185l0.012-0.011c4.614-4.525 10.941-7.318 17.92-7.318 14.138 0 25.6 11.462 25.6 25.6 0 7.132-2.917 13.583-7.623 18.226l-0.003 0.003c-5.87 5.772-9.507 13.799-9.507 22.675 0 17.56 14.235 31.795 31.795 31.795s31.795-14.235 31.795-31.795c0-8.782-3.561-16.733-9.317-22.487v0c-4.629-4.632-7.492-11.029-7.492-18.095 0-14.138 11.461-25.599 25.599-25.599 7.072 0 13.474 2.868 18.107 7.504v0zM188.371 209.305c2.078-12.226 12.592-21.418 25.253-21.418 0.001 0 0.002 0 0.002 0h549.77c14.138 0 25.6 11.462 25.6 25.6s-11.462 25.6-25.6 25.6v0h-528.063l-53.495 322.983c-2.080 12.225-12.594 21.416-25.255 21.416-14.138 0-25.599-11.461-25.599-25.599 0-1.477 0.125-2.925 0.365-4.334l-0.021 0.151zM265.006 487.54c-11.492-2.68-19.923-12.837-19.923-24.963 0-2.013 0.232-3.972 0.672-5.851l-0.034 0.173 33.962-149.315c2.68-11.492 12.837-19.923 24.963-19.923 14.139 0 25.6 11.462 25.6 25.6 0 2.013-0.232 3.972-0.672 5.851l0.034-0.173-33.963 149.315c-2.683 11.492-12.84 19.921-24.966 19.921-2.012 0-3.969-0.232-5.847-0.671l0.173 0.034zM371.936 404.532c2.815-11.311 12.883-19.56 24.877-19.56 14.139 0 25.6 11.462 25.6 25.6 0 2.144-0.264 4.226-0.76 6.216l0.037-0.176-18.485 76.14c-2.815 11.311-12.883 19.56-24.877 19.56-14.139 0-25.6-11.462-25.6-25.6 0-2.144 0.264-4.226 0.76-6.216l-0.037 0.176zM386.201 279.012c4.392 0 8.525 1.112 12.132 3.069l-0.134-0.067 109.015 57.971 84.52-70.314c0.037-0.031 0.080-0.050 0.118-0.081 0.992-0.819 2.097-1.592 3.261-2.274l0.119-0.064c0.23-0.134 0.46-0.254 0.692-0.379 0.921-0.517 2.018-1.029 3.154-1.462l0.176-0.059c0.127-0.048 0.253-0.111 0.385-0.158 1.012-0.362 2.244-0.692 3.509-0.93l0.159-0.025c0.333-0.064 0.663-0.118 0.995-0.167 1.113-0.185 2.406-0.299 3.722-0.315h0.016l0.052-0.005h0.028l0.052 0.005c1.276 0.013 2.515 0.118 3.726 0.309l-0.144-0.019c0.325 0.046 0.645 0.098 0.968 0.156 1.379 0.244 2.571 0.55 3.727 0.936l-0.182-0.053c0.090 0.031 0.178 0.075 0.27 0.106 1.299 0.464 2.384 0.947 3.426 1.5l-0.139-0.067c0.238 0.122 0.472 0.241 0.705 0.372 1.259 0.695 2.336 1.409 3.351 2.201l-0.056-0.042 0.080 0.052 57.093 44.79c5.99 4.73 9.799 11.991 9.799 20.142 0 14.139-11.462 25.602-25.602 25.602-5.988 0-11.496-2.056-15.856-5.5l0.054 0.041-40.818-32.021-81.925 68.141c-1.032 0.837-2.186 1.624-3.402 2.313l-0.126 0.066c-0.245 0.141-0.465 0.34-0.712 0.473-1.293 0.705-2.804 1.347-4.38 1.841l-0.182 0.049c-0.795 0.242-1.612 0.331-2.42 0.494-0.818 0.165-1.618 0.401-2.447 0.488-0.543 0.055-1.085-0.008-1.627 0.014-0.296 0.012-0.644 0.019-0.993 0.019-1.978 0-3.903-0.227-5.75-0.655l0.171 0.033c-0.525-0.118-1.065-0.151-1.582-0.301-0.33-0.097-0.645-0.278-0.975-0.39-1.473-0.472-2.722-0.996-3.916-1.612l0.141 0.066-0.095-0.039-124.193-66.042c-8.141-4.396-13.579-12.865-13.579-22.604 0-14.14 11.463-25.604 25.604-25.604 0.006 0 0.012 0 0.018 0h-0.001zM279.043 137.142v-72.253c0-14.138 11.462-25.6 25.6-25.6s25.6 11.462 25.6 25.6v0 72.253c0 14.138-11.462 25.6-25.6 25.6s-25.6-11.462-25.6-25.6v0zM674.638 137.142c0 14.138-11.462 25.6-25.6 25.6s-25.6-11.462-25.6-25.6v0-72.253c0-14.138 11.462-25.6 25.6-25.6s25.6 11.462 25.6 25.6v0zM752.068 690.71h0.102c14.102 0.002 25.54 11.406 25.597 25.494v0.006l0.447 114.802c0 0.030 0 0.066 0 0.102 0 14.138-11.461 25.598-25.598 25.598-0.001 0-0.001 0-0.002 0h-114.802c-14.138-0.001-25.599-11.462-25.6-25.6v0-34.055c0-14.138 11.462-25.6 25.6-25.6s25.6 11.462 25.6 25.6v0 8.455h63.502l-0.347-89.103c0-0.029 0-0.064 0-0.099 0-14.104 11.405-25.544 25.495-25.601h0.006zM837.043 690.712h4.773v-63.6h-89.2c-14.138 0-25.6-11.462-25.6-25.6s11.462-25.6 25.6-25.6v0h114.8c14.138 0.001 25.599 11.462 25.6 25.6v0 114.8c-0.001 14.138-11.462 25.599-25.6 25.6h-30.373c-14.138 0-25.6-11.462-25.6-25.6s11.462-25.6 25.6-25.6v0zM770.833 468.732c4.562 4.62 7.38 10.971 7.38 17.981 0 0.118-0.001 0.237-0.002 0.355v-0.018l-0.445 34.047c-0.22 13.969-11.596 25.209-25.597 25.209-14.138 0-25.6-11.461-25.6-25.6 0-0.098 0.001-0.196 0.002-0.294v0.015l0.105-8.112h-63.263v89.195c0 14.138-11.462 25.6-25.6 25.6s-25.6-11.462-25.6-25.6v0-114.795c0.001-14.138 11.462-25.599 25.6-25.6h114.8c0.001 0 0.001 0 0.002 0 7.128 0 13.575 2.914 18.216 7.615l0.003 0.003zM497.416 716.315v-114.802c0.001-14.138 11.462-25.599 25.6-25.6h34.053c14.138 0 25.6 11.462 25.6 25.6s-11.462 25.6-25.6 25.6v0h-8.453v63.602h89.2c14.138 0 25.6 11.462 25.6 25.6s-11.462 25.6-25.6 25.6v0h-114.8c-14.138-0.001-25.599-11.462-25.6-25.6v0z" />
<glyph unicode="&#xe905;" glyph-name="pro-maletin" d="M238.818 115.202h29.572c14.138 0 25.6 11.462 25.6 25.6s-11.462 25.6-25.6 25.6v0h-29.572c-18.005 0.020-32.596 14.61-32.617 32.613v349.302c0.020 18.007 14.611 32.6 32.615 32.622h29.575c14.138 0 25.6 11.462 25.6 25.6s-11.462 25.6-25.6 25.6v0h-29.572c-46.271-0.055-83.765-37.552-83.817-83.818v-349.305c0.055-46.269 37.549-83.761 83.812-83.815h0.005zM785.181 632.14h-22.408c-14.138 0-25.6-11.462-25.6-25.6s11.462-25.6 25.6-25.6v0h22.408c18.007-0.023 32.598-14.615 32.617-32.621v-349.302c-0.022-18.005-14.612-32.595-32.616-32.615h-22.409c-14.138 0-25.6-11.462-25.6-25.6s11.462-25.6 25.6-25.6v0h22.408c46.269 0.054 83.762 37.547 83.817 83.81v349.305c-0.052 46.271-37.547 83.767-83.812 83.822h-0.005zM399.146 115.2h232.87c14.138 0 25.6 11.462 25.6 25.6s-11.462 25.6-25.6 25.6v0h-232.87c-14.138 0-25.6-11.462-25.6-25.6s11.462-25.6 25.6-25.6v0zM373.546 606.537c0.001-14.138 11.462-25.599 25.6-25.6h232.87c14.138 0 25.6 11.462 25.6 25.6s-11.462 25.6-25.6 25.6v0h-232.87c-14.138-0.001-25.599-11.462-25.6-25.6v0zM359.363 176.612v394.113c0 14.138-11.462 25.6-25.6 25.6s-25.6-11.462-25.6-25.6v0-394.113c0-14.138 11.462-25.6 25.6-25.6s25.6 11.462 25.6 25.6v0zM697.396 151.012c14.138 0.001 25.599 11.462 25.6 25.6v0 394.113c0 14.138-11.462 25.6-25.6 25.6s-25.6-11.462-25.6-25.6v0-394.113c0.001-14.138 11.462-25.599 25.6-25.6v0zM588.116 780.8h-116.43c-46.269-0.054-83.764-37.548-83.818-83.812v-0.005c0-14.138 11.462-25.6 25.6-25.6s25.6 11.462 25.6 25.6v0c0.021 18.006 14.612 32.596 32.615 32.618h116.432c18.007-0.020 32.6-14.611 32.622-32.615v-0.002c0-14.138 11.462-25.6 25.6-25.6s25.6 11.462 25.6 25.6v0c-0.055 46.271-37.551 83.765-83.817 83.818h-0.005z" />
<glyph unicode="&#xe906;" glyph-name="usuario" d="M596.223 498.555c-7.359-5.207-15.745-9.97-24.594-13.878l-0.931-0.367c-9.179-4.026-15.475-13.034-15.475-23.512 0-14.138 11.461-25.6 25.6-25.6 3.677 0 7.174 0.775 10.334 2.172l-0.164-0.065c13.23 5.781 24.575 12.222 35.152 19.679l-0.622-0.416c50.725 35.765 83.453 94.11 83.453 160.098 0 107.858-87.436 195.294-195.294 195.294s-195.294-87.436-195.294-195.294c0-78.505 46.322-146.192 113.125-177.218l1.205-0.502c3.11-1.448 6.751-2.293 10.59-2.293 14.139 0 25.601 11.462 25.601 25.601 0 10.3-6.083 19.179-14.852 23.242l-0.158 0.066c-50.213 23.278-84.415 73.253-84.415 131.217 0 79.634 64.556 144.19 144.19 144.19s144.19-64.556 144.19-144.19c0-48.731-24.175-91.817-61.185-117.917l-0.455-0.304zM230.625 109.465c0.001-14.138 11.462-25.599 25.6-25.6h391.193c14.138 0 25.6 11.462 25.6 25.6s-11.462 25.6-25.6 25.6v0h-365.592v177.545c0.027 23.247 18.864 42.084 42.107 42.112h52.648c14.138 0 25.6 11.462 25.6 25.6s-11.462 25.6-25.6 25.6v0h-52.645c-51.51-0.060-93.251-41.802-93.31-93.307v-0.006zM767.775 83.862c14.138 0.001 25.599 11.462 25.6 25.6v0 203.15c-0.062 51.509-41.803 93.249-93.307 93.308h-52.648c-14.138 0-25.6-11.462-25.6-25.6s11.462-25.6 25.6-25.6v0h52.642c23.246-0.026 42.083-18.862 42.113-42.105v-203.153c0.001-14.138 11.462-25.599 25.6-25.6v0z" />
<glyph unicode="&#xe907;" glyph-name="enlace-externo" d="M255.163 420.327c-1.463-0.96-2.738-2.006-3.89-3.173l-0.002-0.002c-1.153-1.171-2.212-2.441-3.162-3.795l-0.063-0.095c-0.837-1.276-1.611-2.741-2.242-4.28l-0.063-0.175c-0.588-1.349-1.1-2.942-1.454-4.592l-0.031-0.17c-0.324-1.5-0.51-3.224-0.51-4.991s0.186-3.491 0.539-5.153l-0.029 0.161c0.385-1.841 0.897-3.452 1.55-4.987l-0.065 0.172c0.71-1.698 1.482-3.145 2.37-4.51l-0.066 0.107c0.995-1.454 2.056-2.725 3.224-3.889l0.001-0.001c4.634-4.619 11.016-7.487 18.067-7.527h0.008c0.037 0 0.081 0 0.125 0 1.733 0 3.422 0.187 5.048 0.541l-0.156-0.028c1.816 0.364 3.41 0.859 4.929 1.495l-0.169-0.063c1.713 0.714 3.178 1.503 4.553 2.416l-0.098-0.061c1.449 1.014 2.721 2.074 3.896 3.231l-0.004-0.004c1.168 1.154 2.214 2.427 3.118 3.802l0.054 0.088c0.841 1.259 1.629 2.706 2.286 4.222l0.070 0.18c0.575 1.366 1.071 2.978 1.407 4.648l0.028 0.167c0.326 1.5 0.513 3.224 0.513 4.991s-0.187 3.491-0.541 5.152l0.029-0.161c-0.364 1.817-0.86 3.411-1.498 4.931l0.063-0.168c-0.711 1.712-1.5 3.177-2.415 4.551l0.060-0.096c-1.883 2.828-4.237 5.182-6.974 7.008l-0.091 0.057c-1.277 0.854-2.742 1.643-4.281 2.29l-0.174 0.065c-1.351 0.575-2.945 1.070-4.596 1.405l-0.164 0.028c-1.501 0.318-3.225 0.501-4.992 0.501s-3.492-0.182-5.156-0.529l0.163 0.028c-1.836-0.363-3.448-0.858-4.985-1.496l0.172 0.063c-1.697-0.728-3.143-1.516-4.506-2.42l0.104 0.065zM183.688 320.487c1.013-1.47 2.073-2.758 3.232-3.949l-0.007 0.007c1.162-1.151 2.434-2.195 3.797-3.116l0.093-0.059c1.26-0.841 2.708-1.629 4.225-2.286l0.18-0.069c1.346-0.568 2.939-1.062 4.589-1.403l0.171-0.030c1.486-0.326 3.193-0.513 4.944-0.513 0.026 0 0.052 0 0.078 0h-0.004c7.071 0.007 13.474 2.861 18.126 7.477l-0.002-0.002c1.153 1.175 2.198 2.464 3.115 3.846l0.060 0.096c0.841 1.259 1.629 2.706 2.286 4.222l0.070 0.18c0.568 1.347 1.062 2.941 1.403 4.591l0.030 0.171c0.326 1.486 0.513 3.192 0.513 4.942 0 0.026 0 0.053 0 0.079v-0.004c0 0.023 0 0.051 0 0.078 0 14.096-11.427 25.523-25.523 25.523-1.803 0-3.563-0.187-5.261-0.543l0.166 0.029c-1.822-0.373-3.415-0.868-4.937-1.5l0.177 0.065c-1.697-0.726-3.145-1.514-4.507-2.419l0.102 0.064c-1.463-0.959-2.736-2.004-3.888-3.17l-0.002-0.002c-4.628-4.647-7.498-11.048-7.527-18.119v-0.006c0.023-1.789 0.208-3.52 0.542-5.198l-0.030 0.18c0.373-1.823 0.868-3.417 1.5-4.939l-0.065 0.177c0.727-1.697 1.514-3.143 2.419-4.505l-0.064 0.103zM340.103 755.2c0.001-14.138 11.462-25.599 25.6-25.6h427.7v-428.095c0-14.138 11.462-25.6 25.6-25.6s25.6 11.462 25.6 25.6v0 453.695c-0.001 14.138-11.462 25.599-25.6 25.6h-453.3c-14.138-0.001-25.599-11.462-25.6-25.6v0zM513.718 643.395c-4.633 4.632-11.033 7.496-18.103 7.496s-13.469-2.865-18.103-7.496l-159.92-159.92c-4.621-4.631-7.479-11.023-7.479-18.083 0-14.139 11.462-25.601 25.601-25.601 7.060 0 13.452 2.858 18.083 7.479v0l159.92 159.92c4.633 4.633 7.498 11.033 7.498 18.103s-2.865 13.47-7.498 18.103v0zM530.358 246.687c0.009 0 0.021 0 0.032 0 7.059 0 13.449 2.866 18.070 7.497v0l159.13 159.13c4.633 4.633 7.498 11.033 7.498 18.103 0 14.139-11.462 25.601-25.601 25.601-7.069 0-13.47-2.865-18.103-7.498l-159.13-159.13c-4.633-4.633-7.499-11.033-7.499-18.102 0-14.138 11.462-25.6 25.6-25.6 0 0 0.001 0 0.001 0v0zM408.251 164.43c-2.889 1.227-6.25 1.94-9.777 1.94-14.12 0-25.57-11.43-25.603-25.542v-0.003c0-0.037 0-0.081 0-0.126 0-1.733 0.187-3.422 0.541-5.048l-0.028 0.156c0.365-1.837 0.86-3.449 1.496-4.987l-0.064 0.174c0.729-1.697 1.518-3.143 2.422-4.506l-0.065 0.104c4.695-6.872 12.466-11.343 21.286-11.418h0.011c1.785 0.017 3.517 0.203 5.193 0.542l-0.175-0.030c1.819 0.381 3.411 0.893 4.928 1.548l-0.165-0.063c1.705 0.681 3.172 1.472 4.533 2.406l-0.078-0.051c2.827 1.884 5.181 4.238 7.008 6.974l0.057 0.091c0.841 1.26 1.629 2.706 2.286 4.222l0.070 0.18c0.576 1.366 1.071 2.977 1.405 4.647l0.028 0.165c0.326 1.466 0.513 3.149 0.513 4.876 0 0.050 0 0.1 0 0.149v-0.008c0 0.023 0 0.049 0 0.076 0 8.801-4.475 16.557-11.274 21.116l-0.092 0.058c-1.283 0.881-2.75 1.671-4.3 2.299l-0.156 0.056zM484.538 219.367c-0.995 1.454-2.056 2.725-3.224 3.889l-0.001 0.001c-4.624 4.65-11.026 7.527-18.1 7.527s-13.476-2.878-18.099-7.526l-0.001-0.001c-1.168-1.154-2.214-2.427-3.118-3.802l-0.054-0.088c-0.841-1.259-1.629-2.706-2.286-4.222l-0.070-0.18c-0.575-1.366-1.071-2.978-1.407-4.648l-0.028-0.167c-0.326-1.5-0.513-3.224-0.513-4.991s0.187-3.491 0.541-5.152l-0.029 0.161c0.373-1.842 0.868-3.453 1.501-4.994l-0.066 0.181c0.726-1.697 1.514-3.145 2.419-4.507l-0.064 0.102c4.663-6.893 12.453-11.365 21.287-11.365 7.060 0 13.453 2.856 18.087 7.476l-0.001-0.001c1.172 1.163 2.233 2.435 3.167 3.801l0.058 0.089c0.841 1.26 1.629 2.708 2.286 4.225l0.069 0.18c0.567 1.359 1.062 2.97 1.405 4.637l0.030 0.176c0.324 1.5 0.51 3.224 0.51 4.991s-0.186 3.491-0.539 5.153l0.029-0.161c-0.364 1.837-0.86 3.449-1.498 4.987l0.064-0.172c-0.727 1.697-1.515 3.143-2.419 4.505l0.064-0.103z" />
<glyph unicode="&#xe908;" glyph-name="avion" d="M309.083 444.832c4.641-4.688 11.077-7.591 18.191-7.591 3.566 0 6.962 0.729 10.046 2.047l-0.167-0.063 242.685 101.49c9.314 3.968 15.725 13.044 15.725 23.618 0 14.138-11.461 25.599-25.599 25.599-3.565 0-6.96-0.729-10.043-2.045l0.167 0.063-226.76-94.83-112.155 113.285 594.465 91.057-197.93-485.832-204.2 202.79c-4.627 4.595-11.001 7.435-18.039 7.435-13.261 0-24.167-10.082-25.472-22.999l-0.009-0.108-20.455-208.993c-0.077-0.746-0.121-1.612-0.121-2.488 0-14.14 11.463-25.602 25.602-25.602 3.723 0 7.26 0.795 10.451 2.223l-0.162-0.065 144.15 63.292 79.43-78.88c4.627-4.595 11.002-7.435 18.040-7.435 10.657 0 19.794 6.512 23.648 15.773l0.062 0.169 229.45 563.2c1.196 2.856 1.891 6.175 1.891 9.657 0 14.139-11.462 25.601-25.601 25.601-1.368 0-2.711-0.107-4.020-0.314l0.145 0.019-688.745-105.498c-12.374-1.946-21.726-12.533-21.726-25.304 0-7.024 2.829-13.388 7.41-18.013l-0.002 0.002zM404.748 228.277l10.945 111.813 74.715-74.2z" />
<glyph unicode="&#xe909;" glyph-name="exclamacion" d="M512 268.487c0 0 0 0 0 0 14.138 0 25.6 11.461 25.6 25.6 0 0 0 0 0 0v0 461.112c0 14.138-11.462 25.6-25.6 25.6s-25.6-11.462-25.6-25.6v0-461.112c0 0 0 0 0 0 0-14.138 11.461-25.6 25.6-25.6 0 0 0 0 0 0v0zM486.89 135.807c0.385-1.841 0.897-3.45 1.55-4.985l-0.065 0.173c0.699-1.688 1.488-3.136 2.41-4.487l-0.054 0.084c0.974-1.458 2.019-2.73 3.176-3.891l-0.001 0.001c1.153-1.171 2.427-2.217 3.802-3.121l0.088-0.054c1.267-0.869 2.716-1.658 4.245-2.296l0.16-0.059c1.364-0.591 2.973-1.103 4.64-1.455l0.17-0.030c1.505-0.294 3.235-0.462 5.005-0.462 0.005 0 0.010 0 0.016 0h-0.001c0.026 0 0.057 0 0.088 0 8.797 0 16.548 4.477 21.099 11.276l0.058 0.092c0.872 1.267 1.662 2.716 2.297 4.245l0.058 0.158c0.594 1.366 1.106 2.976 1.456 4.646l0.029 0.167c0.296 1.501 0.465 3.227 0.465 4.992s-0.169 3.491-0.492 5.162l0.027-0.17c-0.379 1.836-0.891 3.446-1.548 4.979l0.064-0.167c-0.692 1.687-1.482 3.135-2.408 4.483l0.052-0.081c-4.627 6.916-12.406 11.409-21.235 11.409-1.78 0-3.518-0.183-5.195-0.53l0.165 0.029c-1.84-0.385-3.448-0.897-4.983-1.55l0.172 0.065c-1.689-0.7-3.138-1.489-4.49-2.41l0.085 0.055c-1.463-0.959-2.736-2.005-3.887-3.172l-0.003-0.003c-1.156-1.161-2.201-2.434-3.117-3.801l-0.058-0.092c-0.868-1.267-1.657-2.715-2.296-4.242l-0.060-0.161c-0.588-1.363-1.1-2.972-1.454-4.64l-0.031-0.172c-0.324-1.501-0.51-3.225-0.51-4.992s0.186-3.492 0.539-5.154l-0.029 0.162z" />
<glyph unicode="&#xe90a;" glyph-name="pro-inspeccion" d="M778.522 714.525c-30.315 30.309-72.191 49.055-118.446 49.055-92.522 0-167.526-75.004-167.526-167.526 0-26.506 6.156-51.574 17.115-73.852l-0.437 0.984c4.239-8.627 12.963-14.461 23.050-14.461 14.139 0 25.601 11.462 25.601 25.601 0 4.052-0.941 7.885-2.618 11.29l0.067-0.15c-7.304 14.783-11.577 32.186-11.577 50.586 0 64.233 52.071 116.303 116.303 116.303s116.303-52.071 116.303-116.303c0-64.233-52.071-116.303-116.303-116.303-15.097 0-29.523 2.877-42.758 8.112l0.788-0.275c-2.756 1.106-5.951 1.748-9.296 1.748-14.138 0-25.6-11.462-25.6-25.6 0-10.847 6.746-20.119 16.272-23.848l0.174-0.060c17.919-7.135 38.684-11.273 60.415-11.273 92.523 0 167.528 75.005 167.528 167.528 0 46.254-18.745 88.13-49.053 118.445v0zM220.542 156.535c14.915-14.878 35.5-24.077 58.234-24.077 22.737 0 43.325 9.203 58.243 24.086l200.683 200.68c4.634 4.632 7.5 11.033 7.5 18.103s-2.866 13.47-7.5 18.102l-22.033 22.037 22.032 22.034c4.633 4.633 7.499 11.033 7.499 18.103 0 14.138-11.461 25.599-25.599 25.599-7.068 0-13.468-2.865-18.1-7.497l-22.035-22.035-22.040 22.035c-4.632 4.632-11.032 7.497-18.1 7.497-14.138 0-25.599-11.461-25.599-25.599 0-7.070 2.866-13.47 7.499-18.102l62.17-62.172-182.58-182.58c-5.64-5.641-13.431-9.129-22.038-9.129-17.211 0-31.163 13.952-31.163 31.163 0 8.605 3.487 16.395 9.126 22.034l142.84 142.842c4.616 4.63 7.47 11.018 7.47 18.073 0 14.138-11.461 25.599-25.599 25.599-7.054 0-13.442-2.853-18.072-7.468l-142.844-142.844c-14.878-14.917-24.078-35.503-24.078-58.239 0-22.738 9.202-43.327 24.085-58.245l-0.002 0.002z" />
<glyph unicode="&#xe90b;" glyph-name="mensaje-leido" d="M179.199 145.72h443.73c14.138 0 25.6 11.462 25.6 25.6s-11.462 25.6-25.6 25.6v0h-418.13v293.638l307.025 203.42 307.375-203.428v-293.63h-84.035c-14.138 0-25.6-11.462-25.6-25.6s11.462-25.6 25.6-25.6v0h109.635c0 0 0 0 0 0 14.138 0 25.6 11.461 25.6 25.6 0 0 0 0 0 0v0 332.985c-0.001 8.876-4.517 16.696-11.377 21.289l-0.093 0.058-332.985 220.377c-3.975 2.665-8.867 4.253-14.129 4.253-5.267 0-10.163-1.591-14.233-4.318l0.092 0.058-332.615-220.378c-6.947-4.652-11.46-12.469-11.46-21.34v0-332.985c0 0 0 0 0 0 0-14.138 11.461-25.6 25.6-25.6 0 0 0 0 0 0v0zM291.069 255.89c4.642-4.693 11.082-7.6 18.201-7.6 7.018 0 13.377 2.825 18.001 7.4l-0.002-0.002 96.476 95.411 76.334-39.381c3.409-1.796 7.449-2.85 11.736-2.85 4.233 0 8.225 1.028 11.742 2.847l-0.143-0.067 76.624 38.952 104.061-95.565c4.545-4.194 10.641-6.766 17.338-6.766 14.138 0 25.599 11.461 25.599 25.599 0 7.463-3.194 14.181-8.289 18.86l-0.019 0.017-89.97 82.625 96.89 49.255c8.386 4.319 14.023 12.918 14.023 22.832 0 14.138-11.461 25.599-25.599 25.599-4.242 0-8.243-1.032-11.766-2.858l0.142 0.067-210.55-107.035-210.215 108.45c-3.409 1.795-7.449 2.848-11.735 2.848-14.138 0-25.598-11.461-25.598-25.598 0-9.851 5.565-18.403 13.723-22.683l0.141-0.067 97.681-50.395-84.626-83.692c-4.694-4.642-7.6-11.082-7.6-18.201 0-7.020 2.826-13.379 7.403-18.003l-0.002 0.002z" />
<glyph unicode="&#xe90c;" glyph-name="pro-edificios" d="M494.801 678.067c1.884-2.826 4.238-5.181 6.974-7.008l0.091-0.057c1.26-0.84 2.707-1.628 4.224-2.285l0.181-0.070c1.358-0.566 2.968-1.061 4.634-1.405l0.176-0.030c1.501-0.324 3.225-0.51 4.992-0.51s3.492 0.186 5.154 0.539l-0.162-0.029c1.837 0.364 3.45 0.86 4.988 1.499l-0.173-0.064c1.695 0.726 3.141 1.514 4.502 2.419l-0.102-0.064c1.465 0.96 2.74 2.006 3.893 3.173l0.002 0.002c1.152 1.161 2.195 2.433 3.112 3.798l0.058 0.092c0.886 1.283 1.677 2.75 2.301 4.302l0.054 0.153c0.622 1.366 1.136 2.96 1.462 4.621l0.023 0.139c0.312 1.502 0.498 3.234 0.515 5.007v0.013c-0.041 7.058-2.908 13.438-7.526 18.073l0.001-0.001c-1.156 1.168-2.431 2.214-3.806 3.12l-0.089 0.055c-1.266 0.868-2.713 1.657-4.239 2.296l-0.161 0.060c-1.379 0.618-2.992 1.131-4.67 1.461l-0.145 0.024c-1.501 0.317-3.225 0.499-4.992 0.499s-3.492-0.182-5.156-0.527l0.164 0.028c-1.826-0.363-3.436-0.876-4.963-1.544l0.153 0.060c-1.689-0.7-3.138-1.489-4.49-2.41l0.085 0.055c-1.457-0.976-2.729-2.021-3.891-3.176l0.001 0.001c-1.171-1.154-2.217-2.428-3.121-3.805l-0.054-0.088c-0.841-1.26-1.629-2.706-2.286-4.222l-0.069-0.18c-0.574-1.364-1.070-2.976-1.407-4.645l-0.028-0.168c-0.324-1.501-0.51-3.225-0.51-4.992s0.186-3.492 0.539-5.154l-0.029 0.162c0.365-1.816 0.861-3.41 1.498-4.929l-0.063 0.169c0.712-1.713 1.501-3.178 2.416-4.552l-0.061 0.097zM639.336 666.702c0.041 0 0.090 0 0.139 0 1.729 0 3.414 0.186 5.037 0.539l-0.156-0.028c1.815 0.363 3.409 0.859 4.927 1.497l-0.167-0.062c1.726 0.744 3.189 1.531 4.575 2.428l-0.12-0.073c1.458 0.974 2.73 2.019 3.891 3.176l-0.001-0.001c4.615 4.65 7.469 11.054 7.475 18.124v0.001c0 0.036 0 0.078 0 0.12 0 1.716-0.186 3.389-0.539 4.999l0.028-0.154c-0.362 1.835-0.858 3.447-1.498 4.984l0.063-0.171c-0.723 1.695-1.512 3.142-2.418 4.503l0.063-0.1c-0.958 1.464-2.004 2.739-3.172 3.89l-0.003 0.003c-1.16 1.155-2.433 2.2-3.798 3.117l-0.092 0.058c-1.277 0.852-2.742 1.641-4.28 2.29l-0.175 0.065c-1.364 0.619-2.958 1.132-4.618 1.461l-0.142 0.023c-1.49 0.305-3.202 0.48-4.955 0.48-7.095 0-13.521-2.863-18.187-7.497l0.001 0.001c-1.171-1.154-2.217-2.428-3.121-3.805l-0.054-0.088c-0.844-1.26-1.632-2.707-2.287-4.225l-0.068-0.178c-0.577-1.366-1.073-2.978-1.407-4.648l-0.028-0.165c-0.328-1.463-0.515-3.144-0.515-4.868 0-0.034 0-0.068 0-0.102v0.005c0-0.021 0-0.045 0-0.070 0-14.1 11.43-25.53 25.53-25.53 0.025 0 0.049 0 0.074 0h-0.004zM787.716 697.32c-0.395 1.827-0.906 3.418-1.552 4.938l0.067-0.178c-0.697 1.688-1.487 3.136-2.409 4.486l0.054-0.084c-0.958 1.464-2.004 2.739-3.172 3.89l-0.003 0.003c-1.171 1.154-2.441 2.213-3.795 3.162l-0.095 0.063c-1.26 0.84-2.707 1.628-4.224 2.285l-0.181 0.070c-1.364 0.575-2.975 1.071-4.643 1.407l-0.167 0.028c-1.495 0.31-3.213 0.487-4.973 0.487-7.076 0-13.483-2.867-18.123-7.502v0c-1.167-1.155-2.212-2.429-3.115-3.804l-0.055-0.088c-0.874-1.268-1.663-2.716-2.298-4.246l-0.058-0.157c-0.585-1.346-1.096-2.938-1.453-4.587l-0.031-0.173c-0.292-1.507-0.461-3.241-0.465-5.015v-0.003c-0.001-0.081-0.002-0.176-0.002-0.272 0-3.454 0.718-6.74 2.013-9.718l-0.061 0.158c0.693-1.687 1.483-3.135 2.408-4.484l-0.053 0.081c4.608-6.89 12.358-11.365 21.152-11.365 0.050 0 0.1 0 0.15 0h-0.008c0.031 0 0.067 0 0.104 0 1.723 0 3.403 0.186 5.021 0.539l-0.155-0.028c1.835 0.364 3.446 0.86 4.982 1.498l-0.172-0.064c1.698 0.727 3.145 1.515 4.509 2.42l-0.104-0.065c6.89 4.617 11.365 12.373 11.365 21.174 0 0.044 0 0.088 0 0.133v-0.007c-0.005 1.777-0.172 3.511-0.488 5.193l0.027-0.176zM726.996 84.752c0 0 0 0 0 0 14.138 0 25.6 11.461 25.6 25.6 0 0 0 0 0 0v0 127.107c0 0 0 0 0 0 0 14.138-11.461 25.6-25.6 25.6 0 0 0 0 0 0h-184.645c0 0 0 0 0 0-14.138 0-25.6-11.461-25.6-25.6 0 0 0 0 0 0v0-126.98c0-14.138 11.462-25.6 25.6-25.6s25.6 11.462 25.6 25.6v0 101.38h133.445v-101.507c0 0 0 0 0 0 0-14.138 11.461-25.6 25.6-25.6 0 0 0 0 0 0v0zM174.231 88.282c0 0 0 0 0 0 14.138 0 25.6 11.461 25.6 25.6 0 0 0 0 0 0v0 279.393h194.275v-282.795c0-14.138 11.462-25.6 25.6-25.6s25.6 11.462 25.6 25.6v0 306.064c0.071 0.78 0.235 1.532 0.235 2.331s-0.164 1.551-0.235 2.331v338.844h378.86v-649.697c0-14.138 11.462-25.6 25.6-25.6s25.6 11.462 25.6 25.6v0 675.297c0 0 0 0 0 0 0 14.138-11.461 25.6-25.6 25.6 0 0 0 0 0 0h-430.060c0 0 0 0 0 0-14.138 0-25.6-11.461-25.6-25.6 0 0 0 0 0 0v0-341.175h-219.875c0 0 0 0 0 0-14.138 0-25.6-11.461-25.6-25.6 0 0 0 0 0 0v0-304.993c0 0 0 0 0 0 0-14.138 11.461-25.6 25.6-25.6 0 0 0 0 0 0v0zM296.241 186.282c0 0 0 0 0 0 14.138 0 25.6 11.461 25.6 25.6 0 0 0 0 0 0v0 122.787c0 14.138-11.462 25.6-25.6 25.6s-25.6-11.462-25.6-25.6v0-122.787c0 0 0 0 0 0 0-14.138 11.461-25.6 25.6-25.6 0 0 0 0 0 0v0zM272.591 110.005c0.727-1.698 1.515-3.145 2.42-4.508l-0.065 0.103c0.978-1.456 2.023-2.728 3.177-3.892l-0.002 0.002c1.162-1.154 2.436-2.199 3.802-3.116l0.093-0.059c1.282-0.882 2.747-1.673 4.295-2.3l0.155-0.055c1.351-0.59 2.944-1.101 4.596-1.455l0.169-0.030c1.5-0.31 3.231-0.496 5.002-0.512h0.013c7.059 0.039 13.441 2.908 18.076 7.528l-0.001-0.001c1.154 1.171 2.213 2.441 3.162 3.795l0.063 0.095c0.84 1.26 1.628 2.707 2.285 4.224l0.070 0.181c0.574 1.364 1.070 2.976 1.407 4.645l0.028 0.167c0.324 1.456 0.51 3.129 0.51 4.845 0 0.042 0 0.084 0 0.127v-0.007c0.001 0.062 0.001 0.135 0.001 0.208 0 14.061-11.399 25.46-25.46 25.46-3.583 0-6.993-0.74-10.086-2.076l0.165 0.063c-1.703-0.683-3.168-1.473-4.528-2.406l0.078 0.051c-6.893-4.611-11.37-12.364-11.37-21.163 0-0.048 0-0.096 0-0.144v0.007c0-0.029 0-0.063 0-0.097 0-1.724 0.188-3.405 0.544-5.023l-0.028 0.154c0.36-1.834 0.854-3.446 1.492-4.983l-0.063 0.171zM491.011 564.505c0.365-1.816 0.861-3.41 1.498-4.929l-0.063 0.169c0.726-1.697 1.515-3.143 2.419-4.505l-0.064 0.103c0.959-1.484 2.006-2.774 3.175-3.942v0c1.161-1.155 2.433-2.2 3.798-3.117l0.092-0.058c1.26-0.84 2.707-1.628 4.224-2.285l0.181-0.070c1.358-0.566 2.968-1.061 4.634-1.405l0.176-0.030c1.501-0.326 3.225-0.513 4.992-0.513s3.492 0.187 5.154 0.541l-0.161-0.029c1.837 0.364 3.45 0.86 4.988 1.499l-0.173-0.064c1.695 0.726 3.141 1.514 4.502 2.419l-0.102-0.064c1.465 0.96 2.74 2.006 3.893 3.173l0.002 0.002c2.28 2.346 4.143 5.112 5.458 8.169l0.067 0.176c0.622 1.366 1.136 2.96 1.462 4.621l0.023 0.139c0.309 1.499 0.495 3.231 0.515 5.002v0.016c-0.028 7.077-2.898 13.477-7.526 18.126l0.001-0.001c-1.155 1.169-2.43 2.215-3.807 3.12l-0.088 0.055c-1.259 0.841-2.705 1.629-4.221 2.286l-0.179 0.069c-1.365 0.575-2.978 1.071-4.648 1.407l-0.167 0.028c-1.501 0.317-3.225 0.499-4.992 0.499s-3.492-0.182-5.156-0.527l0.164 0.028c-1.842-0.374-3.452-0.869-4.991-1.501l0.181 0.066c-1.698-0.728-3.145-1.516-4.509-2.42l0.104 0.065c-6.89-4.617-11.365-12.373-11.365-21.174 0-0.044 0-0.088 0-0.133v0.007c0-0.026 0-0.056 0-0.086 0-1.746 0.186-3.449 0.539-5.090l-0.029 0.158zM614.252 564.505c0.362-1.814 0.858-3.408 1.497-4.926l-0.062 0.166c0.742-1.725 1.53-3.188 2.427-4.574l-0.072 0.119c0.974-1.458 2.019-2.73 3.176-3.891l-0.001 0.001c4.659-4.598 11.054-7.448 18.114-7.477h0.006c0.038 0 0.083 0 0.127 0 1.733 0 3.422 0.187 5.049 0.541l-0.156-0.028c1.815 0.363 3.409 0.859 4.927 1.497l-0.167-0.062c1.726 0.744 3.189 1.531 4.575 2.428l-0.12-0.073c2.827 1.884 5.181 4.238 7.008 6.974l0.057 0.091c0.825 1.267 1.613 2.73 2.279 4.259l0.076 0.196c0.577 1.352 1.073 2.946 1.408 4.598l0.027 0.162c0.324 1.482 0.51 3.185 0.51 4.932 0 0.030 0 0.060 0 0.091v-0.005c-0.006 7.071-2.86 13.475-7.477 18.126l0.002-0.002c-1.16 1.156-2.432 2.201-3.799 3.117l-0.091 0.058c-1.266 0.824-2.729 1.612-4.257 2.278l-0.198 0.077c-1.351 0.576-2.945 1.072-4.597 1.407l-0.163 0.028c-1.529 0.325-3.286 0.512-5.087 0.512-14.102 0-25.533-11.432-25.533-25.533 0-0.024 0-0.048 0-0.073v0.004c0-0.019 0-0.041 0-0.063 0-1.755 0.188-3.466 0.544-5.114l-0.029 0.159zM787.716 574.542c-0.385 1.82-0.896 3.411-1.549 4.928l0.064-0.168c-0.699 1.709-1.489 3.175-2.411 4.543l0.056-0.088c-1.884 2.827-4.238 5.181-6.974 7.008l-0.091 0.057c-1.26 0.84-2.707 1.628-4.224 2.285l-0.181 0.070c-1.364 0.575-2.975 1.071-4.643 1.407l-0.167 0.028c-1.533 0.329-3.293 0.517-5.098 0.517-8.8 0-16.555-4.478-21.109-11.28l-0.058-0.092c-0.872-1.281-1.662-2.747-2.297-4.294l-0.059-0.161c-0.594-1.352-1.106-2.944-1.456-4.596l-0.029-0.164c-0.296-1.503-0.465-3.231-0.465-4.999 0-0.007 0-0.015 0-0.022v0.001c0.001-1.775 0.17-3.51 0.492-5.19l-0.027 0.172c0.378-1.816 0.89-3.408 1.547-4.922l-0.063 0.162c3.882-9.36 12.947-15.823 23.521-15.823 0.045 0 0.090 0 0.136 0h-0.007c0.027 0 0.060 0 0.092 0 1.728 0 3.412 0.187 5.033 0.541l-0.155-0.028c1.835 0.364 3.446 0.86 4.982 1.498l-0.172-0.064c1.698 0.727 3.145 1.515 4.509 2.42l-0.104-0.065c1.451 0.996 2.722 2.040 3.897 3.182l-0.007-0.007c1.156 1.16 2.201 2.432 3.117 3.798l0.058 0.092c0.852 1.277 1.641 2.742 2.29 4.28l0.065 0.175c0.589 1.349 1.1 2.94 1.454 4.59l0.030 0.17c0.291 1.508 0.458 3.242 0.46 5.016v0.002c0 0.003 0 0.006 0 0.009 0 1.772-0.167 3.504-0.487 5.183l0.027-0.172zM491.011 441.78c0.365-1.837 0.861-3.449 1.499-4.986l-0.064 0.174c0.727-1.698 1.515-3.145 2.42-4.508l-0.065 0.103c0.958-1.463 2.005-2.736 3.172-3.887l0.003-0.003c1.161-1.154 2.433-2.199 3.798-3.117l0.092-0.058c1.267-0.866 2.716-1.656 4.243-2.295l0.162-0.060c1.374-0.609 2.984-1.122 4.658-1.459l0.152-0.026c1.501-0.326 3.225-0.513 4.992-0.513s3.492 0.187 5.154 0.541l-0.161-0.029c1.823 0.354 3.436 0.867 4.961 1.543l-0.146-0.058c1.687 0.698 3.134 1.487 4.484 2.409l-0.084-0.054c2.829 1.881 5.184 4.236 7.008 6.974l0.057 0.091c0.873 1.268 1.663 2.717 2.297 4.247l0.058 0.158c0.622 1.38 1.136 2.992 1.462 4.671l0.023 0.141c0.327 1.5 0.515 3.224 0.515 4.991s-0.188 3.491-0.544 5.152l0.029-0.16c-0.358 1.825-0.871 3.438-1.543 4.964l0.059-0.149c-0.693 1.687-1.483 3.135-2.408 4.484l0.053-0.081c-0.975 1.457-2.018 2.729-3.172 3.892l0.002-0.002c-1.156 1.168-2.431 2.214-3.806 3.12l-0.089 0.055c-1.259 0.841-2.705 1.629-4.221 2.286l-0.179 0.069c-1.365 0.575-2.978 1.071-4.648 1.407l-0.167 0.028c-1.501 0.317-3.225 0.499-4.992 0.499s-3.492-0.182-5.156-0.527l0.164 0.028c-1.842-0.374-3.452-0.869-4.991-1.501l0.181 0.066c-1.698-0.727-3.145-1.515-4.509-2.42l0.104 0.065c-1.457-0.976-2.729-2.021-3.891-3.176l0.001 0.001c-1.156-1.16-2.201-2.433-3.117-3.798l-0.058-0.092c-0.839-1.259-1.627-2.705-2.285-4.221l-0.070-0.181c-0.565-1.359-1.060-2.97-1.404-4.638l-0.031-0.177c-0.324-1.5-0.51-3.224-0.51-4.991s0.186-3.491 0.539-5.153l-0.029 0.161zM614.252 441.78c0.362-1.835 0.858-3.447 1.498-4.983l-0.063 0.171c0.724-1.697 1.512-3.144 2.419-4.506l-0.063 0.101c0.958-1.463 2.005-2.736 3.172-3.887l0.003-0.003c1.16-1.155 2.433-2.2 3.798-3.117l0.092-0.058c1.281-0.868 2.746-1.658 4.291-2.295l0.164-0.060c1.349-0.589 2.941-1.101 4.591-1.454l0.169-0.030c1.498-0.307 3.229-0.492 4.999-0.512h0.016c1.786 0.017 3.519 0.203 5.195 0.542l-0.175-0.030c1.819 0.384 3.411 0.896 4.927 1.549l-0.167-0.064c1.713 0.714 3.178 1.503 4.553 2.417l-0.098-0.061c1.457 0.975 2.73 2.020 3.891 3.176l-0.001-0.001c1.17 1.154 2.217 2.427 3.121 3.802l0.054 0.088c0.843 1.261 1.631 2.708 2.287 4.226l0.069 0.179c0.577 1.366 1.073 2.978 1.407 4.648l0.028 0.165c0.324 1.456 0.51 3.129 0.51 4.845 0 0.042 0 0.084 0 0.126v-0.006c-0.006 7.071-2.86 13.475-7.477 18.126l0.002-0.002c-1.16 1.155-2.433 2.2-3.798 3.117l-0.092 0.058c-1.277 0.854-2.742 1.643-4.281 2.29l-0.174 0.065c-2.884 1.261-6.245 1.994-9.778 1.994s-6.893-0.734-9.939-2.057l0.161 0.062c-1.708-0.696-3.174-1.486-4.542-2.41l0.087 0.055c-1.457-0.975-2.73-2.020-3.891-3.176l0.001 0.001c-4.616-4.65-7.472-11.053-7.48-18.123v-0.002c0-0.029 0-0.063 0-0.098 0-1.724 0.188-3.404 0.543-5.022l-0.028 0.154zM787.716 451.762c-0.394 1.848-0.906 3.458-1.553 4.997l0.068-0.182c-0.699 1.688-1.488 3.136-2.41 4.487l0.054-0.084c-0.974 1.458-2.019 2.73-3.176 3.891l0.001-0.001c-1.161 1.154-2.433 2.199-3.798 3.117l-0.092 0.058c-1.26 0.84-2.707 1.628-4.224 2.285l-0.181 0.070c-1.364 0.575-2.975 1.071-4.643 1.407l-0.167 0.028c-1.501 0.317-3.225 0.499-4.992 0.499s-3.492-0.182-5.156-0.527l0.164 0.028c-1.837-0.364-3.45-0.86-4.988-1.499l0.173 0.064c-1.695-0.726-3.141-1.514-4.502-2.419l0.102 0.064c-1.464-0.96-2.739-2.007-3.893-3.173l-0.002-0.002c-1.152-1.161-2.195-2.433-3.112-3.798l-0.058-0.092c-0.872-1.267-1.662-2.716-2.297-4.245l-0.058-0.158c-1.233-2.925-1.95-6.326-1.95-9.894 0-1.734 0.169-3.429 0.492-5.069l-0.027 0.165c0.379-1.836 0.891-3.446 1.548-4.979l-0.064 0.167c0.693-1.688 1.482-3.137 2.408-4.486l-0.052 0.081c0.959-1.462 2.003-2.736 3.168-3.888l0.002-0.002c4.648-4.627 11.048-7.497 18.119-7.527h0.006c1.77 0.020 3.485 0.206 5.145 0.542l-0.175-0.030c1.821 0.354 3.432 0.867 4.956 1.542l-0.146-0.058c1.689 0.7 3.138 1.489 4.49 2.41l-0.085-0.055c6.89 4.617 11.365 12.373 11.365 21.174 0 0.026 0 0.052 0 0.078v-0.004c0 0.003 0 0.007 0 0.011 0 1.77-0.167 3.501-0.487 5.178l0.027-0.172zM491.011 319.002c0.365-1.837 0.861-3.449 1.499-4.986l-0.064 0.174c0.727-1.698 1.515-3.145 2.42-4.508l-0.065 0.103c1.884-2.827 4.238-5.181 6.974-7.008l0.091-0.057c1.267-0.866 2.716-1.656 4.243-2.295l0.162-0.060c1.355-0.579 2.964-1.090 4.628-1.452l0.182-0.033c1.501-0.326 3.225-0.513 4.992-0.513s3.492 0.187 5.154 0.541l-0.161-0.029c1.842 0.385 3.452 0.897 4.988 1.55l-0.173-0.065c1.687 0.698 3.134 1.487 4.484 2.409l-0.084-0.054c1.464 0.96 2.739 2.007 3.893 3.173l0.002 0.002c1.151 1.161 2.195 2.433 3.111 3.797l0.059 0.093c0.873 1.268 1.663 2.717 2.297 4.247l0.058 0.158c0.622 1.38 1.136 2.992 1.462 4.672l0.023 0.141c0.327 1.5 0.515 3.224 0.515 4.991s-0.188 3.491-0.544 5.152l0.029-0.16c-0.349 1.821-0.863 3.434-1.541 4.957l0.057-0.142c-0.693 1.687-1.483 3.135-2.408 4.484l0.053-0.081c-0.975 1.457-2.018 2.729-3.172 3.892l0.002-0.002c-1.156 1.168-2.431 2.214-3.806 3.12l-0.089 0.055c-1.266 0.869-2.714 1.659-4.24 2.296l-0.16 0.059c-1.364 0.589-2.975 1.101-4.644 1.454l-0.171 0.030c-1.501 0.317-3.225 0.499-4.992 0.499s-3.492-0.182-5.156-0.527l0.164 0.028c-1.845-0.393-3.454-0.905-4.99-1.552l0.18 0.067c-1.689-0.698-3.138-1.488-4.489-2.409l0.084 0.054c-1.457-0.976-2.729-2.021-3.891-3.176l0.001 0.001c-1.156-1.16-2.201-2.433-3.117-3.798l-0.058-0.092c-0.839-1.259-1.627-2.705-2.285-4.221l-0.070-0.181c-0.574-1.365-1.070-2.977-1.407-4.647l-0.028-0.168c-0.324-1.5-0.51-3.224-0.51-4.991s0.186-3.491 0.539-5.153l-0.029 0.161zM614.252 319.002c0.362-1.835 0.858-3.447 1.498-4.983l-0.063 0.171c0.724-1.697 1.512-3.144 2.419-4.506l-0.063 0.101c0.975-1.457 2.020-2.729 3.176-3.891l-0.001 0.001c4.655-4.612 11.048-7.478 18.11-7.527h0.010c1.786 0.017 3.519 0.203 5.195 0.542l-0.175-0.030c1.819 0.384 3.411 0.896 4.927 1.549l-0.167-0.064c1.713 0.714 3.178 1.503 4.553 2.416l-0.098-0.061c2.827 1.884 5.181 4.238 7.008 6.974l0.057 0.091c0.843 1.261 1.631 2.708 2.287 4.226l0.069 0.179c0.577 1.366 1.073 2.978 1.407 4.648l0.028 0.165c0.325 1.461 0.511 3.139 0.511 4.861 0 0.055 0 0.11-0.001 0.165v-0.008c0 0.022 0 0.048 0 0.074 0 8.801-4.475 16.556-11.274 21.116l-0.092 0.058c-1.277 0.854-2.742 1.643-4.281 2.29l-0.174 0.065c-2.884 1.261-6.245 1.994-9.778 1.994s-6.893-0.734-9.939-2.057l0.161 0.062c-1.708-0.696-3.174-1.486-4.542-2.41l0.087 0.055c-6.893-4.62-11.37-12.379-11.37-21.184 0-0.022 0-0.044 0-0.067v0.003c0-0.040 0-0.088 0-0.136 0-1.729 0.188-3.415 0.544-5.037l-0.029 0.155zM757.612 298.88c1.501-0.293 3.227-0.46 4.992-0.46s3.491 0.167 5.163 0.487l-0.171-0.027c1.84 0.385 3.448 0.897 4.983 1.55l-0.173-0.065c1.689 0.7 3.138 1.489 4.49 2.41l-0.085-0.055c6.919 4.641 11.412 12.433 11.412 21.274s-4.493 16.632-11.32 21.216l-0.092 0.058c-1.267 0.868-2.716 1.657-4.244 2.296l-0.161 0.060c-1.363 0.589-2.971 1.101-4.639 1.454l-0.171 0.030c-1.511 0.318-3.248 0.501-5.027 0.501-8.829 0-16.609-4.491-21.18-11.314l-0.058-0.092c-0.872-1.267-1.662-2.716-2.297-4.245l-0.058-0.158c-0.594-1.367-1.106-2.978-1.456-4.648l-0.029-0.167c-0.296-1.502-0.465-3.228-0.465-4.994 0-0.008 0-0.016 0-0.025v0.001c0.021-7.052 2.872-13.435 7.477-18.074l-0.002 0.002c1.156-1.168 2.431-2.214 3.806-3.12l0.089-0.055c1.266-0.868 2.713-1.657 4.239-2.296l0.161-0.060c1.363-0.588 2.973-1.1 4.642-1.454l0.173-0.031z" />
<glyph unicode="&#xe90d;" glyph-name="accion-insatis" d="M475.8 448.001l-237.882-237.9c-4.632-4.632-7.497-11.032-7.497-18.1 0-14.138 11.461-25.599 25.599-25.599 7.070 0 13.47 2.866 18.102 7.499l237.878 237.895 237.877-237.895c4.633-4.633 11.033-7.499 18.103-7.499 14.138 0 25.599 11.461 25.599 25.599 0 7.068-2.865 13.468-7.497 18.1l-237.882 237.9 237.885 237.9c4.632 4.632 7.497 11.032 7.497 18.1 0 14.138-11.461 25.599-25.599 25.599-7.070 0-13.47-2.866-18.102-7.499l-237.88-237.897-237.88 237.897c-4.633 4.633-11.033 7.499-18.103 7.499-14.138 0-25.599-11.461-25.599-25.599 0-7.068 2.865-13.468 7.497-18.1v0z" />
<glyph unicode="&#xe90e;" glyph-name="accion-satis" d="M408.565 173.9c4.632-4.634 11.031-7.5 18.1-7.5v0c0.006 0 0.014 0 0.021 0 0.882 0 1.753 0.045 2.612 0.134l-0.108-0.009c7.858 0.799 14.584 5.046 18.72 11.184l0.058 0.091 341.307 512c2.693 3.99 4.299 8.908 4.299 14.2 0 14.138-11.461 25.599-25.599 25.599-8.846 0-16.644-4.487-21.242-11.308l-0.058-0.091-323.985-486.015-148.563 148.585c-4.633 4.633-11.033 7.499-18.103 7.499-14.138 0-25.599-11.461-25.599-25.599 0-7.068 2.865-13.468 7.497-18.1v0z" />
<glyph unicode="&#xe90f;" glyph-name="ajustes" d="M587.17 583.003c-21.657 12.279-47.567 19.515-75.168 19.515-85.34 0-154.522-69.182-154.522-154.522s69.182-154.522 154.522-154.522c85.34 0 154.522 69.182 154.522 154.522 0 15.070-2.157 29.636-6.18 43.406l0.273-1.092c-11.556 40.133-37.933 72.778-72.675 92.294l-0.772 0.399zM540.297 348.623c-8.479-2.508-18.22-3.951-28.299-3.951-57.064 0-103.324 46.26-103.324 103.324s46.26 103.324 103.324 103.324c46.987 0 86.649-31.364 99.191-74.299l0.183-0.73c2.491-8.456 3.924-18.171 3.924-28.221 0-46.997-31.344-86.672-74.268-99.263l-0.731-0.184zM336.087 710.371c3.177-10.781 12.986-18.516 24.6-18.516 14.138 0 25.6 11.462 25.6 25.6 0 2.473-0.351 4.864-1.005 7.126l0.045-0.181-3.908 13.715 38.812 11.052 14.628-51.382c3.152-10.819 12.978-18.59 24.62-18.59 2.498 0 4.913 0.358 7.196 1.025l-0.181-0.045 49.957 14.228c10.83 3.145 18.613 12.977 18.613 24.627 0 14.138-11.461 25.599-25.599 25.599-2.507 0-4.93-0.36-7.219-1.032l0.181 0.046-25.332-7.215-14.627 51.383c-3.153 10.818-12.979 18.589-24.62 18.589-2.497 0-4.911-0.358-7.193-1.024l0.181 0.045-88.060-25.073c-10.819-3.154-18.589-12.982-18.589-24.624 0-2.498 0.358-4.912 1.025-7.194l-0.045 0.181zM583.055 723.098c3.587-2.032 7.879-3.23 12.45-3.23 9.566 0 17.908 5.246 22.304 13.018l0.066 0.127 6.94 12.465 35.257-19.63-25.987-46.675c-2.034-3.588-3.233-7.88-3.233-12.453 0-9.565 5.246-17.905 13.018-22.298l0.128-0.066 45.38-25.27c3.584-2.028 7.87-3.223 12.436-3.223 14.138 0 25.599 11.461 25.599 25.599 0 9.557-5.237 17.891-12.998 22.288l-0.127 0.066-23.015 12.818 25.988 46.675c2.034 3.588 3.233 7.881 3.233 12.453 0 9.566-5.247 17.907-13.021 22.3l-0.128 0.066-79.992 44.537c-3.588 2.034-7.881 3.233-12.453 3.233-9.566 0-17.907-5.247-22.3-13.021l-0.066-0.128-19.393-34.832c-2.034-3.588-3.232-7.88-3.232-12.452 0-9.566 5.247-17.907 13.020-22.301l0.128-0.066zM758.402 443.553c3.153-10.819 12.98-18.591 24.623-18.591 14.139 0 25.601 11.462 25.601 25.601 0 2.497-0.357 4.91-1.024 7.191l0.045-0.181-7.213 25.333 51.375 14.627c10.819 3.154 18.59 12.982 18.59 24.625 0 2.496-0.357 4.908-1.023 7.189l0.045-0.181-25.068 88.055c-3.152 10.818-12.979 18.589-24.62 18.589-2.497 0-4.911-0.358-7.193-1.024l0.181 0.045-38.34-10.918c-10.818-3.153-18.589-12.979-18.589-24.62 0-14.138 11.461-25.599 25.599-25.599 2.497 0 4.91 0.357 7.191 1.024l-0.181-0.045 13.718 3.905 11.050-38.81-51.378-14.627c-10.819-3.154-18.59-12.982-18.59-24.625 0-2.496 0.357-4.908 1.023-7.189l-0.045 0.181zM708.355 315.998l-25.265-45.38c-2.034-3.588-3.233-7.88-3.233-12.453 0-14.139 11.462-25.6 25.6-25.6 9.566 0 17.907 5.247 22.301 13.020l0.066 0.128 12.813 23.013 46.672-25.983c3.587-2.032 7.878-3.229 12.449-3.229 9.566 0 17.906 5.244 22.304 13.014l0.066 0.127 44.537 79.988c2.034 3.588 3.233 7.881 3.233 12.454 0 9.565-5.245 17.904-13.016 22.3l-0.127 0.066-34.832 19.4c-3.595 2.045-7.899 3.25-12.484 3.25-14.139 0-25.6-11.462-25.6-25.6 0-9.575 5.257-17.922 13.041-22.313l0.128-0.066 12.47-6.945-19.63-35.26-46.675 25.985c-3.588 2.034-7.881 3.233-12.453 3.233-9.566 0-17.907-5.247-22.3-13.021l-0.066-0.128zM696.582 127.816c2.034 3.588 3.233 7.881 3.233 12.454 0 2.496-0.357 4.908-1.023 7.189l0.045-0.181-10.915 38.34c-3.153 10.819-12.98 18.591-24.623 18.591-14.139 0-25.601-11.462-25.601-25.601 0-2.497 0.357-4.91 1.024-7.191l-0.045 0.181 3.908-13.718-38.813-11.050-14.632 51.38c-3.157 10.817-12.984 18.586-24.626 18.586-2.494 0-4.905-0.357-7.185-1.022l0.181 0.045-49.958-14.222c-10.819-3.153-18.591-12.98-18.591-24.623 0-14.139 11.462-25.601 25.601-25.601 2.497 0 4.91 0.357 7.191 1.024l-0.181-0.045 25.337 7.215 14.632-51.38c3.141-10.82 12.963-18.595 24.601-18.595 2.504 0 4.923 0.36 7.21 1.030l-0.181-0.045 88.052 25.068c6.64 1.934 12.043 6.299 15.291 12.043l0.066 0.128zM299.8 266.993c-2.034-3.588-3.233-7.88-3.233-12.453 0-9.566 5.247-17.907 13.020-22.301l0.128-0.066 23.015-12.81-25.985-46.675c-2.034-3.588-3.233-7.88-3.233-12.453 0-9.565 5.246-17.906 13.017-22.301l0.128-0.066 79.988-44.537c3.589-2.037 7.884-3.237 12.459-3.237 9.564 0 17.903 5.247 22.295 13.020l0.066 0.128 19.4 34.832c2.036 3.589 3.235 7.883 3.235 12.457 0 14.139-11.462 25.6-25.6 25.6-9.564 0-17.904-5.245-22.299-13.015l-0.066-0.127-6.945-12.47-35.257 19.63 25.985 46.678c2.033 3.588 3.232 7.88 3.232 12.452 0 9.566-5.247 17.907-13.019 22.302l-0.128 0.066-45.383 25.262c-3.588 2.035-7.881 3.234-12.454 3.234-9.566 0-17.906-5.248-22.3-13.021l-0.066-0.128zM179.645 278.773c3.154-10.819 12.982-18.59 24.625-18.59 2.496 0 4.908 0.357 7.188 1.023l-0.181-0.045 38.348 10.917c10.819 3.153 18.591 12.98 18.591 24.623 0 14.139-11.462 25.601-25.601 25.601-2.497 0-4.91-0.357-7.191-1.024l0.181 0.045-13.725-3.908-11.050 38.813 51.382 14.632c10.818 3.154 18.588 12.98 18.588 24.622 0 2.496-0.357 4.909-1.023 7.189l0.045-0.181-14.223 49.958c-3.149 10.825-12.979 18.602-24.626 18.602-14.139 0-25.601-11.462-25.601-25.601 0-2.501 0.359-4.918 1.027-7.202l-0.045 0.181 7.215-25.337-51.383-14.632c-10.818-3.154-18.588-12.98-18.588-24.622 0-2.496 0.357-4.909 1.023-7.189l-0.045 0.181zM167.25 528.525l34.83-19.393c3.588-2.034 7.88-3.233 12.453-3.233 14.139 0 25.6 11.462 25.6 25.6 0 9.566-5.247 17.907-13.020 22.301l-0.128 0.066-12.462 6.938 19.63 35.263 46.673-25.99c3.588-2.035 7.881-3.234 12.454-3.234 9.567 0 17.908 5.247 22.302 13.021l0.066 0.128 25.265 45.38c2.034 3.588 3.233 7.88 3.233 12.453 0 14.139-11.462 25.6-25.6 25.6-9.566 0-17.907-5.247-22.301-13.020l-0.066-0.128-12.812-23.013-46.67 25.99c-3.588 2.035-7.881 3.234-12.454 3.234-9.567 0-17.908-5.247-22.302-13.021l-0.066-0.128-44.537-79.995c-2.034-3.588-3.233-7.88-3.233-12.452 0-9.566 5.247-17.907 13.020-22.302l0.128-0.066z" />
<glyph unicode="&#xe910;" glyph-name="pro-juicio" d="M150.257 166.401h432.763c14.138 0 25.6 11.462 25.6 25.6s-11.462 25.6-25.6 25.6v0h-432.763c-14.138 0-25.6-11.462-25.6-25.6s11.462-25.6 25.6-25.6v0zM204.354 230.083c14.138 0.001 25.599 11.462 25.6 25.6v0 28.492h273.368v-28.492c0-14.138 11.462-25.6 25.6-25.6s25.6 11.462 25.6 25.6v0 54.092c-0.001 14.138-11.462 25.599-25.6 25.6h-324.568c-14.138-0.001-25.599-11.462-25.6-25.6v0-54.092c0.001-14.138 11.462-25.599 25.6-25.6v0zM352.204 473.328l98.788-44.118c3.072-1.41 6.666-2.232 10.451-2.232 10.357 0 19.276 6.155 23.299 15.007l0.065 0.16 62.285 139.457c1.406 3.070 2.225 6.659 2.225 10.44 0 10.358-6.151 19.279-15 23.31l-0.16 0.065-98.785 44.117c-3.070 1.407-6.66 2.227-10.442 2.227-10.358 0-19.279-6.152-23.308-15.001l-0.065-0.16-62.287-139.458c-1.406-3.070-2.225-6.659-2.225-10.44 0-10.358 6.151-19.279 15-23.31l0.16-0.065zM437.867 602.348l52.035-23.24-41.405-92.71-52.038 23.24zM444.834 680.626l98.79-44.118c3.070-1.406 6.659-2.225 10.44-2.225 14.139 0 25.6 11.462 25.6 25.6 0 10.358-6.151 19.279-15 23.31l-0.16 0.065-98.79 44.117c-3.073 1.41-6.668 2.232-10.454 2.232-14.139 0-25.6-11.462-25.6-25.6 0-10.363 6.158-19.288 15.014-23.316l0.161-0.065zM320.122 402.62l98.783-44.118c3.070-1.406 6.659-2.225 10.44-2.225 14.139 0 25.6 11.462 25.6 25.6 0 10.358-6.151 19.279-15 23.31l-0.16 0.065-98.782 44.118c-3.070 1.406-6.659 2.225-10.44 2.225-14.139 0-25.6-11.462-25.6-25.6 0-10.358 6.151-19.279 15-23.31l0.16-0.065zM616.339 436.585l246.962-110.292c3.070-1.406 6.659-2.225 10.44-2.225 14.139 0 25.6 11.462 25.6 25.6 0 10.358-6.151 19.279-15 23.31l-0.16 0.065-246.962 110.292c-3.070 1.406-6.659 2.225-10.44 2.225-14.139 0-25.6-11.462-25.6-25.6 0-10.358 6.151-19.279 15-23.31l0.16-0.065zM553.004 519.066c-14.138-0.001-25.599-11.462-25.6-25.6v0-1.275c0-14.138 11.462-25.6 25.6-25.6s25.6 11.462 25.6 25.6v0 1.275c-0.001 14.138-11.462 25.599-25.6 25.6v0z" />
<glyph unicode="&#xe911;" glyph-name="aviso-correcto" d="M443.504 322.823c4.525-6.398 11.789-10.601 20.049-10.889l0.044-0.001c0.29-0.010 0.58-0.015 0.872-0.015 8.022 0.001 15.182 3.692 19.875 9.468l0.037 0.047 178.465 220.96c3.54 4.356 5.684 9.97 5.684 16.085 0 14.138-11.461 25.6-25.6 25.6-8.023 0-15.184-3.691-19.878-9.467l-0.037-0.047-157.102-194.51-63.89 91.14c-4.69 6.63-12.327 10.905-20.962 10.905-14.139 0-25.6-11.462-25.6-25.6 0-5.503 1.736-10.601 4.691-14.775l-0.054 0.080zM511.999 64.001c212.066 0.014 383.975 171.931 383.975 384 0 212.077-171.923 384-384 384-212.068 0-383.985-171.908-384-383.973v-0.002c0.248-211.991 172.034-383.777 384.001-384.025h0.024zM511.999 780.801c183.79-0.014 332.775-149.008 332.775-332.8 0-183.8-149-332.8-332.8-332.8s-332.8 149-332.8 332.8c0 0.009 0 0.018 0 0.026v-0.001c0.229 183.712 149.109 332.574 332.806 332.775h0.019z" />
<glyph unicode="&#xe912;" glyph-name="aviso-info" d="M512.001 64.001c212.066 0.016 383.973 171.932 383.973 384 0 212.077-171.923 384-384 384-212.069 0-383.986-171.909-384-383.974v-0.001c0.247-211.993 172.035-383.78 384.004-384.025h0.023zM512.001 780.801c183.788-0.016 332.773-149.009 332.773-332.8 0-183.8-149-332.8-332.8-332.8s-332.8 149-332.8 332.8c0 0.009 0 0.018 0 0.026v-0.001c0.229 183.713 149.111 332.576 332.808 332.775h0.019zM506.029 591.935c14.138 0.001 25.599 11.462 25.6 25.6v0 1.35c0 14.138-11.462 25.6-25.6 25.6s-25.6-11.462-25.6-25.6v0-1.35c0.001-14.138 11.462-25.599 25.6-25.6v0zM459.274 284.315h105.45c14.138 0 25.6 11.462 25.6 25.6s-11.462 25.6-25.6 25.6v0h-27.272v166.21c-0.001 14.138-11.462 25.599-25.6 25.6h-35.153c-14.138 0-25.6-11.462-25.6-25.6s11.462-25.6 25.6-25.6v0h9.552v-140.588l-27-0.022c-14.134-0.006-25.589-11.465-25.589-25.6 0-14.138 11.462-25.6 25.6-25.6 0.004 0 0.008 0 0.012 0h-0.001z" />
<glyph unicode="&#xe913;" glyph-name="ayuda" d="M375.663 543.923c11.004 3.031 18.953 12.949 18.953 24.723 0 2.364-0.32 4.653-0.92 6.827l0.042-0.18c-2.658 9.525-4.186 20.463-4.186 31.758 0 65.604 51.546 119.168 116.347 122.402l0.289 0.012c1.734 0.088 3.765 0.138 5.808 0.138 67.625 0 122.447-54.821 122.447-122.447 0-37.487-16.846-71.040-43.381-93.501l-0.179-0.148c-0.155-0.13-0.308-0.263-0.46-0.398l-76.432-67.655c-27.345-24.312-44.49-59.58-44.502-98.853v-64.379c0-14.138 11.462-25.6 25.6-25.6s25.6 11.462 25.6 25.6v0 64.378c0.008 24.044 10.504 45.635 27.161 60.448l0.082 0.072 76.207 67.457c37.659 32.044 61.391 79.479 61.391 132.457 0 95.871-77.719 173.59-173.59 173.59s-173.59-77.719-173.59-173.59c0-16.018 2.17-31.529 6.231-46.256l-0.287 1.219c3.031-11.004 12.949-18.953 24.723-18.953 2.364 0 4.653 0.32 6.827 0.92l-0.18-0.042zM523.945 140.801v1.070c0 14.138-11.462 25.6-25.6 25.6s-25.6-11.462-25.6-25.6v0-1.070c0-14.138 11.462-25.6 25.6-25.6s25.6 11.462 25.6 25.6v0z" />
<glyph unicode="&#xe914;" glyph-name="bloc-notas" d="M707.878 699.003h26.188v-532.602c0-14.138 11.462-25.6 25.6-25.6s25.6 11.462 25.6 25.6v0 558.202c-0.001 14.138-11.462 25.599-25.6 25.6h-51.788c-14.138 0-25.6-11.462-25.6-25.6s11.462-25.6 25.6-25.6v0zM264.333 140.803h395.015c14.138 0 25.6 11.462 25.6 25.6s-11.462 25.6-25.6 25.6v0h-369.415v507.003h29.685c14.138 0 25.6 11.462 25.6 25.6s-11.462 25.6-25.6 25.6v0h-55.285c-14.138-0.001-25.599-11.462-25.6-25.6v0-558.203c0.001-14.138 11.462-25.599 25.6-25.6v0zM404.416 629.27c14.138 0.001 25.599 11.462 25.6 25.6v0 74.058c0 14.138-11.462 25.6-25.6 25.6s-25.6-11.462-25.6-25.6v0-74.058c0.001-14.138 11.462-25.599 25.6-25.6v0zM553.743 629.27c14.138 0.001 25.599 11.462 25.6 25.6v0 74.058c0 14.138-11.462 25.6-25.6 25.6s-25.6-11.462-25.6-25.6v0-74.058c0.001-14.138 11.462-25.599 25.6-25.6v0zM628.398 702.65c14.138 0.001 25.599 11.462 25.6 25.6v0 1.35c0 14.138-11.462 25.6-25.6 25.6s-25.6-11.462-25.6-25.6v0-1.35c0.001-14.138 11.462-25.599 25.6-25.6v0zM479.078 702.65c14.138 0.001 25.599 11.462 25.6 25.6v0 1.35c0 14.138-11.462 25.6-25.6 25.6s-25.6-11.462-25.6-25.6v0-1.35c0.001-14.138 11.462-25.599 25.6-25.6v0z" />
<glyph unicode="&#xe915;" glyph-name="calendario" d="M803.781 179.231h-583.562c-14.138 0.001-25.599 11.462-25.6 25.6v0 291.802c0 14.138 11.462 25.6 25.6 25.6s25.6-11.462 25.6-25.6v0-266.202h532.362v25.498c0 14.138 11.462 25.6 25.6 25.6s25.6-11.462 25.6-25.6v0-51.098c-0.001-14.138-11.462-25.599-25.6-25.6v0zM220.221 565.593c-14.138 0.001-25.599 11.462-25.6 25.6v0 51.092c0.001 14.138 11.462 25.599 25.6 25.6h96.455c14.138 0 25.6-11.462 25.6-25.6s-11.462-25.6-25.6-25.6v0h-70.855v-25.492c-0.001-14.138-11.462-25.599-25.6-25.6v0zM560.556 616.685h-98.258c-14.138 0-25.6 11.462-25.6 25.6s11.462 25.6 25.6 25.6v0h98.258c14.138 0 25.6-11.462 25.6-25.6s-11.462-25.6-25.6-25.6v0zM803.781 324.88c-14.138 0.001-25.599 11.462-25.6 25.6v0 266.205h-71.818c-14.138 0-25.6 11.462-25.6 25.6s11.462 25.6 25.6 25.6v0h97.418c14.138-0.001 25.599-11.462 25.6-25.6v0-291.805c-0.001-14.138-11.462-25.599-25.6-25.6v0zM390.423 565.593c-14.138 0.001-25.599 11.462-25.6 25.6v0 99.978c0 14.138 11.462 25.6 25.6 25.6s25.6-11.462 25.6-25.6v0-99.978c-0.001-14.138-11.462-25.599-25.6-25.6v0zM633.578 565.593c-14.138 0.001-25.599 11.462-25.6 25.6v0 99.978c0 14.138 11.462 25.6 25.6 25.6s25.6-11.462 25.6-25.6v0-99.978c-0.001-14.138-11.462-25.599-25.6-25.6v0zM656.778 297.9c-14.138 0.001-25.599 11.462-25.6 25.6v0 1.187c0 14.138 11.462 25.6 25.6 25.6s25.6-11.462 25.6-25.6v0-1.187c-0.001-14.138-11.462-25.599-25.6-25.6v0zM510.401 297.9c-14.138 0.001-25.599 11.462-25.6 25.6v0 1.187c0 14.138 11.462 25.6 25.6 25.6s25.6-11.462 25.6-25.6v0-1.187c-0.001-14.138-11.462-25.599-25.6-25.6v0zM364.526 297.9c-14.138 0.001-25.599 11.462-25.6 25.6v0 1.187c0 14.138 11.462 25.6 25.6 25.6s25.6-11.462 25.6-25.6v0-1.187c-0.001-14.138-11.462-25.599-25.6-25.6v0zM656.778 444.536c-14.138 0.001-25.599 11.462-25.6 25.6v0 1.187c0 14.138 11.462 25.6 25.6 25.6s25.6-11.462 25.6-25.6v0-1.187c-0.001-14.138-11.462-25.599-25.6-25.6v0zM510.401 444.536c-14.138 0.001-25.599 11.462-25.6 25.6v0 1.187c0 14.138 11.462 25.6 25.6 25.6s25.6-11.462 25.6-25.6v0-1.187c-0.001-14.138-11.462-25.599-25.6-25.6v0zM364.526 444.536c-14.138 0.001-25.599 11.462-25.6 25.6v0 1.187c0 14.138 11.462 25.6 25.6 25.6s25.6-11.462 25.6-25.6v0-1.187c-0.001-14.138-11.462-25.599-25.6-25.6v0z" />
<glyph unicode="&#xe916;" glyph-name="camara" d="M356.058 667.681h-70.968c-14.138 0-25.6 11.462-25.6 25.6s11.462 25.6 25.6 25.6v0h70.968c14.138 0 25.6-11.462 25.6-25.6s-11.462-25.6-25.6-25.6v0zM339.185 177.121h-56.97c-46.283 0.055-83.788 37.56-83.843 83.837v287.345c0.057 46.11 37.424 83.474 83.53 83.525h345.307c14.138 0 25.6-11.462 25.6-25.6s-11.462-25.6-25.6-25.6v0h-345.302c-17.848-0.017-32.312-14.478-32.335-32.323v-287.342c0.020-18.020 14.623-32.622 32.641-32.642h56.972c14.138 0 25.6-11.462 25.6-25.6s-11.462-25.6-25.6-25.6v0zM741.808 177.121h-287.412c-14.138 0-25.6 11.462-25.6 25.6s11.462 25.6 25.6 25.6v0h287.412c18.009 0.024 32.6 14.62 32.617 32.628v287.674c-0.021 17.668-14.337 31.984-32.003 32.005h-0.002c-14.138 0-25.6 11.462-25.6 25.6s11.462 25.6 25.6 25.6v0c45.932-0.053 83.152-37.273 83.205-83.2v-287.677c-0.050-46.274-37.545-83.773-83.812-83.83h-0.005zM493.133 263.783c-77.783 0.074-140.81 63.147-140.81 140.94 0 9.991 1.040 19.74 3.017 29.143l-0.162-0.918c2.428 11.815 12.742 20.574 25.102 20.574 14.138 0 25.6-11.462 25.6-25.6 0-1.855-0.197-3.664-0.572-5.407l0.030 0.168c-1.175-5.443-1.848-11.696-1.848-18.106 0-49.499 40.127-89.627 89.627-89.627s89.627 40.127 89.627 89.627c0 49.494-40.118 89.617-89.609 89.627h-0.001c-0.047 0-0.102 0-0.157 0-18.169 0-35.069-5.432-49.165-14.762l0.332 0.206c-3.951-2.62-8.803-4.18-14.020-4.18-14.139 0-25.6 11.462-25.6 25.6 0 8.922 4.564 16.778 11.485 21.361l0.095 0.059c21.714 14.373 48.369 22.931 77.022 22.931 77.772 0 140.818-63.046 140.818-140.818 0-77.769-63.042-140.814-140.81-140.818v0zM686.788 493.503c-14.138 0.001-25.599 11.462-25.6 25.6v0 1.407c0 14.138 11.462 25.6 25.6 25.6s25.6-11.462 25.6-25.6v0-1.407c-0.001-14.138-11.462-25.599-25.6-25.6v0z" />
<glyph unicode="&#xe917;" glyph-name="cargando" d="M519.211 698.89c-21.208 0-38.4 17.192-38.4 38.4v0 1.188c0 21.208 17.192 38.4 38.4 38.4s38.4-17.192 38.4-38.4v0-1.188c0-21.208-17.192-38.4-38.4-38.4v0zM801.886 401.795c-21.208 0-38.4 17.192-38.4 38.4v0 1.187c0 21.208 17.192 38.4 38.4 38.4s38.4-17.192 38.4-38.4v0-1.187c0-21.208-17.192-38.4-38.4-38.4v0zM711.881 198.928c-21.208 0-38.4 17.192-38.4 38.4v0 1.188c0 21.208 17.192 38.4 38.4 38.4s38.4-17.192 38.4-38.4v0-1.188c0-21.208-17.192-38.4-38.4-38.4v0zM504.791 119.12c-21.208 0-38.4 17.192-38.4 38.4v0 1.187c0 21.208 17.192 38.4 38.4 38.4s38.4-17.192 38.4-38.4v0-1.187c0-21.208-17.192-38.4-38.4-38.4v0zM222.116 416.216c-21.208 0-38.4 17.192-38.4 38.4v0 1.19c0 21.208 17.192 38.4 38.4 38.4s38.4-17.192 38.4-38.4v0-1.19c0-21.208-17.192-38.4-38.4-38.4v0zM312.121 619.085c-21.208 0-38.4 17.192-38.4 38.4v0 1.188c0 21.208 17.192 38.4 38.4 38.4s38.4-17.192 38.4-38.4v0-1.188c0-21.208-17.192-38.4-38.4-38.4v0zM301.921 209.128c-21.208 0-38.4 17.192-38.4 38.4v0 1.187c0 21.208 17.192 38.4 38.4 38.4s38.4-17.192 38.4-38.4v0-1.187c0-21.208-17.192-38.4-38.4-38.4v0zM722.081 608.888c-21.208 0-38.4 17.192-38.4 38.4v0 1.188c0 21.208 17.192 38.4 38.4 38.4s38.4-17.192 38.4-38.4v0-1.188c0-21.208-17.192-38.4-38.4-38.4v0z" />
<glyph unicode="&#xe918;" glyph-name="chat" d="M343.083 326.435c0 0 0 0 0 0 0 14.138-11.461 25.6-25.6 25.6 0 0 0 0 0 0h-71.665v289.24h412.075c14.138 0 25.6 11.462 25.6 25.6s-11.462 25.6-25.6 25.6v0h-437.675c-14.138-0.001-25.599-11.462-25.6-25.6v0-340.44c0.001-14.138 11.462-25.599 25.6-25.6h97.265c0 0 0 0 0 0 14.138 0 25.6 11.461 25.6 25.6 0 0 0 0 0 0v0zM803.783 692.473h-48.63c-14.138 0-25.6-11.462-25.6-25.6s11.462-25.6 25.6-25.6v0h23.030v-289.238h-348.58c-14.185-0.101-25.648-11.61-25.675-25.802v-0.003c-0.048-39.474-32.036-71.46-71.506-71.505h-0.004c-14.138 0-25.6-11.462-25.6-25.6s11.462-25.6 25.6-25.6v0c58.747 0.080 107.828 41.363 119.901 96.497l0.149 0.813h351.315c0 0 0 0 0 0 14.138 0 25.6 11.461 25.6 25.6 0 0 0 0 0 0v0 340.437c0 0 0 0 0 0 0 14.138-11.461 25.6-25.6 25.6 0 0 0 0 0 0v0zM317.483 552.923h97.26c14.138 0 25.6 11.462 25.6 25.6s-11.462 25.6-25.6 25.6v0h-97.26c-14.138 0-25.6-11.462-25.6-25.6s11.462-25.6 25.6-25.6v0zM291.883 498.913c0 0 0 0 0 0 0-14.138 11.461-25.6 25.6-25.6 0 0 0 0 0 0h389.040c14.138 0 25.6 11.462 25.6 25.6s-11.462 25.6-25.6 25.6v0h-389.040c0 0 0 0 0 0-14.138 0-25.6-11.461-25.6-25.6 0 0 0 0 0 0v0zM706.523 444.905h-389.040c-14.138 0-25.6-11.462-25.6-25.6s11.462-25.6 25.6-25.6v0h389.040c14.138 0 25.6 11.462 25.6 25.6s-11.462 25.6-25.6 25.6v0z" />
<glyph unicode="&#xe919;" glyph-name="comunicaciones" d="M177.205 232.808h389.040c14.138 0 25.6 11.462 25.6 25.6s-11.462 25.6-25.6 25.6v0h-363.44v240.607h72.4c14.138 0 25.6 11.462 25.6 25.6s-11.462 25.6-25.6 25.6v0h-98c0 0 0 0 0 0-14.138 0-25.6-11.461-25.6-25.6 0 0 0 0 0 0v0-291.807c0 0 0 0 0 0 0-14.138 11.461-25.6 25.6-25.6 0 0 0 0 0 0v0zM370.32 524.615h364.85v-240.61h-70.575c-14.138 0-25.6-11.462-25.6-25.6s11.462-25.6 25.6-25.6v0h96.175c0 0 0 0 0 0 14.138 0 25.6 11.461 25.6 25.6 0 0 0 0 0 0v0 291.81c0 0 0 0 0 0 0 14.138-11.461 25.6-25.6 25.6 0 0 0 0 0 0h-390.45c-14.138 0-25.6-11.462-25.6-25.6s11.462-25.6 25.6-25.6v0zM273.050 306.602c4.643-4.694 11.084-7.6 18.204-7.6 7.019 0 13.379 2.825 18.004 7.4l-0.002-0.002 82.937 82.013 65.048-33.595c3.411-1.799 7.455-2.855 11.746-2.855 4.242 0 8.244 1.032 11.767 2.86l-0.142-0.067 65.078 33.175 89.672-82.197c4.54-4.172 10.621-6.73 17.3-6.73 14.139 0 25.601 11.462 25.601 25.601 0 7.46-3.191 14.175-8.283 18.855l-0.018 0.017-75.577 69.277 80.753 41.168c8.341 4.334 13.94 12.908 13.94 22.79 0 14.138-11.461 25.599-25.599 25.599-4.229 0-8.218-1.025-11.733-2.841l0.143 0.067-182.825-93.2-182.85 94.432c-3.421 1.81-7.477 2.872-11.782 2.872-14.138 0-25.598-11.461-25.598-25.598 0-9.862 5.577-18.422 13.749-22.697l0.141-0.067 81.637-42.163-71.103-70.31c-4.694-4.642-7.601-11.084-7.601-18.204 0-7.018 2.824-13.377 7.398-18.001l-0.002 0.002zM480.22 611.993h340.975v-276.54c0-14.138 11.462-25.6 25.6-25.6s25.6 11.462 25.6 25.6v0 302.142c0 0 0 0 0 0 0 14.138-11.461 25.6-25.6 25.6 0 0 0 0 0 0v0l-0.025-0.002h-366.55c-14.138 0-25.6-11.462-25.6-25.6s11.462-25.6 25.6-25.6v0z" />
<glyph unicode="&#xe91a;" glyph-name="contactos" d="M427.487 491.565c4.976 4.682 8.074 11.31 8.074 18.661 0 6.787-2.641 12.958-6.952 17.539l0.012-0.013c-20.113 21.381-32.471 50.257-32.471 82.019 0 66.175 53.646 119.821 119.821 119.821s119.821-53.646 119.821-119.821c0-33.088-13.412-63.043-35.095-84.726v0c-4.634-4.633-7.501-11.034-7.501-18.105 0-14.139 11.462-25.601 25.601-25.601 7.068 0 13.467 2.864 18.1 7.496v0c30.953 30.95 50.098 73.709 50.098 120.939 0 94.454-76.57 171.024-171.024 171.024s-171.024-76.57-171.024-171.024c0-45.339 17.643-86.557 46.437-117.164l-0.082 0.088c4.682-4.973 11.309-8.069 18.659-8.069 6.787 0 12.957 2.64 17.539 6.949l-0.013-0.012zM207.747 115.201h608.505c0 0 0 0 0 0 14.138 0 25.6 11.461 25.6 25.6 0 0 0 0 0 0v0c-0.147 126.097-102.328 228.279-228.411 228.425h-0.014c-14.138 0-25.6-11.462-25.6-25.6s11.462-25.6 25.6-25.6v0c88.808-0.114 162.325-65.431 175.257-150.642l0.123-0.983h-553.615c13.059 86.197 86.582 151.515 175.383 151.625h0.012c14.138 0 25.6 11.462 25.6 25.6s-11.462 25.6-25.6 25.6v0c-126.101-0.143-228.288-102.325-228.44-228.41v-0.015c0 0 0 0 0 0 0-14.138 11.461-25.6 25.6-25.6 0 0 0 0 0 0v0z" />
<glyph unicode="&#xe91b;" glyph-name="email" d="M337.174 678.895c50.956 47.577 119.592 76.788 195.050 76.788 67.474 0 129.493-23.356 178.413-62.426l-0.573 0.442c52.485-41.612 85.848-105.368 85.848-176.917 0-52.657-18.071-101.094-48.35-139.446l0.362 0.476c-11.245-14.197-24.263-26.332-38.872-36.309l-0.602-0.388c-0.372-0.225-0.771-0.365-1.136-0.613-6.096-4.152-13.623-6.63-21.728-6.63-21.49 0-38.912 17.418-38.917 38.907v0.001c-0.004 1.881-0.21 3.712-0.596 5.475l0.031-0.17v138.493c0 14.138-11.462 25.6-25.6 25.6s-25.6-11.462-25.6-25.6v0-143.225c0.027-2.225 0.336-4.367 0.893-6.406l-0.041 0.178c0.067-1.073 0.060-2.165 0.164-3.227-1.871-1.227-3.49-2.611-4.917-4.175l-0.018-0.020c-19.091-21.472-46.789-34.932-77.63-34.932-57.286 0-103.725 46.439-103.725 103.725v0.003c0.075 91.303 74.107 165.29 165.421 165.29 20.26 0 39.669-3.642 57.609-10.307l-1.144 0.372c2.614-0.986 5.636-1.557 8.791-1.557 14.139 0 25.6 11.462 25.6 25.6 0 11.007-6.946 20.391-16.695 24.009l-0.177 0.058c-22.006 8.25-47.437 13.025-73.983 13.025-119.591 0-216.547-96.91-216.623-216.483v-0.010c0-0.003 0-0.006 0-0.009 0-85.558 69.358-154.916 154.916-154.916 40.19 0 76.805 15.304 104.336 40.402l-0.123-0.11c16.575-19.148 40.916-31.19 68.070-31.19 16.222 0 31.44 4.298 44.578 11.817l-0.44-0.232c1.538 0.642 2.848 1.338 4.083 2.138l-0.1-0.060c21.1 13.866 39.076 30.38 54.068 49.359l0.362 0.476c36.726 46.498 58.91 105.959 58.91 170.602 0 87.833-40.956 166.1-104.813 216.745l-0.572 0.438c-57.044 45.154-130.035 72.435-209.398 72.435-88.848 0-169.709-34.191-230.145-90.134l0.223 0.204c-5.053-4.69-8.205-11.368-8.205-18.783 0-14.139 11.462-25.6 25.6-25.6 6.724 0 12.843 2.593 17.411 6.833l-0.016-0.015zM505.209 89.601c0.14 0 0.306 0 0.473 0 41.879 0 81.92 7.87 118.725 22.212l-2.228-0.764c9.703 3.787 16.452 13.060 16.452 23.91 0 14.138-11.461 25.6-25.6 25.6-3.268 0-6.394-0.612-9.267-1.729l0.175 0.060c-29.25-11.451-63.117-18.088-98.534-18.088-153.152 0-277.319 124.098-277.431 277.224v0.011l-0.010 0.105c0 0.055 0.015 0.108 0.015 0.163-0.001 0.325-0.002 0.71-0.002 1.095 0 63.434 16.158 123.095 44.582 175.090l-0.955-1.908c1.922 3.507 3.053 7.683 3.053 12.124 0 14.138-11.461 25.6-25.6 25.6-9.673 0-18.093-5.365-22.446-13.281l-0.067-0.133c-31.335-57.126-49.767-125.172-49.767-197.523 0-0.434 0.001-0.868 0.002-1.302v0.067l0.003-0.023-0.008-0.075c0.211-181.305 147.13-328.224 328.415-328.435h0.020z" />
<glyph unicode="&#xe91c;" glyph-name="desconectar" d="M512.001 89.601c181.236 0.029 328.145 146.957 328.145 328.197 0 136.749-83.635 253.963-202.544 303.283l-2.176 0.8c-2.871 1.21-6.209 1.914-9.712 1.914-14.138 0-25.6-11.462-25.6-25.6 0-10.694 6.558-19.857 15.871-23.687l0.17-0.062c102.194-42.284 172.784-141.203 172.784-256.608 0-152.951-123.991-276.942-276.942-276.942s-276.942 123.991-276.942 276.942c0 115.617 70.848 214.686 171.499 256.162l1.842 0.672c9.504 3.882 16.079 13.055 16.079 23.764 0 14.138-11.462 25.6-25.6 25.6-3.475 0-6.788-0.692-9.809-1.946l0.17 0.062c-121.439-49.959-205.38-167.352-205.38-304.351 0-181.24 146.909-328.168 328.142-328.198h0.003zM512.001 468.008c0 0 0 0 0 0 14.138 0 25.6 11.461 25.6 25.6 0 0 0 0 0 0v0 287.193c0 14.138-11.462 25.6-25.6 25.6s-25.6-11.462-25.6-25.6v0-287.193c0 0 0 0 0 0 0-14.138 11.461-25.6 25.6-25.6 0 0 0 0 0 0v0z" />
<glyph unicode="&#xe91d;" glyph-name="pro-mostrador" d="M257.436 455.045c0 0 0 0 0 0 14.138 0 25.6 11.461 25.6 25.6 0 0 0 0 0 0v0 58.61c0 14.138-11.462 25.6-25.6 25.6s-25.6-11.462-25.6-25.6v0-58.61c0 0 0 0 0 0 0-14.138 11.461-25.6 25.6-25.6 0 0 0 0 0 0v0zM384.576 539.255v-58.61c0-14.138 11.462-25.6 25.6-25.6s25.6 11.462 25.6 25.6v0 58.61c0 14.138-11.462 25.6-25.6 25.6s-25.6-11.462-25.6-25.6v0zM299.001 566.515c14.139 0 25.601 11.462 25.601 25.601 0 7.142-2.925 13.602-7.642 18.245l-0.003 0.003c-4.679 4.596-7.579 10.991-7.579 18.062 0 13.979 11.333 25.312 25.312 25.312s25.312-11.333 25.312-25.312c0-6.99-2.834-13.319-7.415-17.9v0c-4.643-4.635-7.515-11.041-7.515-18.119 0-14.139 11.462-25.601 25.601-25.601 7.080 0 13.489 2.874 18.124 7.52v0c13.845 13.847 22.408 32.975 22.408 54.103 0 42.259-34.258 76.517-76.517 76.517s-76.517-34.258-76.517-76.517c0-21.359 8.752-40.674 22.865-54.555l0.010-0.010c4.606-4.544 10.936-7.35 17.921-7.35 0.012 0 0.024 0 0.035 0h-0.002zM554.096 577.272c0 0 0 0 0 0-14.138 0-25.6-11.461-25.6-25.6 0 0 0 0 0 0v0-334.977c0-14.138 11.462-25.6 25.6-25.6s25.6 11.462 25.6 25.6v0 334.977c0 0 0 0 0 0 0 14.138-11.461 25.6-25.6 25.6 0 0 0 0 0 0v0zM719.246 577.272c0 0 0 0 0 0-14.138 0-25.6-11.461-25.6-25.6 0 0 0 0 0 0v0-334.977c0-14.138 11.462-25.6 25.6-25.6s25.6 11.462 25.6 25.6v0 334.977c0 0 0 0 0 0 0 14.138-11.461 25.6-25.6 25.6 0 0 0 0 0 0v0zM636.671 704.935c-0.001 0-0.002 0-0.003 0-42.256 0-76.512-34.255-76.512-76.512 0-21.356 8.75-40.668 22.86-54.548l0.010-0.010c4.618-4.545 10.959-7.352 17.955-7.352 14.139 0 25.602 11.462 25.602 25.602 0 7.143-2.925 13.603-7.643 18.247l-0.003 0.003c-4.679 4.596-7.579 10.99-7.579 18.062 0 13.979 11.333 25.312 25.312 25.312s25.312-11.333 25.312-25.312c0-6.988-2.832-13.314-7.41-17.895v0c-4.634-4.633-7.501-11.034-7.501-18.105 0-14.139 11.462-25.601 25.601-25.601 7.068 0 13.467 2.864 18.1 7.496v0c13.846 13.846 22.41 32.974 22.41 54.102 0 42.256-34.255 76.51-76.51 76.511v0zM658.216 242.295h-43.090c-14.138 0-25.6-11.462-25.6-25.6s11.462-25.6 25.6-25.6v0h43.090c14.138 0 25.6 11.462 25.6 25.6s-11.462 25.6-25.6 25.6v0zM843.071 420.34c0 0.001 0 0.001 0 0.002 0 14.137-11.461 25.598-25.598 25.598-0.001 0-0.001 0-0.002 0h-36.75c-14.138 0-25.6-11.462-25.6-25.6s11.462-25.6 25.6-25.6v0h11.15l0.005-178.072c0-14.138 11.462-25.6 25.6-25.6s25.6 11.462 25.6 25.6v0zM490.421 445.94h-283.895c0 0 0 0 0 0-14.138 0-25.6-11.461-25.6-25.6 0 0 0 0 0 0v0-203.675c0-14.138 11.462-25.6 25.6-25.6s25.6 11.462 25.6 25.6v0 178.075h258.295c14.138 0 25.6 11.462 25.6 25.6s-11.462 25.6-25.6 25.6v0z" />
<glyph unicode="&#xe91e;" glyph-name="pro-construccion" d="M209.718 319.237c0 0 0 0 0 0-14.138 0-25.6-11.461-25.6-25.6 0 0 0 0 0 0v0-165.065c0-14.138 11.462-25.6 25.6-25.6s25.6 11.462 25.6 25.6v0 165.065c0 0 0 0 0 0 0 14.138-11.461 25.6-25.6 25.6 0 0 0 0 0 0v0zM461.258 498.962h-165.040c-14.138 0-25.6-11.462-25.6-25.6s11.462-25.6 25.6-25.6v0h139.44v-319.19c0-14.138 11.462-25.6 25.6-25.6s25.6 11.462 25.6 25.6v0 344.79c0 0 0 0 0 0 0 14.138-11.461 25.6-25.6 25.6 0 0 0 0 0 0v0zM624.253 189.797c0-14.138 11.462-25.6 25.6-25.6s25.6 11.462 25.6 25.6v461.86c0 0 0 0 0 0 0 14.138-11.461 25.6-25.6 25.6 0 0 0 0 0 0h-142.14c-14.138 0-25.6-11.462-25.6-25.6s11.462-25.6 25.6-25.6v0h116.54zM182.213 626.057h269.21c14.138 0 25.6 11.462 25.6 25.6s-11.462 25.6-25.6 25.6v0h-269.21c-14.138 0-25.6-11.462-25.6-25.6s11.462-25.6 25.6-25.6v0zM207.813 475.51v119.5c0 14.138-11.462 25.6-25.6 25.6s-25.6-11.462-25.6-25.6v0-119.5c0-14.138 11.462-25.6 25.6-25.6s25.6 11.462 25.6 25.6v0zM316.233 681.54c0.001 0 0.001 0 0.002 0 4.385 0 8.51 1.108 12.113 3.059l-0.135-0.067 107.95 57.295h213.685c14.138 0 25.6 11.462 25.6 25.6s-11.462 25.6-25.6 25.6v0h-220.060c-0.001 0-0.002 0-0.003 0-4.39 0-8.522-1.106-12.132-3.054l0.136 0.067-113.575-60.282c-8.151-4.393-13.597-12.867-13.597-22.614 0-14.141 11.463-25.604 25.604-25.604 0.005 0 0.009 0 0.014 0h-0.001zM714.908 566.284c0 0 0 0 0 0 14.138 0 25.6 11.461 25.6 25.6 0 0 0 0 0 0v0 110.045c0 14.138-11.462 25.6-25.6 25.6s-25.6-11.462-25.6-25.6v0-110.045c0 0 0 0 0 0 0-14.138 11.461-25.6 25.6-25.6 0 0 0 0 0 0v0zM841.783 727.53c0 0 0 0 0 0-14.138 0-25.6-11.461-25.6-25.6 0 0 0 0 0 0v0-110.045c0-14.138 11.462-25.6 25.6-25.6s25.6 11.462 25.6 25.6v0 110.045c0 0 0 0 0 0 0 14.138-11.461 25.6-25.6 25.6 0 0 0 0 0 0v0zM381.798 247.397h-89.25c0 0 0 0 0 0-14.138 0-25.6-11.461-25.6-25.6 0 0 0 0 0 0v0-93.225c0-14.138 11.462-25.6 25.6-25.6s25.6 11.462 25.6 25.6v0 67.625h38.050v-67.625c0-14.138 11.462-25.6 25.6-25.6s25.6 11.462 25.6 25.6v0 93.225c0 0 0 0 0 0 0 14.138-11.461 25.6-25.6 25.6 0 0 0 0 0 0v0zM759.883 154.172h-220.065c-14.138 0-25.6-11.462-25.6-25.6s11.462-25.6 25.6-25.6v0h220.065c14.138 0 25.6 11.462 25.6 25.6s-11.462 25.6-25.6 25.6v0zM792.543 721.537c-1.26 0.84-2.707 1.628-4.224 2.285l-0.181 0.070c-1.364 0.574-2.975 1.069-4.643 1.404l-0.167 0.028c-1.501 0.317-3.226 0.499-4.993 0.499s-3.492-0.182-5.156-0.527l0.164 0.028c-1.845-0.374-3.457-0.868-4.998-1.499l0.183 0.066c-1.696-0.729-3.142-1.517-4.504-2.42l0.104 0.065c-1.457-0.975-2.73-2.020-3.891-3.176l0.001 0.001c-4.6-4.647-7.443-11.041-7.443-18.1 0-8.838 4.456-16.635 11.244-21.268l0.089-0.057c1.259-0.84 2.704-1.628 4.219-2.285l0.181-0.070c1.359-0.566 2.971-1.060 4.639-1.402l0.176-0.030c1.501-0.326 3.225-0.513 4.993-0.513s3.492 0.187 5.154 0.541l-0.161-0.029c1.834 0.362 3.445 0.857 4.982 1.496l-0.172-0.063c1.697 0.726 3.145 1.514 4.507 2.419l-0.102-0.064c1.461 0.975 2.735 2.037 3.885 3.22l0.005 0.005c4.651 4.623 7.53 11.026 7.53 18.1s-2.879 13.477-7.529 18.099l-0.001 0.001c-1.154 1.17-2.427 2.216-3.802 3.121l-0.088 0.054zM792.543 613.197c-1.261 0.843-2.708 1.631-4.226 2.287l-0.179 0.069c-1.366 0.577-2.977 1.072-4.646 1.405l-0.164 0.027c-1.501 0.318-3.225 0.501-4.993 0.501s-3.492-0.182-5.156-0.529l0.163 0.028c-1.842-0.371-3.454-0.865-4.995-1.498l0.18 0.066c-1.695-0.726-3.141-1.514-4.502-2.419l0.102 0.064c-1.449-1.010-2.72-2.070-3.893-3.228l0.003 0.003c-4.605-4.637-7.457-11.021-7.475-18.072v-0.003c0-0.014 0-0.031 0-0.048 0-1.757 0.167-3.475 0.487-5.139l-0.027 0.17c0.381-1.818 0.893-3.409 1.548-4.925l-0.063 0.165c0.681-1.705 1.472-3.172 2.406-4.533l-0.051 0.078c1.883-2.828 4.237-5.182 6.974-7.008l0.091-0.057c1.259-0.841 2.704-1.629 4.22-2.288l0.18-0.070c1.358-0.564 2.97-1.058 4.637-1.402l0.178-0.031c1.501-0.326 3.225-0.512 4.993-0.512s3.492 0.187 5.154 0.541l-0.161-0.029c1.836 0.364 3.446 0.859 4.983 1.496l-0.173-0.064c1.697 0.727 3.144 1.515 4.507 2.421l-0.102-0.064c1.463 0.957 2.737 2.003 3.887 3.17l0.003 0.003c1.155 1.171 2.215 2.442 3.162 3.798l0.063 0.094c0.867 1.282 1.642 2.75 2.252 4.3l0.054 0.155c0.62 1.365 1.133 2.958 1.462 4.619l0.023 0.141c0.328 1.468 0.515 3.155 0.515 4.886 0 0.046 0 0.093 0 0.139v-0.007c-0.040 7.060-2.909 13.442-7.531 18.076l0.001-0.001c-1.164 1.171-2.436 2.231-3.8 3.167l-0.090 0.058zM355.088 387.15c0.729-1.698 1.519-3.145 2.424-4.508l-0.064 0.103c0.959-1.462 2.003-2.736 3.168-3.888l0.002-0.002c1.162-1.154 2.436-2.199 3.802-3.116l0.093-0.059c1.283-0.882 2.75-1.673 4.3-2.3l0.155-0.055c1.349-0.589 2.941-1.101 4.591-1.454l0.169-0.030c1.5-0.31 3.23-0.495 5.001-0.512h0.014c7.059 0.039 13.441 2.908 18.076 7.528l-0.001-0.001c1.171 1.164 2.232 2.436 3.167 3.8l0.058 0.090c0.843 1.261 1.631 2.708 2.287 4.226l0.069 0.179c0.577 1.366 1.073 2.978 1.408 4.648l0.027 0.164c0.325 1.461 0.511 3.139 0.511 4.861 0 0.055 0 0.11-0.001 0.166v-0.008c-0.040 7.058-2.907 13.439-7.526 18.073l0.001-0.001c-1.154 1.17-2.427 2.216-3.802 3.121l-0.088 0.054c-1.267 0.868-2.716 1.657-4.244 2.296l-0.161 0.060c-1.363 0.589-2.971 1.101-4.639 1.454l-0.171 0.030c-1.501 0.317-3.226 0.499-4.993 0.499s-3.492-0.182-5.156-0.527l0.164 0.028c-1.818-0.383-3.41-0.894-4.926-1.549l0.166 0.064c-1.705-0.681-3.172-1.472-4.533-2.406l0.078 0.051c-6.893-4.611-11.37-12.364-11.37-21.162 0-0.030 0-0.060 0-0.090v0.005c0-0.040 0-0.087 0-0.133 0-1.73 0.188-3.416 0.544-5.039l-0.029 0.155c0.363-1.836 0.857-3.448 1.493-4.986l-0.064 0.173zM360.618 286.235c1.162-1.154 2.436-2.199 3.802-3.116l0.093-0.059c1.283-0.883 2.75-1.674 4.301-2.3l0.154-0.055c1.35-0.59 2.942-1.102 4.592-1.455l0.168-0.030c1.5-0.31 3.23-0.495 5.001-0.512h0.014c14.116 0.055 25.545 11.484 25.6 25.595v0.005c0 0.047 0.001 0.102 0.001 0.157 0 1.721-0.186 3.399-0.539 5.015l0.028-0.155c-0.362 1.835-0.858 3.446-1.498 4.983l0.063-0.17c-0.724 1.697-1.512 3.144-2.419 4.506l0.063-0.101c-1.010 1.449-2.070 2.72-3.228 3.893l0.003-0.003c-4.581 4.653-10.949 7.536-17.99 7.536-3.562 0-6.951-0.738-10.024-2.069l0.163 0.063c-1.705-0.683-3.172-1.473-4.534-2.406l0.079 0.051c-2.829-1.881-5.184-4.236-7.008-6.974l-0.057-0.091c-0.841-1.26-1.631-2.707-2.29-4.224l-0.070-0.181c-0.573-1.364-1.067-2.976-1.402-4.646l-0.028-0.167c-0.328-1.468-0.515-3.154-0.515-4.884 0-0.047 0-0.094 0-0.141v0.007c0.020-7.052 2.871-13.435 7.477-18.074l-0.002 0.002zM268.613 294.527c0.699-1.688 1.488-3.136 2.41-4.487l-0.054 0.084c4.617-6.89 12.373-11.365 21.174-11.365 0.044 0 0.089 0 0.133 0h-0.007c1.756 0 3.472 0.168 5.135 0.487l-0.17-0.027c1.84 0.383 3.451 0.895 4.986 1.549l-0.171-0.065c1.686 0.697 3.134 1.486 4.483 2.409l-0.083-0.054c1.459 0.976 2.733 2.021 3.897 3.177l-0.002-0.002c1.152 1.162 2.197 2.434 3.116 3.797l0.059 0.093c0.867 1.266 1.656 2.715 2.295 4.241l0.060 0.161c0.575 1.367 1.070 2.979 1.403 4.65l0.027 0.165c0.328 1.468 0.515 3.154 0.515 4.884 0 0.047 0 0.094 0 0.141v-0.007c0 0.025 0 0.055 0 0.085 0 8.799-4.477 16.552-11.278 21.105l-0.092 0.058c-1.266 0.868-2.713 1.657-4.239 2.296l-0.161 0.060c-1.364 0.589-2.974 1.101-4.643 1.454l-0.172 0.031c-1.493 0.309-3.208 0.485-4.965 0.485-14.139 0-25.606-11.44-25.65-25.568v-0.004c0.018-1.786 0.202-3.517 0.54-5.194l-0.030 0.176c0.385-1.841 0.896-3.452 1.55-4.987l-0.065 0.172z" />
<glyph unicode="&#xe91f;" glyph-name="dev-encargo" d="M216.641 560.728l149.005-125.27c4.42-3.735 10.182-6.006 16.475-6.006 14.139 0 25.601 11.462 25.601 25.601 0 7.846-3.53 14.868-9.088 19.564l-0.038 0.031-103.595 87.093c6.875 0.371 14.923 0.583 23.020 0.583 222.902 0 408.347-160.376 447.239-372.033l0.426-2.792c2.222-12.062 12.656-21.080 25.197-21.080 14.138 0 25.599 11.461 25.599 25.599 0 1.585-0.144 3.137-0.42 4.643l0.024-0.157c-43.838 238.691-250.273 417.174-498.394 417.174-1.32 0-2.639-0.005-3.957-0.015l0.202 0.001 85.779 70.568c5.719 4.73 9.336 11.828 9.336 19.77 0 14.139-11.462 25.601-25.601 25.601-6.197 0-11.879-2.202-16.308-5.865l0.043 0.035-150.335-123.677c-5.719-4.73-9.335-11.828-9.335-19.77 0-7.846 3.53-14.868 9.087-19.564l0.038-0.031z" />
<glyph unicode="&#xe920;" glyph-name="editar" d="M481.793 540.321c-2.249-3.733-3.58-8.24-3.58-13.058 0-9.32 4.98-17.477 12.425-21.955l0.116-0.064 94.445-56.010c3.733-2.249 8.24-3.579 13.057-3.579 9.322 0 17.48 4.981 21.958 12.426l0.064 0.116 95.517 161.085c7.036 11.714 11.197 25.849 11.197 40.956 0 44.459-36.041 80.5-80.5 80.5-29.305 0-54.952-15.659-69.032-39.066l-0.203-0.363-0.010-0.023zM661.453 685.448c8.645-5.209 14.338-14.547 14.338-25.214 0-5.511-1.519-10.667-4.162-15.072l0.074 0.133-0.024-0.050-82.381-138.915-50.41 29.892 82.41 138.965c5.21 8.649 14.55 14.345 25.221 14.345 5.509 0 10.663-1.518 15.067-4.158l-0.133 0.074zM321.311 123.666c0.037-0.038 0.080-0.068 0.118-0.102 1.034-0.988 2.163-1.898 3.364-2.707l0.091-0.058c0.171-0.115 0.332-0.24 0.509-0.353 1.116-0.722 2.405-1.403 3.752-1.97l0.167-0.062c0.236-0.098 0.469-0.193 0.709-0.285 1.22-0.486 2.674-0.914 4.175-1.211l0.163-0.027c0.104-0.020 0.194-0.067 0.296-0.085 0.4-0.072 0.78-0.092 1.178-0.16 0.255-0.033 0.508-0.075 0.764-0.1 4.887-0.855 10.533-1.361 16.292-1.395h0.032c64.2 0.003 101.195 62.508 105.080 69.405l114.26 192.67c2.25 3.733 3.58 8.24 3.58 13.058 0 14.139-11.462 25.6-25.6 25.6-9.321 0-17.478-4.981-21.956-12.427l-0.064-0.116-114.43-192.958c-0.155-0.263-0.305-0.525-0.45-0.793-0.253-0.457-23.939-41.895-59.644-43.090-16.125 31.977 8.984 72.645 9.209 73 0.165 0.257 0.325 0.515 0.48 0.777l114.43 192.955c2.255 3.737 3.59 8.249 3.59 13.073 0 14.139-11.462 25.6-25.6 25.6-9.327 0-17.49-4.988-21.965-12.442l-0.065-0.116-114.26-192.67c-4.575-7.337-48.335-81.035-0.285-140.728 0.673-0.831 1.354-1.576 2.077-2.279l0.006-0.006zM431.073 609.908c3.734-2.252 8.243-3.585 13.063-3.585 9.321 0 17.479 4.984 21.953 12.432l0.065 0.116 73.105 123.272c2.25 3.733 3.58 8.24 3.58 13.058 0 14.139-11.462 25.6-25.6 25.6-9.321 0-17.478-4.981-21.956-12.427l-0.064-0.116-73.105-123.272c-2.249-3.733-3.58-8.24-3.58-13.058 0-9.32 4.98-17.477 12.425-21.955l0.116-0.064z" />
<glyph unicode="&#xe921;" glyph-name="encargo-gen" d="M666.224 729.601h38.63v-563.2h-226.37c-14.138 0-25.6-11.462-25.6-25.6s11.462-25.6 25.6-25.6v0h251.97c0 0 0 0 0 0 14.138 0 25.6 11.461 25.6 25.6 0 0 0 0 0 0v0 614.4c0 0 0 0 0 0 0 14.138-11.461 25.6-25.6 25.6 0 0 0 0 0 0h-64.23c-14.138 0-25.6-11.462-25.6-25.6s11.462-25.6 25.6-25.6v0zM293.544 115.201h65.825c14.138 0 25.6 11.462 25.6 25.6s-11.462 25.6-25.6 25.6v0h-40.225v563.2h231.020c14.138 0 25.6 11.462 25.6 25.6s-11.462 25.6-25.6 25.6v0h-256.62c0 0 0 0 0 0-14.138 0-25.6-11.461-25.6-25.6 0 0 0 0 0 0v0-614.4c0 0 0 0 0 0 0-14.138 11.461-25.6 25.6-25.6 0 0 0 0 0 0v0zM419.289 566.593h66.585c14.138 0 25.6 11.462 25.6 25.6s-11.462 25.6-25.6 25.6v0h-66.585c-14.138 0-25.6-11.462-25.6-25.6s11.462-25.6 25.6-25.6v0zM419.289 374.335h199.77c14.138 0 25.6 11.462 25.6 25.6s-11.462 25.6-25.6 25.6v0h-199.77c-14.138 0-25.6-11.462-25.6-25.6s11.462-25.6 25.6-25.6v0zM419.289 278.208h199.77c14.138 0 25.6 11.462 25.6 25.6s-11.462 25.6-25.6 25.6v0h-199.77c-14.138 0-25.6-11.462-25.6-25.6s11.462-25.6 25.6-25.6v0zM393.689 496.063c0 0 0 0 0 0 0-14.138 11.461-25.6 25.6-25.6 0 0 0 0 0 0h199.77c14.138 0 25.6 11.462 25.6 25.6s-11.462 25.6-25.6 25.6v0h-199.77c0 0 0 0 0 0-14.138 0-25.6-11.461-25.6-25.6 0 0 0 0 0 0v0z" />
<glyph unicode="&#xe922;" glyph-name="encargos" d="M589.26 729.601h28.045v-461.93h-184.845c-14.138 0-25.6-11.462-25.6-25.6s11.462-25.6 25.6-25.6v0h210.445c0 0 0 0 0 0 14.138 0 25.6 11.461 25.6 25.6 0 0 0 0 0 0v0 513.13c0 0 0 0 0 0 0 14.138-11.461 25.6-25.6 25.6 0 0 0 0 0 0h-53.645c-14.138 0-25.6-11.462-25.6-25.6s11.462-25.6 25.6-25.6v0zM278.010 216.468h54.97c14.138 0 25.6 11.462 25.6 25.6s-11.462 25.6-25.6 25.6v0h-29.37v461.93h188.72c14.138 0 25.6 11.462 25.6 25.6s-11.462 25.6-25.6 25.6v0h-214.32c0 0 0 0 0 0-14.138 0-25.6-11.461-25.6-25.6 0 0 0 0 0 0v0-513.13c0 0 0 0 0 0 0-14.138 11.461-25.6 25.6-25.6 0 0 0 0 0 0v0zM465.27 140.801c0 0 0 0 0 0 0-14.138 11.461-25.6 25.6-25.6 0 0 0 0 0 0h255.12c0 0 0 0 0 0 14.138 0 25.6 11.461 25.6 25.6 0 0 0 0 0 0v0 515.47c0 14.138-11.462 25.6-25.6 25.6s-25.6-11.462-25.6-25.6v0-489.87h-229.52c0 0 0 0 0 0-14.138 0-25.6-11.461-25.6-25.6 0 0 0 0 0 0v0zM378.035 593.458h55.615c14.138 0 25.6 11.462 25.6 25.6s-11.462 25.6-25.6 25.6v0h-55.615c-14.138 0-25.6-11.462-25.6-25.6s11.462-25.6 25.6-25.6v0zM378.035 432.893h166.85c14.138 0 25.6 11.462 25.6 25.6s-11.462 25.6-25.6 25.6v0h-166.85c-14.138 0-25.6-11.462-25.6-25.6s11.462-25.6 25.6-25.6v0zM378.035 352.608h166.85c14.138 0 25.6 11.462 25.6 25.6s-11.462 25.6-25.6 25.6v0h-166.85c-14.138 0-25.6-11.462-25.6-25.6s11.462-25.6 25.6-25.6v0zM352.435 538.776c0 0 0 0 0 0 0-14.138 11.461-25.6 25.6-25.6 0 0 0 0 0 0h166.85c14.138 0 25.6 11.462 25.6 25.6s-11.462 25.6-25.6 25.6v0h-166.85c0 0 0 0 0 0-14.138 0-25.6-11.461-25.6-25.6 0 0 0 0 0 0v0z" />
<glyph unicode="&#xe923;" glyph-name="enviando" d="M273.118 301.685c0 0 0 0 0 0-14.138 0-25.6-11.461-25.6-25.6 0 0 0 0 0 0v0-160.47c0.001-14.131 11.451-25.588 25.579-25.6l477.786-0.415c0.001 0 0.001 0 0.002 0 14.137 0 25.598 11.461 25.598 25.598 0 0.001 0 0.001 0 0.002v0 160.287c0 14.138-11.462 25.6-25.6 25.6s-25.6-11.462-25.6-25.6v0-134.665l-426.565 0.37v134.892c0 0 0 0 0 0 0 14.138-11.461 25.6-25.6 25.6 0 0 0 0 0 0v0zM671.383 596.1c14.138 0.001 25.599 11.463 25.599 25.601 0 7.068-2.864 13.466-7.494 18.099l-159.085 159.1c-4.633 4.634-11.034 7.5-18.104 7.5-7.069 0-13.469-2.865-18.101-7.498l-159.105-159.1c-4.633-4.633-7.499-11.033-7.499-18.103 0-14.138 11.461-25.599 25.599-25.599 7.068 0 13.468 2.865 18.1 7.497l141.005 140.998 140.98-140.995c4.622-4.633 11.013-7.5 18.074-7.5 0.011 0 0.022 0 0.033 0h-0.002zM486.693 594.702v-318.198c0-14.138 11.462-25.6 25.6-25.6s25.6 11.462 25.6 25.6v0 318.198c0 14.138-11.462 25.6-25.6 25.6s-25.6-11.462-25.6-25.6v0z" />
<glyph unicode="&#xe924;" glyph-name="pro-portafolio" d="M270.097 140.801h483.805c0 0 0 0 0 0 14.138 0 25.6 11.461 25.6 25.6 0 0 0 0 0 0v0 560.792c0 0 0 0 0 0 0 14.138-11.461 25.6-25.6 25.6 0 0 0 0 0 0h-56.18c-14.138 0-25.6-11.462-25.6-25.6s11.462-25.6 25.6-25.6v0h30.58v-509.592h-432.605v510.68h30.585c14.138 0 25.6 11.462 25.6 25.6s-11.462 25.6-25.6 25.6v0h-56.185c0 0 0 0 0 0-14.138 0-25.6-11.461-25.6-25.6 0 0 0 0 0 0v0-561.88c0 0 0 0 0 0 0-14.138 11.461-25.6 25.6-25.6 0 0 0 0 0 0v0zM410.137 590.673h203.72c0 0 0 0 0 0 14.138 0 25.6 11.461 25.6 25.6 0 0 0 0 0 0v0 107.485c0 14.138-11.462 25.6-25.6 25.6s-25.6-11.462-25.6-25.6v0-81.885h-152.52v82.972c0 14.138-11.462 25.6-25.6 25.6s-25.6-11.462-25.6-25.6v0-108.572c0 0 0 0 0 0 0-14.138 11.461-25.6 25.6-25.6 0 0 0 0 0 0v0zM485.987 704.001h52.030c14.138 0 25.6 11.462 25.6 25.6s-11.462 25.6-25.6 25.6v0h-52.030c-14.138 0-25.6-11.462-25.6-25.6s11.462-25.6 25.6-25.6v0zM580.637 492.518l-97.405-146.107-35.275 35.282c-4.633 4.634-11.034 7.501-18.105 7.501-14.139 0-25.601-11.462-25.601-25.601 0-7.068 2.864-13.467 7.496-18.1l57.36-57.367c4.634-4.633 11.035-7.499 18.105-7.5v0c0.006 0 0.012 0 0.019 0 0.881 0 1.751 0.045 2.608 0.134l-0.107-0.009c7.858 0.799 14.586 5.046 18.722 11.184l0.058 0.091 114.725 172.092c2.705 3.996 4.318 8.923 4.318 14.227 0 14.138-11.461 25.599-25.599 25.599-8.857 0-16.664-4.498-21.26-11.335l-0.058-0.092z" />
<glyph unicode="&#xe925;" glyph-name="primer-contacto" d="M374.612 461.913c-4.631 4.623-11.025 7.482-18.086 7.482-14.139 0-25.601-11.462-25.601-25.601 0-7.059 2.857-13.45 7.477-18.081v0l142.88-142.892c4.634-4.633 11.035-7.499 18.105-7.5v0c0.005 0 0.012 0 0.018 0 0.881 0 1.751 0.045 2.609 0.134l-0.107-0.009c7.858 0.799 14.586 5.046 18.722 11.184l0.058 0.091 285.77 428.68c2.684 3.986 4.285 8.895 4.285 14.178 0 14.138-11.461 25.599-25.599 25.599-8.836 0-16.627-4.477-21.228-11.287l-0.058-0.091-268.45-402.695zM238.842 140.801h423.755c0 0 0 0 0 0 14.138 0 25.6 11.461 25.6 25.6 0 0 0 0 0 0v0 115.132c0 14.138-11.462 25.6-25.6 25.6s-25.6-11.462-25.6-25.6v0-89.532h-372.555v372.56h232.63c14.138 0 25.6 11.462 25.6 25.6s-11.462 25.6-25.6 25.6v0h-258.23c0 0 0 0 0 0-14.138 0-25.6-11.461-25.6-25.6 0 0 0 0 0 0v0-423.76c0 0 0 0 0 0 0-14.138 11.461-25.6 25.6-25.6 0 0 0 0 0 0v0z" />
<glyph unicode="&#xe926;" glyph-name="primera-visita" d="M374.616 461.913c-4.631 4.623-11.025 7.482-18.086 7.482-14.139 0-25.601-11.462-25.601-25.601 0-7.059 2.857-13.45 7.477-18.081v0l142.88-142.892c4.634-4.633 11.035-7.499 18.105-7.5v0c0.005 0 0.012 0 0.018 0 0.881 0 1.751 0.045 2.609 0.134l-0.107-0.009c7.858 0.799 14.586 5.046 18.722 11.184l0.058 0.091 285.77 428.68c2.693 3.99 4.299 8.908 4.299 14.2 0 14.138-11.461 25.599-25.599 25.599-8.846 0-16.644-4.487-21.242-11.308l-0.058-0.091-268.45-402.695zM238.841 140.801h423.76c0 0 0 0 0 0 14.138 0 25.6 11.461 25.6 25.6 0 0 0 0 0 0v0 115.132c0 14.138-11.462 25.6-25.6 25.6s-25.6-11.462-25.6-25.6v0-89.532h-372.56v372.56h232.625c14.138 0 25.6 11.462 25.6 25.6s-11.462 25.6-25.6 25.6v0h-258.225c0 0 0 0 0 0-14.138 0-25.6-11.461-25.6-25.6 0 0 0 0 0 0v0-423.76c0 0 0 0 0 0 0-14.138 11.461-25.6 25.6-25.6 0 0 0 0 0 0v0z" />
<glyph unicode="&#xe927;" glyph-name="mensaje-enviando" d="M217.775 466.988h68.93c14.138 0 25.6 11.462 25.6 25.6s-11.462 25.6-25.6 25.6v0h-68.93c-14.138 0-25.6-11.462-25.6-25.6s11.462-25.6 25.6-25.6v0zM128.6 377.813h158.105c14.138 0 25.6 11.462 25.6 25.6s-11.462 25.6-25.6 25.6v0h-158.105c-14.138 0-25.6-11.462-25.6-25.6s11.462-25.6 25.6-25.6v0zM396.77 276.498h346.575c14.138 0 25.6 11.462 25.6 25.6s-11.462 25.6-25.6 25.6v0h-320.975v240.605h29.925c14.138 0 25.6 11.462 25.6 25.6s-11.462 25.6-25.6 25.6v0h-55.525c0 0 0 0 0 0-14.138 0-25.6-11.461-25.6-25.6 0 0 0 0 0 0v0-291.805c0 0 0 0 0 0 0-14.138 11.461-25.6 25.6-25.6 0 0 0 0 0 0v0zM547.415 568.303h322.385v-240.605h-28.11c-14.138 0-25.6-11.462-25.6-25.6s11.462-25.6 25.6-25.6v0h53.71c0 0 0 0 0 0 14.138 0 25.6 11.461 25.6 25.6 0 0 0 0 0 0v0 291.805c0 0 0 0 0 0 0 14.138-11.461 25.6-25.6 25.6 0 0 0 0 0 0h-347.985c-14.138 0-25.6-11.462-25.6-25.6s11.462-25.6 25.6-25.6v0zM484.855 475.705l36.595-18.9-42.85-42.375c-4.701-4.644-7.612-11.089-7.612-18.215 0-14.138 11.461-25.599 25.599-25.599 7.025 0 13.389 2.83 18.014 7.411l54.681 54.075 65.057-33.6c3.411-1.799 7.455-2.855 11.746-2.855 4.242 0 8.244 1.032 11.767 2.86l-0.142-0.067 65.074 33.175 59.201-54.26c4.536-4.158 10.607-6.706 17.273-6.706 14.138 0 25.599 11.461 25.599 25.599 0 7.451-3.183 14.158-8.263 18.836l-0.018 0.016-45.103 41.337 43.868 22.365c8.341 4.334 13.94 12.908 13.94 22.79 0 14.138-11.461 25.599-25.599 25.599-4.229 0-8.218-1.025-11.733-2.841l0.143 0.067-145.93-74.397-137.815 71.175c-3.411 1.798-7.455 2.853-11.745 2.853-14.138 0-25.598-11.461-25.598-25.598 0-9.848 5.561-18.396 13.713-22.678l0.14-0.067z" />
<glyph unicode="&#xe928;" glyph-name="filtro" d="M418.509 445.773c4.67-6.807 12.408-11.215 21.175-11.215 14.137 0 25.598 11.46 25.598 25.598 0 5.37-1.653 10.353-4.479 14.469l0.056-0.087-173.235 255.063h389.225c14.138 0 25.6 11.462 25.6 25.6s-11.462 25.6-25.6 25.6v0h-437.56c-0.001 0-0.003 0-0.005 0-14.136 0-25.596-11.46-25.596-25.596 0-5.372 1.655-10.357 4.482-14.473l-0.056 0.087zM555.031 476.983c-0.518-0.774-1.044-1.68-1.514-2.619l-0.068-0.149c-0.293-0.56-0.654-1.093-0.903-1.665-0.331-0.763-0.53-1.588-0.787-2.388-0.258-0.808-0.576-1.597-0.751-2.418-0.13-0.61-0.144-1.255-0.23-1.88-0.159-0.917-0.274-2.008-0.318-3.116l-0.002-0.049c-0.001-0.105-0.031-0.205-0.031-0.31v-230.555l-85.145-47.457v192.805c0 14.138-11.462 25.6-25.6 25.6s-25.6-11.462-25.6-25.6v0-236.382c0 0 0 0 0 0 0-14.138 11.461-25.6 25.6-25.6 4.578 0 8.875 1.201 12.593 3.306l-0.127-0.066 136.345 75.995c7.893 4.461 13.135 12.797 13.135 22.358 0 0.001 0 0.002 0 0.003v0 237.413l203.925 286.132c2.983 4.132 4.771 9.298 4.771 14.882 0 14.137-11.461 25.598-25.598 25.598-8.575 0-16.165-4.216-20.81-10.689l-0.052-0.077-208.68-292.805c-0.061-0.085-0.093-0.183-0.153-0.268z" />
<glyph unicode="&#xe929;" glyph-name="flecha-arriba" d="M716.805 320c0 0 0.001 0 0.001 0 14.138 0 25.6 11.462 25.6 25.6 0 7.070-2.866 13.47-7.499 18.102l-204.808 204.8c-4.633 4.632-11.033 7.496-18.103 7.496s-13.469-2.865-18.103-7.496l-204.8-204.8c-4.621-4.631-7.479-11.023-7.479-18.083 0-14.139 11.462-25.601 25.601-25.601 7.060 0 13.452 2.858 18.083 7.479v0l186.698 186.7 186.705-186.7c4.621-4.632 11.011-7.497 18.071-7.497 0.011 0 0.022 0 0.033 0h-0.002z" />
<glyph unicode="&#xe92a;" glyph-name="flecha-der" d="M391.497 225.095c4.633-4.632 11.033-7.497 18.103-7.497s13.469 2.865 18.103 7.498l204.8 204.8c4.633 4.633 7.498 11.033 7.498 18.103s-2.865 13.47-7.498 18.102l-204.8 204.808c-4.631 4.621-11.023 7.479-18.083 7.479-14.139 0-25.601-11.462-25.601-25.601 0-7.060 2.858-13.452 7.479-18.083v0l186.7-186.705-186.7-186.698c-4.633-4.633-7.498-11.033-7.498-18.103s2.865-13.47 7.498-18.103v0z" />
<glyph unicode="&#xe92b;" glyph-name="flecha-izq" d="M632.502 670.907c-4.633 4.632-11.033 7.496-18.103 7.496s-13.469-2.865-18.103-7.496l-204.8-204.8c-4.633-4.633-7.498-11.033-7.498-18.103s2.865-13.47 7.498-18.102l204.8-204.808c4.631-4.621 11.023-7.479 18.083-7.479 14.139 0 25.601 11.462 25.601 25.601 0 7.060-2.858 13.452-7.479 18.083v0l-186.7 186.705 186.7 186.698c4.633 4.633 7.498 11.033 7.498 18.103s-2.865 13.47-7.498 18.103v0z" />
<glyph unicode="&#xe92c;" glyph-name="flecha" d="M662.397 641.012c-4.631 4.621-11.023 7.479-18.083 7.479-14.139 0-25.601-11.462-25.601-25.601 0-7.060 2.858-13.452 7.479-18.083v0l156.805-156.81-156.805-156.803c-4.621-4.631-7.479-11.023-7.479-18.083 0-14.139 11.462-25.601 25.601-25.601 7.060 0 13.452 2.858 18.083 7.479v0l174.905 174.905c4.633 4.633 7.498 11.033 7.498 18.103s-2.865 13.47-7.498 18.102v0zM179.199 448c0.001-14.138 11.462-25.599 25.6-25.6h436.508c14.138 0 25.6 11.462 25.6 25.6s-11.462 25.6-25.6 25.6v0h-436.507c-14.138-0.001-25.599-11.462-25.6-25.6v0z" />
<glyph unicode="&#xe92d;" glyph-name="flecha-abajo" d="M734.907 568.502c-4.634 4.631-11.034 7.494-18.103 7.494s-13.469-2.864-18.103-7.495l-186.705-186.7-186.697 186.7c-4.631 4.621-11.023 7.479-18.083 7.479-14.139 0-25.601-11.462-25.601-25.601 0-7.060 2.858-13.452 7.479-18.083v0l204.8-204.8c4.633-4.632 11.033-7.497 18.103-7.497s13.469 2.865 18.103 7.498l204.807 204.8c4.633 4.633 7.498 11.033 7.498 18.102s-2.865 13.47-7.498 18.103v0z" />
<glyph unicode="&#xe92e;" glyph-name="pro-fabrica-1" d="M499.634 360.059c0 0 0 0 0 0 14.138 0 25.6 11.461 25.6 25.6 0 0 0 0 0 0v0 1.973l104.78-104.783c4.632-4.632 11.032-7.497 18.1-7.497 14.138 0 25.599 11.461 25.599 25.599 0 7.070-2.866 13.47-7.499 18.102l-148.48 148.485c-4.632 4.632-11.032 7.498-18.101 7.498-14.138 0-25.599-11.461-25.599-25.599 0 0 0-0.001 0-0.001v0-63.778c0 0 0 0 0 0 0-14.138 11.461-25.6 25.6-25.6 0 0 0 0 0 0v0zM351.149 360.059c0 0 0 0 0 0 14.138 0 25.6 11.461 25.6 25.6 0 0 0 0 0 0v0 1.973l104.785-104.783c4.632-4.632 11.032-7.497 18.1-7.497 14.138 0 25.599 11.461 25.599 25.599 0 7.070-2.866 13.47-7.499 18.102l-148.485 148.485c-4.632 4.632-11.032 7.498-18.101 7.498-14.138 0-25.599-11.461-25.599-25.599 0 0 0-0.001 0-0.001v0-63.778c0 0 0 0 0 0 0-14.138 11.461-25.6 25.6-25.6 0 0 0 0 0 0v0zM268.079 188.217h-39.82v199.417l104.79-104.788c4.632-4.632 11.032-7.497 18.1-7.497 14.138 0 25.599 11.461 25.599 25.599 0 7.070-2.866 13.47-7.499 18.102l-148.49 148.49c-4.632 4.632-11.032 7.498-18.101 7.498-14.138 0-25.599-11.461-25.599-25.599 0 0 0-0.001 0-0.001v0-286.822c0 0 0 0 0 0 0-14.138 11.461-25.6 25.6-25.6 0 0 0 0 0 0h65.42c14.138 0 25.6 11.462 25.6 25.6s-11.462 25.6-25.6 25.6v0zM843.234 149.535c0.414 0.69 0.8 1.385 1.147 2.113 0.359 0.751 0.665 1.52 0.95 2.309 0.237 0.61 0.492 1.411 0.707 2.228l0.039 0.174c0.2 0.789 0.349 1.588 0.472 2.404 0.125 0.756 0.221 1.671 0.266 2.6l0.002 0.059c0.019 0.405 0.12 0.786 0.12 1.196 0 0.464-0.113 0.896-0.136 1.354-0.025 0.464 0.041 0.911-0.009 1.379l-10.475 97.65c-1.426 12.915-12.278 22.871-25.455 22.871-14.139 0-25.601-11.462-25.601-25.601 0-0.962 0.053-1.911 0.156-2.845l-0.010 0.115 7.436-69.322h-440.671c-14.138 0-25.6-11.462-25.6-25.6s11.462-25.6 25.6-25.6v0l469.199 0.004c0.953 0.002 1.89 0.054 2.813 0.154l-0.117-0.010c0.403 0.043 0.768 0.184 1.164 0.245 1.058 0.165 1.955 0.36 2.833 0.6l-0.178-0.042c0.781 0.206 1.541 0.435 2.289 0.71 0.974 0.364 1.755 0.709 2.513 1.090l-0.146-0.066c0.732 0.359 1.444 0.734 2.134 1.157 0.71 0.436 1.38 0.909 2.042 1.41 0.65 0.493 1.276 0.998 1.875 1.548 0.611 0.561 1.178 1.154 1.731 1.772 0.538 0.598 1.049 1.203 1.526 1.849 0.44 0.591 0.896 1.275 1.318 1.982l0.063 0.114zM647.329 625.932l-16.555-226.188c-0.043-0.559-0.068-1.21-0.068-1.867 0-14.138 11.461-25.598 25.598-25.598 13.48 0 24.527 10.42 25.525 23.645l0.005 0.086 14.82 202.455h52.19l27.16-253.185c1.426-12.904 12.261-22.854 25.423-22.873h0.002c0.973 0.001 1.933 0.055 2.878 0.158l-0.118-0.010c12.915 1.427 22.871 12.28 22.871 25.457 0 0.961-0.053 1.909-0.156 2.843l0.010-0.115-29.615 276.055c-1.427 12.915-12.278 22.87-25.455 22.87h-98.985c-0.001 0-0.003 0-0.004 0-13.48 0-24.526-10.421-25.521-23.647l-0.005-0.086zM573.869 693.395c0.009 0 0.019 0 0.030 0 7.059 0 13.449 2.866 18.070 7.497v0c4.263 4.25 10.145 6.878 16.641 6.878s12.381-2.629 16.644-6.881l-0.001 0.001 0.055-0.045c13.517-13.496 32.179-21.842 52.79-21.842 20.636 0 39.319 8.366 52.84 21.892v0c4.631 4.633 7.496 11.032 7.496 18.1 0 14.139-11.462 25.601-25.601 25.601-7.071 0-13.472-2.866-18.105-7.501v0c-4.256-4.258-10.137-6.892-16.633-6.892s-12.377 2.634-16.632 6.892v0l-0.046 0.038c-13.531 13.479-32.196 21.812-52.807 21.812-20.629 0-39.308-8.347-52.843-21.849l0.002 0.002c-4.634-4.633-7.5-11.034-7.5-18.104 0-14.138 11.461-25.599 25.599-25.599 0.001 0 0.001 0 0.002 0v0z" />
<glyph unicode="&#xe92f;" glyph-name="pro-auto-frontal" d="M786.455 316.563c0 0 0 0 0 0 14.138 0 25.6 11.461 25.6 25.6 0 0 0 0 0 0v0 133.13c-0.074 43.017-28.856 79.292-68.207 90.694l-0.668 0.166v36.398c-0.068 57.717-46.838 104.487-104.548 104.555h-253.252c-57.717-0.068-104.487-46.838-104.555-104.548v-36.405c-40.021-11.566-68.805-47.841-68.88-90.851v-133.139c0-14.138 11.462-25.6 25.6-25.6s25.6 11.462 25.6 25.6v0 133.13c0.028 23.886 19.379 43.243 43.26 43.279h0.003l0.016-0.001c0 0 0 0 0 0 14.138 0 25.6 11.461 25.6 25.6 0 0 0 0 0 0v0 58.38c0.034 29.453 23.902 53.321 53.352 53.355h253.248c29.453-0.034 53.321-23.902 53.355-53.352v-58.383c0 0 0 0 0 0 0-14.138 11.461-25.6 25.6-25.6 0 0 0 0 0 0v0l0.016 0.001c23.883-0.038 43.232-19.394 43.259-43.276v-133.133c0 0 0 0 0 0 0-14.138 11.461-25.6 25.6-25.6 0 0 0 0 0 0v0zM314.84 316.964v-102.47c0-14.138 11.462-25.6 25.6-25.6s25.6 11.462 25.6 25.6v0 102.47c0 14.138-11.462 25.6-25.6 25.6s-25.6-11.462-25.6-25.6v0zM658.38 316.964v-102.47c0-14.138 11.462-25.6 25.6-25.6s25.6 11.462 25.6 25.6v0 102.47c0 14.138-11.462 25.6-25.6 25.6s-25.6-11.462-25.6-25.6v0zM460.975 335.426c-14.138 0-25.6-11.462-25.6-25.6s11.462-25.6 25.6-25.6v0h102.895c14.138 0 25.6 11.462 25.6 25.6s-11.462 25.6-25.6 25.6v0zM426.425 449.201c-1.010 1.45-2.070 2.722-3.228 3.896l0.003-0.003c-1.154 1.17-2.427 2.216-3.802 3.121l-0.088 0.054c-1.259 0.838-2.706 1.626-4.223 2.285l-0.182 0.070c-1.345 0.566-2.938 1.060-4.587 1.402l-0.173 0.030c-1.509 0.313-3.242 0.493-5.018 0.493-3.526 0-6.887-0.708-9.948-1.988l0.17 0.063c-1.712-0.711-3.177-1.5-4.551-2.415l0.096 0.060c-6.896-4.662-11.37-12.452-11.37-21.288 0-7.060 2.856-13.452 7.476-18.085l-0.001 0.001c1.172-1.154 2.444-2.215 3.8-3.164l0.095-0.063c1.277-0.854 2.742-1.643 4.281-2.29l0.174-0.065c1.35-0.574 2.944-1.069 4.595-1.405l0.165-0.028c1.465-0.326 3.148-0.513 4.875-0.513 0.049 0 0.098 0 0.148 0h-0.008c0.033 0 0.071 0 0.11 0 1.739 0 3.434 0.187 5.067 0.541l-0.157-0.029c1.823 0.374 3.416 0.868 4.939 1.498l-0.179-0.065c1.699 0.731 3.146 1.518 4.511 2.421l-0.106-0.066c2.813 1.94 5.176 4.303 7.056 7.026l0.059 0.091c0.854 1.266 1.627 2.715 2.248 4.242l0.057 0.16c0.619 1.379 1.133 2.991 1.461 4.669l0.023 0.144c0.324 1.501 0.51 3.225 0.51 4.992s-0.186 3.492-0.539 5.154l0.029-0.161c-0.352 1.803-0.866 3.397-1.541 4.904l0.057-0.141c-0.662 1.704-1.437 3.171-2.356 4.533l0.051-0.081zM641.005 449.201c-0.974 1.458-2.019 2.731-3.176 3.893l0.001-0.001c-1.161 1.154-2.433 2.199-3.798 3.117l-0.092 0.058c-1.26 0.841-2.708 1.63-4.225 2.286l-0.18 0.069c-1.358 0.566-2.968 1.060-4.634 1.402l-0.176 0.030c-1.501 0.317-3.226 0.499-4.993 0.499s-3.492-0.182-5.156-0.527l0.164 0.028c-1.837-0.363-3.45-0.858-4.988-1.496l0.173 0.064c-1.696-0.727-3.141-1.515-4.503-2.42l0.103 0.064c-1.463-0.959-2.736-2.005-3.887-3.172l-0.003-0.003c-1.156-1.161-2.201-2.434-3.117-3.801l-0.058-0.092c-0.884-1.282-1.675-2.749-2.3-4.299l-0.055-0.153c-0.591-1.351-1.103-2.944-1.455-4.595l-0.030-0.167c-0.312-1.501-0.498-3.232-0.515-5.004v-0.013c0.022-1.789 0.209-3.52 0.545-5.197l-0.030 0.179c0.392-1.825 0.903-3.417 1.551-4.937l-0.066 0.175c0.696-1.687 1.486-3.136 2.409-4.485l-0.053 0.083c0.977-1.478 2.022-2.767 3.179-3.947l-0.004 0.004c1.169-1.132 2.439-2.175 3.791-3.11l0.099-0.065c1.264-0.851 2.713-1.624 4.239-2.245l0.161-0.058c1.379-0.618 2.992-1.131 4.67-1.461l0.145-0.024c1.501-0.326 3.225-0.513 4.993-0.513s3.492 0.187 5.154 0.541l-0.161-0.029c3.489 0.75 6.575 2.062 9.321 3.852l-0.106-0.065c1.448 1.019 2.717 2.062 3.905 3.189l-0.015-0.014c1.153 1.175 2.198 2.464 3.115 3.846l0.060 0.096c0.867 1.266 1.656 2.715 2.295 4.241l0.060 0.161c0.565 1.344 1.060 2.938 1.404 4.587l0.031 0.175c0.324 1.482 0.51 3.185 0.51 4.932 0 0.030 0 0.060 0 0.091v-0.005c0 0.047 0.001 0.102 0.001 0.157 0 1.722-0.186 3.4-0.539 5.015l0.028-0.155c-0.366 1.818-0.861 3.412-1.498 4.932l0.063-0.17c-0.683 1.704-1.474 3.17-2.406 4.531l0.051-0.079z" />
<glyph unicode="&#xe930;" glyph-name="pro-embarcacion" d="M700.062 49.010h-457.335c0 0-0.001 0-0.001 0-11.242 0-20.791 7.247-24.23 17.325l-0.053 0.18-57.165 171.497c-0.833 2.416-1.314 5.2-1.314 8.096 0 13.682 10.734 24.858 24.241 25.564l0.063 0.003 80.85 4.103c0.377 0.020 0.819 0.031 1.263 0.031 14.139 0 25.6-11.462 25.6-25.6 0-13.672-10.717-24.841-24.209-25.563l-0.064-0.003-47.205-2.395 40.675-122.038h425.295l101.975 150.8-414.15-21.47c-0.396-0.022-0.859-0.034-1.325-0.034-14.138 0-25.599 11.461-25.599 25.599 0 13.672 10.718 24.841 24.21 25.562l0.064 0.003 465.465 24.13c0.396 0.022 0.858 0.034 1.324 0.034 14.138 0 25.599-11.461 25.599-25.599 0-5.352-1.642-10.32-4.45-14.428l0.057 0.088-138.375-204.625c-4.665-6.833-12.417-11.26-21.202-11.26-0.001 0-0.002 0-0.003 0v0zM465.707 324.879c0 0 0 0 0 0-14.138 0-25.6 11.461-25.6 25.6 0 0 0 0 0 0v0 470.913c0 14.138 11.462 25.6 25.6 25.6s25.6-11.462 25.6-25.6v0-470.913c0 0 0 0 0 0 0-14.138-11.461-25.6-25.6-25.6 0 0 0 0 0 0v0zM553.887 330.617c-14.13 0.011-25.581 11.468-25.581 25.6 0 13.62 10.636 24.755 24.055 25.554l0.070 0.003 157.96 9.132-189.32 360.12c-1.845 3.448-2.929 7.542-2.929 11.89 0 14.139 11.462 25.6 25.6 25.6 9.773 0 18.267-5.477 22.581-13.528l0.067-0.137 207.81-395.295c1.852-3.453 2.94-7.555 2.94-11.911 0-13.618-10.632-24.753-24.049-25.555l-0.071-0.003-197.63-11.428c-0.505-0.030-1.005-0.042-1.505-0.042z" />
</font>
</defs>
</svg>
